#TITLE:Autriche;
#SUBTITLE:;
#ARTIST:Autechre;
#TITLETRANSLIT:;
#SUBTITLETRANSLIT:;
#ARTISTTRANSLIT:;
#CREDIT:;
#BANNER:Autriche.png;
#BACKGROUND:Autrichebg.png;
#LYRICSPATH:;
#CDTITLE:!therairaicdtitle.png;
#MUSIC:Autriche.mp3;
#OFFSET:-1.060;
#SAMPLESTART:64.280;
#SAMPLELENGTH:13.880;
#SELECTABLE:YES;
#BPMS:0.000=120.041,149.500=40.001,150.000=40.730,151.000=60.021,152.000=120.041,161.000=60.021,177.000=120.041,218.000=60.021,264.000=40.000,265.000=30.001,265.500=20.001,266.000=120.041,296.000=60.020,297.000=120.041;
#STOPS:112.000=2.480
,115.000=2.260
,178.500=2.540
,181.500=0.740
,182.000=0.240
;
#BGCHANGES:;
// cache tags:
#FIRSTBEAT:0.000;
#LASTBEAT:484.000;
#SONGFILENAME:Songs/Fresh Flock of Fantastic Files F4/(The Rai Rai) Autriche/Autriche.sm;
#HASMUSIC:1;
#HASBANNER:1;
#MUSICLENGTH:293.203;
// end cache tags

//---------------dance-single - ----------------
#NOTES:
     dance-single:
     :
     Hard:
     13:
     1.000,1.000,1.000,1.000,1.000,1344.000,339.000,383.000,0.000,0.000:
0001
0010
0100
0000
,
1000
0000
0000
0000
0100
0000
0000
0000
0010
0000
0000
0000
0000
0100
0000
0000
,
0001
0000
0000
0000
0100
0000
0000
0000
0010
0000
1000
0010
0000
0100
0000
0000
,
1000
0000
0000
0000
0010
0000
0000
0000
0100
1000
0010
0100
0000
1000
0010
0100
,
0001
0000
0000
1000
0100
0000
0000
0000
0001
0000
1000
0100
0000
1000
0001
0100
,
0010
1000
0010
0100
0001
0000
0010
0000
1000
0100
0010
0100
0000
0100
1000
0010
,
0100
1000
0010
0100
0001
0000
0010
0000
1000
0100
0010
0100
0000
0100
1000
0010
,
0100
1000
0010
0100
0001
0000
0010
0000
1000
0100
0010
0100
0000
0100
1000
0010
,
0100
1000
0010
0100
0001
1000
0100
0010
1000
0100
0010
0100
0000
0100
1000
0010
,
0100
1000
0010
0100
0001
1000
0100
0010
1000
0100
0010
0100
0000
0100
1001
1000
,
0100
1000
0010
0100
0001
1000
1001
0100
1000
0100
0010
0100
0000
0100
1001
1000
,
0100
1000
0010
0100
0001
1000
1001
0010
1000
0100
0010
0100
0000
0100
1001
1000
,
0100
1000
0010
0100
0001
1000
1001
0100
1000
1001
0010
0100
0000
0100
1001
1000
,
0100
1000
0010
0100
0001
1000
1001
0100
1000
1001
0010
0100
0000
0100
1001
1000
,
0100
1000
0010
0100
0001
1000
1001
0100
1000
1001
0010
0100
0000
0100
1001
1000
,
0100
1000
0010
0100
0001
1000
1001
0100
1000
1001
0010
0100
0000
0100
1001
1000
,
0100
0001
0010
0100
1000
0001
1001
0100
0001
1001
0010
0100
0000
0100
1001
0001
,
0100
0001
0010
0100
1000
0001
1001
0100
0001
1001
0010
0100
0000
0100
1001
0001
,
0100
0001
0010
0100
1000
0001
1001
0100
0001
1001
0010
0100
0000
0100
1001
0001
,
0100
0001
0010
0100
1000
0001
1001
0100
0001
1001
0010
0100
0000
0100
1001
0001
,
0100
1000
0010
0100
1001
1000
0010
0100
1001
1000
0010
0100
0000
0100
1001
1000
,
0100
1000
0010
0100
0001
1000
1001
0100
1000
1001
0010
0100
0000
0100
1001
1000
,
0100
1000
0010
0100
0001
1000
1001
0100
1000
1001
0010
0100
0000
0100
1001
1000
,
0100
1000
0010
0100
0001
1000
1001
0100
1000
1001
0010
0100
0000
0100
1001
1000
,
0100
0001
0010
0100
1000
0001
1001
0100
0001
1001
0010
0100
0000
0100
1001
0001
,
0100
0001
0010
0100
1000
0001
1001
0100
0001
1001
0010
0100
0000
0100
1001
0001
,
0100
0001
0010
0100
1000
0001
1001
0100
0001
1001
0010
0100
0000
0100
1001
0001
,
0100
0000
0000
0000
0001
0000
0000
0000
0010
0000
0000
0000
0100
0000
0000
0000
1001
0000
0000
0000
0001
0000
0000
0000
0010
0000
0000
0000
0100
0000
0000
0000
1001
0000
0000
0000
0001
0000
0000
0000
2200
3300
0000
0000
0000
0000
0000
0000
0202
0303
0000
0000
0000
0000
0000
0000
0000
0000
0000
0000
0000
0000
0000
0000
,
0100
0000
0000
0000
0000
0000
0000
0000
0022
0033
0000
0000
0000
0000
0000
0000
2002
3003
0000
0000
0000
0000
0000
0000
2002
3003
0000
0000
0000
0000
0000
0000
2200
3300
0000
0000
0000
0000
0000
0000
0000
0000
0000
0000
0000
0000
0000
0000
0100
0000
0000
0000
0000
0000
0000
0000
0010
0000
0000
0000
0000
0000
0000
0000
,
2020
3030
0000
0000
0000
0000
0000
0000
0220
0330
0000
0000
0000
0000
0000
0000
0202
0303
0000
0000
0000
0000
0000
0000
2200
3300
0000
0000
0010
0000
0000
0000
1001
0000
0000
0000
0100
0000
0000
0000
1000
0000
0000
0000
0100
0000
0000
0000
0010
0000
0000
0000
0100
0000
0000
0000
0000
0000
0000
0000
0100
0000
0000
0000
,
1001
0100
1000
1001
0010
0100
0000
0100
1001
1000
0100
1000
0010
0100
1001
1000
,
0022
0033
0000
0000
0100
0000
0000
0000
2002
3003
0000
0000
0100
0000
0000
0000
2002
3003
0000
0000
0100
0000
0000
0000
2200
3300
0000
0000
0100
0000
0000
0000
1001
0000
0000
0000
1000
0000
0000
0000
0100
0000
0000
0000
1000
0000
0000
0000
0010
0000
0000
0000
0100
0000
0000
0000
0001
0000
0000
0000
1000
0000
0000
0000
,
1001
0100
1000
1001
0010
0100
0000
0100
1001
1000
0100
1000
0010
0100
1001
1000
,
2020
3030
0000
0000
0100
0000
0000
0000
2002
3003
0000
0000
0100
0000
0000
0000
2002
3003
0000
0000
0100
0000
0000
0000
0202
0303
0000
0000
0100
0000
0000
0000
1001
0000
0000
0000
1000
0000
0000
0000
0100
0000
0000
0000
0001
0000
0000
0000
0010
0000
0000
0000
0100
0000
0000
0000
1000
0000
0000
0000
0001
0000
0000
0000
,
1001
0100
0001
1001
0010
0100
0000
0100
1001
0001
0100
0001
0010
0100
1001
1000
,
0022
0033
0000
0000
0100
0000
0000
0000
2002
3003
0000
0000
0100
0000
0000
0000
2020
3030
0000
0000
0100
0000
0000
0000
0202
0303
0000
0000
0100
0000
0000
0000
1001
0000
0000
0000
0001
0000
0000
0000
0100
0000
0000
0000
0001
0000
0000
0000
0010
0000
0000
0000
0100
0000
0000
0000
1000
0000
0000
0000
0001
0000
0000
0000
,
1001
0100
0001
1001
0010
0100
0000
0100
1001
0001
0100
0001
0010
0100
1001
1000
,
2020
3030
0000
0000
0100
0000
0000
0000
2002
3003
0000
0000
0100
0000
0000
0000
2002
3003
0000
0000
0000
0000
0000
0000
0202
0303
0000
0000
0000
0000
0000
0000
0000
0000
0000
0000
0000
0000
0000
0000
0000
0000
0000
0000
0000
0000
0100
0000
1001
0000
0100
0000
0000
0000
0100
0000
0000
0000
0100
0000
1001
0000
0100
0000
,
2020
3030
0000
0000
0000
0000
0000
0000
2002
3003
0000
0000
0100
0000
0000
0000
2002
3003
0000
0000
0100
0000
0000
0000
0202
0303
0000
0000
0100
0000
0000
0000
1001
0000
0000
0000
0001
0000
0000
0000
0100
0000
0000
0000
0001
0000
0000
0000
0010
0000
0000
0000
0100
0000
0000
0000
1000
0000
0000
0000
0001
0000
0000
0000
,
1001
0100
0001
1001
0010
0100
0000
0100
1001
0001
0100
0001
0010
0100
1001
0001
,
0010
0100
1001
0010
0200
0000
0000
0320
0000
0000
0000
0000
0032
0000
0000
0203
,
0000
0000
0320
0000
2030
0000
0000
0000
0000
0000
0000
0000
3002
0000
0000
2003
,
0000
0000
3020
0000
0230
0000
0000
0320
0000
2030
0000
0000
0000
0000
0000
0000
,
3000
0000
0000
0000
0000
0000
0000
0000
0000
0020
0000
0230
0000
0300
0000
2000
,
0000
0000
0000
0000
3002
0000
0000
0000
0000
0000
0000
0000
0003
0000
0000
0000
2200
3300
0000
0000
0000
0000
0000
0000
0202
0303
0000
0000
0000
0000
0000
0000
0000
0000
0000
0000
0000
0000
0000
0000
0100
0000
0000
0000
0000
0000
0000
0000
2002
3003
0000
0000
0000
0000
0000
0000
0202
0303
0000
0000
0000
0000
0000
0000
,
0202
0303
0000
0000
0000
0000
0000
0000
2200
3300
0000
0000
0000
0000
0000
0000
0000
0000
0000
0000
0000
0000
0000
0000
0100
0000
0000
0000
0000
0000
0000
0000
1000
0000
0000
0000
0000
0000
0000
0000
0022
0033
0000
0000
0000
0000
0000
0000
0022
0033
0000
0000
0022
0033
0000
0000
0000
0000
0000
0000
0022
0000
0000
0000
,
0000
0000
0033
0000
0100
0000
0000
0000
0022
0033
0000
0000
0100
0000
0000
0000
0022
0033
0000
0000
0000
0000
0000
0000
0220
0330
0000
0000
0100
0000
0000
0000
2200
3300
0000
0000
0010
0000
0000
0000
1000
0000
0000
0000
0100
0000
0000
0000
1001
0000
0000
0000
0100
0000
0000
0000
1000
0000
0000
0000
0100
0000
0000
0000
,
0010
0100
0000
0100
1001
0100
1000
1001
0010
0100
0000
0100
1001
1000
0100
1000
,
0010
0000
0000
0000
0100
0000
0000
0000
1001
0000
0000
0000
1000
0000
0000
0000
0022
0033
0000
0000
0100
0000
0000
0000
2002
3003
0000
0000
0100
0000
0000
0000
2002
3003
0000
0000
0100
0000
0000
0000
2200
3300
0000
0000
0100
0000
0000
0000
1001
0000
0000
0000
1000
0000
0000
0000
0100
0000
0000
0000
1000
0000
0000
0000
,
0010
0000
0000
0000
0100
0000
0000
0000
0001
0000
0000
0000
1000
0000
0000
0000
1001
0000
0000
0000
0100
0000
0000
0000
1000
0000
0000
0000
1001
0000
0000
0000
0010
0000
0000
0000
0100
0000
0000
0000
2002
3003
0000
0000
0100
0000
0000
0000
2002
3003
0000
0000
2002
3003
0000
0000
0100
0000
0000
0000
2002
0000
0000
0000
,
0000
0000
3003
0000
0100
0000
0000
0000
2002
3003
0000
0000
1000
0000
0000
0000
2020
3030
0000
0000
0100
0000
0000
0000
2002
3003
0000
0000
0100
0000
0000
0000
0202
0303
0000
0000
0100
0000
0000
0000
0010
0000
0000
0000
0100
0000
0000
0000
1001
0000
0000
0000
1000
0000
0000
0000
0100
0000
0000
0000
0001
0000
0000
0000
,
0010
0100
1000
0001
1001
0100
0001
1001
0010
0100
0000
0100
1001
0001
0100
0001
,
0010
0000
0000
0000
0100
0000
0000
0000
1001
0000
0000
0000
1000
0000
0000
0000
0022
0033
0000
0000
0100
0000
0000
0000
2002
3003
0000
0000
0100
0000
0000
0000
2020
3030
0000
0000
0100
0000
0000
0000
0202
0303
0000
0000
0100
0000
0000
0000
1001
0000
0000
0000
0001
0000
0000
0000
0100
0000
0000
0000
0001
0000
0000
0000
,
0010
0000
0000
0000
0100
0000
0000
0000
1000
0000
0000
0000
0001
0000
0000
0000
1001
0000
0000
0000
0100
0000
0000
0000
0001
0000
0000
0000
1001
0000
0000
0000
0010
0000
0000
0000
0100
0000
0000
0000
2002
3003
0000
0000
0100
0000
0000
0000
2002
3003
0000
0000
2002
3003
0000
0000
0100
0000
0000
0000
2002
0000
0000
0000
,
0000
0000
0000
0000
0000
0000
3003
0000
0000
0000
0000
0000
0100
0000
0000
0000
0000
0000
0000
0000
0000
0000
0000
0000
2002
0000
0000
3003
0000
0000
0000
0000
0000
0000
0000
0000
0001
0000
0000
0000
0000
0000
0000
0000
0000
0000
0000
0000
0022
0000
0000
0033
0000
0000
0000
0000
0000
0000
0000
0000
0100
0000
0000
0000
0000
0000
0000
0000
0000
0000
0000
0000
2002
0000
0000
3003
0000
0000
0000
0000
0000
0000
0000
0000
0100
0000
0000
0000
0000
0000
0000
0000
0000
0000
0000
0000
2000
0000
0000
0000
0000
0000
0000
0000
0000
0000
0000
0000
0000
0000
0000
0000
3000
0000
0200
0000
0000
0000
0300
0000
0020
0000
0000
0000
0030
0000
0000
0000
0000
0000
0000
0000
0200
0000
0000
0000
0000
0000
0000
0000
0000
0000
0000
0000
0000
0000
0000
0000
0300
0000
0200
0000
0000
0000
0000
0000
0000
0000
0000
0000
0000
0000
0000
0000
0000
0000
0300
0000
0200
0000
0000
0000
0000
0000
0000
0000
0000
0000
0300
0000
2000
0000
0000
0000
0000
0000
0000
0000
0000
0000
0000
0000
,
3000
0000
0000
0000
0000
0000
0000
0000
0000
0000
0000
0000
0000
0000
0000
0000
0000
0000
0000
0000
0000
0000
0000
0000
0000
0000
0000
0000
0000
0000
0000
0000
0000
0000
0000
0000
0000
0000
0000
0000
0000
0000
0000
0000
0000
0000
0000
0000
0000
0000
0000
0000
0000
0000
0000
0000
0000
0000
0000
0000
0000
0000
0000
0000
0000
0000
0000
0000
0000
0000
0000
0000
0020
0000
0000
0000
0000
0000
0000
0000
0000
0000
0030
0000
2000
0000
0000
0000
0000
0000
0000
0000
0000
0000
3000
0000
0200
0000
0000
0000
0000
0000
0000
0000
0000
0000
0000
0000
0000
0000
0000
0000
0300
0000
0200
0300
0000
0000
0000
0000
0000
0000
0000
0000
0000
0000
0000
0000
0000
0000
0000
0000
0000
0000
0000
0000
0000
0000
0000
0000
0000
0000
0000
0000
0000
0000
0000
0000
0000
0000
0000
0000
0000
0000
0000
0000
0000
0000
0000
0000
0000
0000
0000
0000
0000
0000
0000
0000
0000
0000
0000
0000
0000
0000
0000
0000
0000
0000
0000
0000
0000
0000
0000
0000
0000
0000
0000
0000
0000
0000
0000
0000
,
0000
0000
0000
0000
0000
0000
0000
0000
0000
0000
0000
0000
0000
0000
0000
0000
0000
0000
0000
0000
0000
0000
0000
0000
0000
0000
0000
0000
0000
0000
0000
0000
0000
0000
0000
0000
0000
0000
0000
0000
0000
0000
0000
0000
0000
0000
0000
0000
0000
0000
0000
0000
0000
0000
0000
0000
0000
0000
0000
0000
0000
0000
0000
0000
0000
0000
0000
0000
0000
0000
0000
0000
0020
0000
0000
0000
0000
0000
0000
0000
0000
0000
0030
0000
0200
0000
0000
0000
0000
0000
0000
0000
0000
0000
0300
0000
2000
0000
0000
0000
0000
0000
0000
0000
0000
0000
0000
0000
0000
0000
0000
0000
3000
0000
0200
0000
0000
0000
0300
0000
0020
0000
0000
0000
0030
0000
0000
0000
0000
0000
0000
0000
0200
0000
0000
0000
0000
0000
0000
0000
0000
0000
0000
0000
0000
0000
0000
0000
0300
0000
0200
0000
0000
0000
0000
0000
0000
0000
0000
0000
0000
0000
0000
0000
0000
0000
0300
0000
0200
0000
0000
0000
0000
0000
0000
0000
0000
0000
0300
0000
2000
0000
0000
0000
3000
0000
0020
0000
0000
0000
0030
0000
,
0000
0000
0000
0000
0000
0000
0000
0000
0000
0000
0000
0000
0000
0000
0000
0000
0000
0000
0000
0000
0000
0000
0000
0000
0000
0000
0000
0000
0000
0000
0000
0000
0000
0000
0000
0000
0000
0000
0000
0000
0000
0000
0000
0000
0000
0000
0000
0000
0000
0000
0000
0000
0000
0000
0000
0000
0000
0000
0000
0000
0000
0000
0000
0000
0000
0000
0000
0000
0000
0000
0000
0000
2000
0000
0000
0000
0000
0000
0000
0000
0000
0000
3000
0000
0020
0000
0000
0000
0000
0000
0000
0000
0000
0000
0030
0000
0200
0000
0000
0000
0000
0000
0000
0000
0000
0000
0000
0000
0000
0000
0000
0000
0300
0000
0200
0300
0000
0000
0000
0000
0000
0000
0000
0000
0000
0000
0000
0000
0000
0000
0000
0000
0000
0000
0000
0000
0000
0000
0000
0000
0000
0000
0000
0000
0000
0000
0000
0000
0000
0000
0000
0000
0000
0000
0000
0000
0000
0000
0000
0000
0000
0000
0000
0000
0000
0000
0000
0000
0000
0000
0000
0000
0000
0000
0000
0000
0000
0000
0000
0000
0000
0000
0000
0000
0000
0000
0000
0000
0000
0000
0000
0000
,
0000
0000
0000
0000
0000
0000
0000
0000
0000
0000
0000
0000
0000
0000
0000
0000
0000
0000
0000
0000
0000
0000
0000
0000
0000
0000
0000
0000
0000
0000
0000
0000
0000
0000
0000
0000
0000
0000
0000
0000
0000
0000
0000
0000
0000
0000
0000
0000
0000
0000
0000
0000
0000
0000
0000
0000
0000
0000
0000
0000
0020
0000
0000
0000
0000
0000
0000
0000
0000
0000
0000
0000
0000
0000
0000
0000
0030
0000
0200
0000
0000
0000
0000
0000
0000
0000
0000
0000
0000
0000
0000
0000
0000
0000
0300
0000
2002
0000
0000
0000
0000
0000
0000
0000
0000
0000
0000
0000
0000
0000
0000
0000
3003
0000
0202
0000
0000
0000
0303
0000
0020
0000
0000
0030
0000
0000
0000
0000
0000
0000
0000
0000
0202
0000
0000
0000
0000
0000
0000
0000
0000
0000
0000
0000
0000
0000
0000
0000
0303
0000
0202
0000
0000
0000
0000
0000
0000
0000
0000
0000
0000
0000
0000
0000
0000
0000
0303
0000
0202
0000
0000
0000
0000
0000
0000
0000
0000
0000
0303
0000
2002
0000
0000
0000
0000
0000
0000
0000
0000
0000
0000
0000
,
3000
0000
0000
0000
0000
0000
0003
0000
0000
0000
0000
0000
0000
0000
0000
0000
0000
0000
0000
0000
0000
0000
0000
0000
0000
0000
0000
0000
0000
0000
0000
0000
0000
0000
0000
0000
0000
0000
0000
0000
0000
0000
0000
0000
0000
0000
0000
0000
0000
0000
0000
0000
0000
0000
0000
0000
0000
0000
0000
0000
0000
0000
0000
0000
0000
0000
0000
0000
0000
0000
0000
0000
0022
0000
0000
0000
0000
0000
0000
0000
0000
0000
0033
0000
2002
0000
0000
0000
0000
0000
0000
0000
0000
0000
3003
0000
0202
0000
0000
0000
0000
0000
0000
0000
0000
0000
0000
0000
0000
0000
0000
0000
0303
0000
0202
0303
0000
0000
0000
0000
0000
0000
0000
0000
0000
0000
0000
0000
0000
0000
0000
0000
0000
0000
0000
0000
0000
0000
0000
0000
0000
0000
0000
0000
0000
0000
0000
0000
0000
0000
0000
0000
0000
0000
0000
0000
0000
0000
0000
0000
0000
0000
0000
0000
0000
0000
0000
0000
0000
0000
0000
0000
0000
0000
0000
0000
0000
0000
0000
0000
0000
0000
0000
0000
0000
0000
0000
0000
0000
0000
0000
0000
,
0000
0000
0000
0000
0000
0000
0000
0000
0000
0000
0000
0000
0000
0000
0000
0000
0000
0000
0000
0000
0000
0000
0000
0000
0000
0000
0000
0000
0000
0000
0000
0000
0000
0000
0000
0000
0000
0000
0000
0000
0000
0000
0000
0000
0000
0000
0000
0000
0000
0000
0000
0000
0000
0000
0000
0000
0000
0000
0000
0000
0000
0000
0000
0000
0000
0000
0000
0000
0000
0000
0000
0000
0022
0000
0000
0000
0000
0000
0000
0000
0000
0000
0033
0000
0202
0000
0000
0000
0000
0000
0000
0000
0000
0000
0303
0000
2000
0000
0000
0000
0000
0000
0000
0000
0000
0000
0000
0000
0000
0000
0000
0000
3000
0000
0200
0000
0000
0000
0300
0000
0020
0000
0000
0000
0030
0000
0000
0000
0000
0000
0000
0000
0202
0000
0000
0000
0000
0000
0000
0000
0000
0000
0000
0000
0000
0000
0000
0000
0303
0000
0202
0000
0000
0000
0000
0000
0000
0000
0000
0000
0000
0000
0000
0000
0000
0000
0303
0000
0202
0000
0000
0000
0000
0000
0000
0000
0000
0000
0303
0000
2002
0000
0000
0000
0000
0000
0000
0000
0000
0000
3000
0000
,
0000
0000
0000
0003
0000
0000
0000
0000
0000
0000
0000
0000
0000
0000
0000
0000
0000
0000
0000
0000
0000
0000
0000
0000
0000
0000
0000
0000
0000
0000
0000
0000
0000
0000
0000
0000
0000
0000
0000
0000
0000
0000
0000
0000
0000
0000
0000
0000
0000
0000
0000
0000
0000
0000
0000
0000
0000
0000
0000
0000
0000
0000
0000
0000
0000
0000
0000
0000
0000
0000
0000
0000
2002
0000
0000
0000
0000
0000
0000
0000
0000
0000
3003
0000
0020
0000
0000
0000
0000
0000
0000
0000
0000
0000
0030
0000
0202
0000
0000
0000
0000
0000
0000
0000
0000
0000
0000
0000
0000
0000
0000
0000
0303
0000
0202
0303
0000
0000
0000
0000
0000
0000
0000
0000
0000
0000
0000
0000
0000
0000
0000
0000
0000
0000
0000
0000
0000
0000
0000
0000
0000
0000
0000
0000
0000
0000
0000
0000
0000
0000
0000
0000
0000
0000
0000
0000
2000
0000
0000
0000
0000
0000
0000
0000
0000
0000
0000
0000
0000
0000
0000
0000
0000
0000
0000
0000
0000
0000
0000
0000
0000
0000
0000
0000
0000
0000
0000
0000
0000
0000
0000
0000
,
0000
0000
0000
0000
0000
0000
0000
0000
0000
0000
0000
0000
0100
0000
0010
0000
3100
0000
0010
0000
0100
0000
1000
0000
0100
0000
0010
0001
0010
0001
0010
0100
1000
0100
0010
0100
1000
0100
0010
0001
0010
0000
1000
0000
0100
0000
0010
0000
0100
0000
1000
0000
0001
0000
0100
0000
1000
0000
0100
0010
0100
0010
0100
1000
,
0100
0000
0010
0000
0100
0000
0010
0000
1000
0000
0100
0000
0010
0001
0100
0000
1000
0000
0010
0000
0100
0000
0001
0000
0000
0000
0000
0000
0010
0000
0010
0000
0000
0000
0010
0000
0000
0000
0010
0000
0100
1000
0100
0010
0001
0000
0010
0000
0100
0000
1000
0000
0010
0000
0100
0000
0001
0000
0010
0100
1000
0100
1000
0100
,
0010
0000
0000
0000
0000
0000
0001
0000
0000
0000
0000
0000
0010
0000
0000
0000
0000
0000
0100
0000
0000
0000
0000
0000
1000
0000
0000
0000
0000
0000
0100
0000
0000
0000
0000
0000
0000
0000
0000
0000
0000
0000
0000
0000
0000
0000
0000
0000
0000
0000
0000
0000
0000
0000
0000
0000
0000
0000
0000
0000
0000
0000
0000
0000
0000
0000
0000
0000
0000
0000
0000
0000
0022
0000
0000
0000
0000
0000
0000
0000
0000
0000
0033
0000
0202
0000
0000
0000
0000
0000
0000
0000
0000
0000
0303
0000
2000
0000
0000
0000
0000
0000
0000
0000
0000
0000
0000
0000
0000
0000
0000
0000
3000
0000
0200
0000
0000
0000
0300
0000
0020
0000
0000
0030
0000
0000
0000
0000
0000
0000
0000
0000
0202
0000
0000
0000
0000
0000
0000
0000
0000
0000
0000
0000
0000
0000
0000
0000
0303
0000
0202
0000
0000
0000
0000
0000
0000
0000
0000
0000
0000
0000
0000
0000
0000
0000
0303
0000
0202
0000
0000
0000
0000
0000
0000
0000
0000
0000
0303
0000
2002
0000
0000
0000
0000
0000
0000
0000
0000
0000
3000
0000
,
0000
0000
0000
0003
0000
0000
0000
0000
0000
0000
0000
0000
0000
0000
0000
0000
0000
0000
0000
0000
0000
0000
0000
0000
0000
0000
0000
0000
0000
0000
0000
0000
0000
0000
0000
0000
0000
0000
0000
0000
0000
0000
0000
0000
0000
0000
0000
0000
0000
0000
0000
0000
0000
0000
0000
0000
0000
0000
0000
0000
0000
0000
0000
0000
0000
0000
0000
0000
0000
0000
0000
0000
2002
0000
0000
0000
0000
0000
0000
0000
0000
0000
3003
0000
0020
0000
0000
0000
0000
0000
0000
0000
0000
0000
0030
0000
0202
0000
0000
0000
0000
0000
0000
0000
0000
0000
0000
0000
0000
0000
0000
0000
0303
0000
0202
0303
0000
0000
0000
0000
0000
0000
0000
0000
0000
0000
0000
0000
0000
0000
0000
0000
0000
0000
0000
0000
0000
0000
0000
0000
0000
0000
0000
0000
0000
0000
0000
0000
0000
0000
0000
0000
0000
0000
0000
0000
0000
0000
0000
0000
0000
0000
0000
0000
0000
0000
0000
0000
0000
0000
0000
0000
0000
0000
0000
0000
0000
0000
0000
0000
0000
0000
0000
0000
0000
0000
0000
0000
0000
0000
0000
0000
,
0000
0000
0000
0000
0000
0000
0000
0000
0000
0000
0000
0000
0000
0000
2000
3020
1030
0000
0100
0000
0000
0000
0100
0000
1001
0000
1000
0000
0100
0000
1000
0000
,
0010
0100
0001
1000
1001
0100
1000
1001
0010
0100
0000
0100
1001
1000
0100
1000
,
0010
0100
0001
1000
1001
0100
1000
1001
0010
0100
0000
0100
1001
1000
0100
1000
,
0010
0100
0001
1000
1001
0100
1000
1001
0010
0100
0000
0100
1001
1000
0100
1000
,
0010
0100
1001
1000
0010
0100
1001
1000
0010
0100
0000
0100
1001
1000
0100
0001
,
0010
0100
1000
0001
1001
0100
0001
1001
0010
0100
0000
0100
1001
0001
0100
0001
,
0010
0100
1001
0001
0010
0100
1001
0100
0010
0100
0000
0100
1001
0001
0100
0001
,
0010
0000
1000
0000
0001
0100
0001
0000
1001
0000
0100
0000
0001
0000
1001
0000
0000
0000
0100
0000
0000
0000
0100
0000
1001
0000
1001
0000
0000
0000
0100
0000
,
0000
0000
0000
0000
2000
0000
0000
0000
0000
0000
3020
0000
0000
0000
0000
0030
1000
0000
0000
0000
0100
0000
0000
0000
0000
0000
0000
0000
0100
0000
0000
0000
1001
0000
0000
0000
1000
0000
0000
0000
0100
0000
0000
0000
1000
0000
0000
0000
0010
0000
0000
0000
0100
0000
0000
0000
0001
0000
0000
0000
1000
0000
0000
0000
,
1001
0100
1000
1001
0010
0100
0000
0100
1001
1000
0100
1000
0010
0100
1001
1000
,
0010
0100
1001
0100
0010
0100
0000
0100
1001
1000
0100
1000
0010
0100
0001
1000
,
1001
0100
1000
1001
0010
0100
0000
0100
1001
1000
0100
1000
0010
0100
1001
1000
,
0010
0100
1001
1000
0010
0100
0000
0100
1001
1000
0100
0001
0010
0100
1000
0001
,
1001
0100
0001
1001
0010
0100
0000
0100
1001
0001
0100
0001
0010
0100
1001
0001
,
0010
0100
1001
0100
1000
0100
0000
0100
1000
0001
0100
0001
0010
0100
2010
0100
,
3010
0100
0012
0103
0010
0001
0000
0001
0010
0100
2010
0001
3010
0100
0012
0100
,
1000
0000
0000
0000
0103
0000
0000
0000
0010
0000
0000
0000
0001
0000
0000
0000
0202
0303
0000
0000
0000
0000
0000
0000
2200
3300
0000
0000
0000
0000
0000
0000
1001
0000
0000
0000
0000
0000
0000
0000
0000
0000
0000
0000
0000
0000
0000
0000
0000
0000
0000
0000
0000
0000
0000
0000
0000
0000
0000
0000
0100
0000
0000
0000
,
1001
0100
1000
1001
0010
0100
0000
0100
1001
1000
0100
1000
0010
0100
1001
1000
,
0022
0033
0000
0000
0100
0000
0000
0000
2002
3003
0000
0000
0100
0000
0000
0000
2002
3003
0000
0000
0100
0000
0000
0000
2200
3300
0000
0000
0100
0000
0000
0000
1001
0000
0000
0000
1000
0000
0000
0000
0100
0000
0000
0000
1000
0000
0000
0000
0010
0000
0000
0000
0100
0000
0000
0000
0001
0000
0000
0000
1000
0000
0000
0000
,
1001
0100
1000
1001
0010
0100
0000
0100
1001
1000
0100
1000
0010
0100
1001
1000
,
2020
3030
0000
0000
0100
0000
0000
0000
2002
3003
0000
0000
0100
0000
0000
0000
2002
3003
0000
0000
0100
0000
0000
0000
0202
0303
0000
0000
0100
0000
0000
0000
1001
0000
0000
0000
1000
0000
0000
0000
0100
0000
0000
0000
0001
0000
0000
0000
0010
0000
0000
0000
0100
0000
0000
0000
1000
0000
0000
0000
0001
0000
0000
0000
,
1001
0100
0001
1001
0010
0100
0000
0100
1001
0001
0100
0001
0010
0100
1001
1000
,
0022
0033
0000
0000
0100
0000
0000
0000
2002
3003
0000
0000
0100
0000
0000
0000
2020
3030
0000
0000
0100
0000
0000
0000
0202
0303
0000
0000
0100
0000
0000
0000
1001
0000
0000
0000
0001
0000
0000
0000
0100
0000
0000
0000
0001
0000
0000
0000
0010
0000
0000
0000
0100
0000
0000
0000
1000
0000
0000
0000
0001
0000
0000
0000
,
1001
0100
0001
1001
0010
0100
0000
0100
1001
0001
0100
0001
0010
0100
1001
1000
,
2020
3030
0000
0000
1001
0000
0000
0000
2002
3003
0000
0000
0100
0000
0000
0000
0202
0303
0000
0000
0000
0000
0000
0000
2200
3300
0000
0000
0010
0000
0000
0000
1001
0000
0000
0000
0100
0000
0000
0000
1000
0000
0000
0000
0100
0000
0000
0000
0010
0000
0000
0000
0100
0000
0000
0000
0000
0000
0000
0000
0100
0000
0000
0000
,
1001
0100
1000
1001
0010
0100
0000
0100
1001
1000
0100
1000
0010
0100
1001
1000
,
0022
0033
0000
0000
0100
0000
0000
0000
2002
3003
0000
0000
0100
0000
0000
0000
2002
3003
0000
0000
0100
0000
0000
0000
2200
3300
0000
0000
0100
0000
0000
0000
1001
0000
0000
0000
1000
0000
0000
0000
0100
0000
0000
0000
1000
0000
0000
0000
0010
0000
0000
0000
0100
0000
0000
0000
1001
0000
0000
0000
1000
0000
0000
0000
,
0010
0100
1001
1000
0010
0100
0000
0100
1001
1000
0100
1000
0010
0100
1001
1000
,
2020
3030
0000
0000
0100
0000
0000
0000
2002
3003
0000
0000
0100
0000
0000
0000
2002
3003
0000
0000
0100
0000
0000
0000
0202
0303
0000
0000
0100
0000
0000
0000
1001
0000
0000
0000
1000
0000
0000
0000
0100
0000
0000
0000
0001
0000
0000
0000
0010
0000
0000
0000
0100
0000
0000
0000
1000
0000
0000
0000
0001
0000
0000
0000
,
1001
0100
0001
1001
0010
0100
0000
0100
1001
0001
0100
0001
0010
0100
1001
1000
,
0022
0033
0000
0000
0100
0000
0000
0000
2002
3003
0000
0000
0100
0000
0000
0000
2020
3030
0000
0000
0100
0000
0000
0000
0202
0303
0000
0000
0100
0000
0000
0000
1001
0000
0000
0000
0001
0000
0000
0000
0100
0000
0000
0000
0001
0000
0000
0000
0010
0000
0000
0000
0100
0000
0000
0000
1000
0000
0000
0000
0001
0000
0000
0000
,
1001
0100
0001
1001
0100
0000
0100
0000
1001
0000
0100
0000
0100
0000
1001
0000
,
2200
3300
0000
0000
0000
0000
0000
0000
2002
3000
0000
0000
0000
0000
0000
0000
0000
0000
0000
0000
0000
0000
0000
0000
0000
0000
0000
0000
0000
0000
0000
0000
0000
0000
0000
0000
0000
0000
0000
0000
0000
0000
0000
0000
0000
0000
0000
0000
0000
0000
0000
0000
0000
0000
0000
0000
0000
0000
0000
0000
0000
0000
0000
0000
,
0000
0000
0000
0000
,
0000
0000
0000
0000
,
0003
0000
0000
0000
,
0000
0000
0000
0000
,
0000
0000
0000
0000
,
2020
3030
0000
0000
0000
0000
0000
0000
0202
0303
0000
0000
0000
0000
0000
0000
0000
0000
0000
0000
0000
0000
0000
0000
0000
0000
0000
0000
0000
0000
0000
0000
0000
0000
0000
0000
0000
0000
0000
0000
0000
0000
0000
0000
0000
0000
0000
0000
0000
0000
0000
0000
0000
0000
0000
0000
0000
0000
0000
0000
0000
0000
0000
0000
,
2200
0000
0000
0000
0000
0000
3300
0000
0000
0000
0000
0000
0022
0033
0000
0000
0000
0000
0000
0000
0000
0000
0000
0000
0000
0000
0000
0000
0000
0000
0000
0000
0000
0000
0000
0000
0000
0000
0000
0000
0000
0000
0000
0000
0000
0000
0000
0000
0000
0000
0000
0000
0000
0000
0000
0000
0022
0033
0000
0000
0000
0000
0000
0000
,
0022
0000
0000
0033
0000
0000
0202
0000
0000
0303
0000
0000
0000
0000
0000
0000
0000
0000
0000
0000
0000
0000
0000
0000
0000
0000
0000
0000
0000
0000
0000
0000
,
0000
0000
0000
0000
,
0202
0000
0000
0000
0000
0000
0303
0000
0000
0000
0000
0000
2020
3030
0000
0000
0000
0000
0000
0000
0000
0000
0000
0000
0000
0000
0000
0000
0000
0000
0000
0000
0000
0000
0000
0000
0000
0000
0000
0000
0000
0000
0000
0000
0000
0000
0000
0000
0000
0000
0000
0000
0000
0000
0000
0000
0000
0000
0000
0000
0000
0000
0000
0000
,
0000
0000
0000
0000
0000
0000
0000
0000
0000
0000
0000
0000
0000
0000
0000
0000
0000
0000
0000
0000
0000
0000
0000
0000
0000
0000
0000
0000
0000
0000
0000
0000
0000
0000
0000
0000
0000
0000
0000
0000
2020
0000
0000
0000
0000
0000
3030
0000
0000
0000
0000
0000
2020
3030
0000
0000
0000
0000
0000
0000
0000
0000
0000
0000
,
2020
3030
0000
0000
0000
0000
0000
0000
2200
3300
0000
0000
0000
0000
0000
0000
0022
0000
0000
0000
0000
0000
0030
0000
0000
0000
0000
0003
2200
3300
0000
0000
0000
0000
0000
0000
0000
0000
0000
0000
2200
3000
0000
0000
0000
0000
0000
0000
0000
0000
0000
0000
0000
0000
0000
0300
2000
0000
0000
0000
0000
0000
0000
0000
,
0000
0000
0000
0000
0000
0000
0000
3000
0022
0000
0000
0000
0000
0000
0033
0000
0000
0000
0000
0000
0202
0303
0000
0000
0000
0000
0000
0000
0000
0000
0000
0000
0000
0000
0000
0000
0000
0000
0000
0000
0000
0000
0000
0000
0000
0000
0000
0000
0000
0000
0000
0000
0000
0000
0000
0000
2000
0000
0000
0000
0000
0000
0000
0000
,
0000
3020
0000
0000
,
0000
0000
0000
0000
0000
0000
0000
0000
0000
0000
0000
0000
0000
0000
0000
0000
0000
0000
0000
0000
0000
0000
0000
0000
0000
0000
0000
0000
0000
0000
0000
0030
2000
0000
0000
0000
0000
0000
0000
0000
0000
0000
0000
0000
0000
0000
0000
0000
0000
0000
0000
0000
0000
0000
0000
3000
0202
0303
0000
0000
0000
0000
0000
0000
,
0202
0000
0000
0000
0000
0000
0303
0000
0000
0000
0000
0000
2020
0030
0000
0000
0000
0000
0000
0000
0000
0000
0000
0000
0000
0000
0000
0000
0000
0000
0000
0000
0000
0000
0000
0000
0000
0000
0000
0000
3020
0000
0000
0000
0000
0000
0000
0000
0000
0000
0000
0000
0000
0000
0000
0000
0000
0000
0000
0000
0000
0000
0000
0000
,
0230
0000
0000
0000
0000
0000
0000
0000
0000
0000
0000
0000
0000
0000
0000
0000
0000
0000
0000
0000
0000
0000
0000
0000
0000
0000
0000
0000
0000
0000
0000
0000
0000
0000
0000
0000
0000
0000
0000
0000
0000
0000
0000
0000
0000
0000
0000
0000
0000
0000
0000
0000
0000
0000
0000
0000
2300
0000
0000
0000
0000
0000
0000
3000
,
0220
0330
0000
0000
0000
0000
0000
0000
0202
0303
0000
0000
0000
0000
0000
0000
0020
0000
0000
0000
0000
0000
0000
0000
0000
0000
0000
0000
0000
0000
0000
0000
0000
0000
0000
0000
0000
0000
0000
0000
0000
0000
0000
0000
0000
0000
0000
0000
0030
0000
0000
0000
0000
0000
0000
0000
0000
0000
0000
0000
0000
0000
0000
0000
,
2200
0000
0000
0000
0000
0000
3300
0000
0000
0000
0000
0000
0022
0030
0000
0000
0000
0000
0000
0000
0000
0000
0000
0000
0000
0000
0000
0000
0000
0000
0000
0000
0000
0000
0000
0000
0000
0000
0000
0000
0000
0000
0000
0000
0000
0000
0000
0000
0000
0000
0000
0000
0000
0000
0000
0003
2020
3030
0000
0000
0000
0000
0000
0000
,
2020
0000
0000
3030
0000
0000
0202
0000
0000
0300
0000
0000
0000
0000
0000
0000
0000
0000
0000
0000
0000
0000
0000
0000
0000
0000
0000
0000
0000
0000
0000
0000
,
0000
0000
0000
0000
0000
0000
0000
0000
0000
0000
0000
0000
0000
0000
0000
0000
0000
0000
0000
0000
0000
0000
0000
0000
0000
0000
0000
0000
0000
0000
0000
0000
0000
0000
0000
0000
0000
0000
0000
0000
0000
0000
0000
0000
0000
0000
0000
0000
0000
0000
0000
0000
0000
0000
0000
0000
0000
0000
0000
0000
0000
0000
0000
0003
,
2200
0000
0000
0000
0000
0000
3300
0000
0000
0000
0000
0000
2020
0030
0000
0000
0000
0000
0000
0000
0000
0000
0000
0000
0000
0000
0000
0000
0000
0000
0000
0000
0000
0000
0000
0000
0000
0000
0000
0000
0000
0000
0000
0000
0000
0000
0000
0000
0000
0000
0000
0000
0000
0000
0000
0000
0000
0000
0000
0000
0000
0000
0000
0000
,
3000
0000
0000
0000
;
