#TITLE:Yamada Stream;
#SUBTITLE:;
#ARTIST:Kommisar;
#TITLETRANSLIT:;
#SUBTITLETRANSLIT:;
#ARTISTTRANSLIT:;
#CREDIT:Mad Matt;
#BANNER:../banner.png;
#BACKGROUND:../bg.png;
#LYRICSPATH:;
#CDTITLE:;
#MUSIC:Yamada Stream.ogg;
#OFFSET:0.005;
#SAMPLESTART:15.080;
#SAMPLELENGTH:25.300;
#SELECTABLE:YES;
#DISPLAYBPM:255.000;
#BPMS:0.000=255.130;
#STOPS:;
#BGCHANGES:;
// cache tags:
#FIRSTBEAT:13.000;
#LASTBEAT:300.500;
#SONGFILENAME:Songs/Tachyon Epsilon Short Cuts/Yamada Stream - [Mad Matt]/Yamada Stream.sm;
#HASMUSIC:1;
#HASBANNER:1;
#MUSICLENGTH:45.740;
// end cache tags

//---------------dance-single - Mad Matt----------------
#NOTES:
     dance-single:
     Mad Matt:
     Challenge:
     21:
     1.000,1.000,0.022,0.197,1.000,665.000,1.000,9.000,0.000,0.000:

0000
0000
0000
0000
,
0000
0000
0000
0000
,
0000
0000
0000
0000
,
0000
0000
0000
0000
0000
0000
0000
0000
0000
0000
0000
0000
0000
0000
0000
0000
2000
3000
0000
0000
0000
0000
0000
0000
0200
0300
0000
0000
0000
0000
0000
0000
2000
3000
0000
0000
0000
0000
0000
0000
0020
0030
0000
0000
0000
0000
0000
0000
0200
0300
0000
0000
0000
0000
0000
0000
0000
0000
0000
0000
0000
0000
0000
0000
,
0002
0000
0000
2000
0003
0000
0200
3000
,
0000
0300
1000
0000
0001
0010
0001
1000
,
0040
0000
0130
0001
0000
0001
0000
1000
,
0001
0010
0001
1000
0010
1000
0001
0100
0010
1000
0001
1000
0100
1000
0001
0100
,
0001
1000
0001
0010
0100
0010
0001
1000
0100
1000
0001
0100
0010
1000
0001
1000
,
0100
1000
0001
0010
0001
1000
0010
0100
0001
1000
0001
0010
0001
1000
0100
1000
,
0001
0100
0010
0100
0010
1000
0001
0010
0001
1000
0100
0010
0001
1000
0100
1000
,
0001
1000
0010
0100
0001
1000
0010
1000
0001
0010
0001
1000
0100
0010
0100
1000
,
0001
1000
0010
0100
0001
1000
0100
1000
0001
0010
0100
1000
0001
1000
0010
0100
,
0001
1000
0001
0010
0001
1000
0010
1000
0001
0100
0010
1000
0001
0010
0001
1000
,
0010
0100
0010
0100
0001
1000
0100
1000
0001
0010
0100
0010
0001
1000
0001
0100
,
0020
0000
0000
0000
0000
0000
0000
0000
1030
0001
0010
0001
0100
0010
1000
0001
,
1000
0100
0010
0001
0100
0001
1000
0010
1000
0100
1000
0001
0010
0100
1000
0010
,
1000
0001
0010
0100
1000
0010
1000
0001
0100
0001
0010
0001
1000
0100
1000
0001
,
1000
0010
0100
0001
0010
0001
1000
0100
1000
0010
1000
0001
0100
0010
1000
0100
,
1000
0001
0010
0001
1000
0010
1000
0001
0100
0001
0010
0001
1000
0010
0100
0001
,
1000
0100
0010
0001
0100
0001
1000
0010
1000
0100
1000
0001
0010
0100
1000
0010
,
1000
0001
0010
0100
1000
0010
1000
0001
0100
0001
0010
0001
1000
0100
1000
0001
,
1000
0010
0100
0001
0010
0001
1000
0100
1000
0010
1000
0001
0100
0010
1000
0100
,
1000
0001
0010
0001
1000
0010
1000
0001
0100
0001
0010
0001
1000
0010
0100
0001
,
1000
0100
0010
0001
1000
0100
1000
0010
1000
0001
0100
0001
1000
0010
0100
0001
,
1000
0001
0010
0100
1000
0001
0010
0001
0100
0001
1000
0010
0100
0001
1000
0010
,
1000
0100
1000
0001
0010
0100
1000
0001
0100
0010
1000
0001
0100
0001
0010
0001
,
1000
0100
0010
0001
1000
0100
1000
0010
1000
0001
0100
0010
0100
0001
1000
0100
,
0010
0001
1000
0100
1000
0010
1000
0001
0100
0001
1000
0010
0100
0001
1000
0001
,
0010
0100
1000
0001
0010
0001
0100
0001
1000
0010
0100
0001
1000
0010
1000
0100
,
1000
0001
0010
0100
1000
0001
0100
0010
1000
0001
0100
0001
0010
0001
1000
0100
,
1000
0001
0100
0010
1000
0001
0010
0100
1000
0001
0100
0010
1000
0001
0010
0001
,
1000
0010
0100
0001
1000
0001
0010
0001
1000
0100
1000
0001
0010
0100
1000
0001
,
1000
0010
0100
0001
1000
0010
1000
0001
0100
0001
1000
0100
1000
0001
0010
0100
,
1000
0001
1000
0010
1000
0001
0100
0010
1000
0001
1000
0100
1000
0001
0010
0100
,
1000
0001
0010
0001
1000
0010
0100
0001
1000
0010
1000
0001
1000
0100
0010
0100
,
1000
0001
0010
0100
1000
0001
1000
0010
1000
0001
0100
0001
1000
0010
0100
0001
,
1000
0001
0010
0100
1000
0001
0010
0001
1000
0100
1000
0001
0100
0001
1000
0010
,
0100
0001
1000
0001
0010
0001
1000
0100
0010
0001
1000
0001
0100
0001
1000
0010
,
0100
0001
1000
0010
1000
0001
0010
0100
1000
0010
0100
0001
1000
0100
1000
0001
,
0100
0010
1000
0001
1000
0100
1000
0001
0010
0001
1000
0100
0010
0001
1000
0001
,
0100
0010
1000
0001
0100
0001
1000
0010
1000
0001
0010
0001
1000
0100
0010
0001
,
1000
0001
0100
0001
1000
0010
0100
0001
1000
0001
0010
0001
1000
0100
0010
0001
,
1000
0100
1000
0001
0100
0010
1000
0001
0100
0001
1000
0001
0010
0100
0010
0001
,
1000
0100
0010
0001
1000
0001
0100
0001
1000
0010
1000
0001
0100
0010
1000
0001
,
1000
0100
0010
0001
1000
0100
1000
0001
0010
0001
1000
0010
1000
0001
0100
0010
,
1000
0001
1000
0100
1000
0001
0010
0100
1000
0001
1000
0010
1000
0001
0100
0010
,
1000
0001
0100
0001
1000
0100
0010
0001
0100
0010
1000
0001
0010
0100
1000
0000
;

//---------------dance-single - Mad Matt----------------
#NOTES:
     dance-single:
     Mad Matt:
     Hard:
     20:
     1.000,1.000,0.066,0.437,1.000,607.000,3.000,20.000,0.000,0.000:











0000
0000
0000
0000
,
0000
0000
0000
0000
,
0000
0000
0000
0000
,
0000
0000
0000
0000
0000
0000
0000
0000
0000
0000
0000
0000
0000
0000
0000
0000
2000
3000
0000
0000
0000
0000
0000
0000
0200
0300
0000
0000
0000
0000
0000
0000
2000
3000
0000
0000
0000
0000
0000
0000
0020
0030
0000
0000
0000
0000
0000
0000
0200
0300
0000
0000
0000
0000
0000
0000
0000
0000
0000
0000
0000
0000
0000
0000
,
0002
0000
0000
2000
0003
0000
0200
3000
,
0000
0300
1000
0000
0001
0010
0001
1000
,
0040
0000
0130
0001
0000
0001
0000
1000
,
0001
0010
0001
1000
0010
1000
0001
0100
0010
1000
0001
1000
0100
1000
0001
0100
,
0020
0030
0000
0000
1000
0000
0000
0000
0001
0000
0000
0000
0200
0300
0000
0000
0001
0000
0000
0000
0010
0000
0000
0000
0200
0300
0000
0000
1000
0000
0000
0000
,
0001
0100
0001
0010
0100
1000
0001
0100
,
0040
1030
0001
0010
0100
0010
0100
1000
,
0001
0000
0000
0000
0000
0000
0000
0000
0100
0000
0000
0000
0000
0000
0000
0000
0020
0030
0000
0000
0000
0000
0000
0000
2000
3000
0000
0000
0000
0000
0000
0000
0002
0003
0000
0000
0000
0000
0000
0000
0020
0030
0000
0000
0000
0000
0000
0000
0200
0300
0000
0000
0000
0000
0000
0000
1000
0000
0000
0000
0000
0000
0000
0000
,
0020
0030
0000
0000
1000
0000
0000
0000
0001
0000
0000
0000
0020
0030
0000
0000
0001
0000
0000
0000
0100
0000
0000
0000
0020
0030
0000
0000
1000
0000
0000
0000
,
0001
0010
0001
0100
0010
1000
0001
0010
,
0400
1300
0001
0100
0010
0100
0010
1000
,
0020
0000
0000
0000
0000
0000
0000
0000
1030
0001
0010
0001
0100
0010
1000
0001
,
1000
0100
0010
0001
0100
0001
1000
0010
1000
0100
1000
0001
0010
0100
1000
0010
,
1000
0001
0010
0100
1000
0010
1000
0001
0100
0001
0010
0001
1000
0100
1000
0001
,
1000
0010
0100
0001
0010
0001
1000
0100
1000
0010
1000
0001
0100
0010
1000
0100
,
1000
0001
0010
0001
1000
0010
1000
0001
0100
0001
0010
0001
1000
0010
0100
0001
,
1000
0100
0010
0001
0100
0001
1000
0010
1000
0100
1000
0001
0010
0100
1000
0010
,
1000
0001
0010
0100
1000
0010
1000
0001
0100
0001
0010
0001
1000
0100
1000
0001
,
1000
0010
0100
0001
0010
0001
1000
0100
1000
0010
1000
0001
0100
0010
1000
0100
,
1000
0001
0010
0001
1000
0010
1000
0001
0100
0001
0010
0001
1000
0010
0100
0001
,
1000
0100
0010
0001
1000
0100
1000
0010
1000
0001
0100
0001
1000
0010
0100
0001
,
1000
0001
0010
0100
1000
0001
0010
0001
0100
0001
1000
0010
0100
0001
1000
0010
,
1000
0100
1000
0001
0010
0100
1000
0001
0100
0010
1000
0001
0100
0001
0010
0001
,
1000
0100
0010
0001
1000
0100
1000
0010
1000
0001
0100
0010
0100
0001
1000
0100
,
0010
0001
1000
0100
1000
0010
1000
0001
0100
0001
1000
0010
0100
0001
1000
0001
,
0010
0100
1000
0001
0010
0001
0100
0001
1000
0010
0100
0001
1000
0010
1000
0100
,
1000
0001
0010
0100
1000
0001
0100
0010
1000
0001
0100
0001
0010
0001
1000
0100
,
1000
0001
0100
0010
1000
0001
0010
0100
1000
0001
0100
0010
1000
0001
0010
0001
,
1000
0010
0100
0001
1000
0001
0010
0001
1000
0100
1000
0001
0010
0100
1000
0001
,
1000
0010
0100
0001
1000
0010
1000
0001
0100
0001
1000
0100
1000
0001
0010
0100
,
1000
0001
1000
0010
1000
0001
0100
0010
1000
0001
1000
0100
1000
0001
0010
0100
,
1000
0001
0010
0001
1000
0010
0100
0001
1000
0010
1000
0001
1000
0100
0010
0100
,
1000
0001
0010
0100
1000
0001
1000
0010
1000
0001
0100
0001
1000
0010
0100
0001
,
1000
0001
0010
0100
1000
0001
0010
0001
1000
0100
1000
0001
0100
0001
1000
0010
,
0100
0001
1000
0001
0010
0001
1000
0100
0010
0001
1000
0001
0100
0001
1000
0010
,
0100
0001
1000
0010
1000
0001
0010
0100
1000
0010
0100
0001
1000
0100
1000
0001
,
0100
0010
1000
0001
1000
0100
1000
0001
0010
0001
1000
0100
0010
0001
1000
0001
,
0100
0010
1000
0001
0100
0001
1000
0010
1000
0001
0010
0001
1000
0100
0010
0001
,
1000
0001
0100
0001
1000
0010
0100
0001
1000
0001
0010
0001
1000
0100
0010
0001
,
1000
0100
1000
0001
0100
0010
1000
0001
0100
0001
1000
0001
0010
0100
0010
0001
,
1000
0100
0010
0001
1000
0001
0100
0001
1000
0010
1000
0001
0100
0010
1000
0001
,
1000
0100
0010
0001
1000
0100
1000
0001
0010
0001
1000
0010
1000
0001
0100
0010
,
1000
0001
1000
0100
1000
0001
0010
0100
1000
0001
1000
0010
1000
0001
0100
0010
,
1000
0001
0100
0001
1000
0100
0010
0001
0100
0010
1000
0001
0010
0100
1000
0000
;

//---------------dance-single - Mad Matt----------------
#NOTES:
     dance-single:
     Mad Matt:
     Medium:
     19:
     1.000,1.000,0.022,0.219,1.000,541.000,1.000,10.000,0.000,0.000:



0000
0000
0000
0000
,
0000
0000
0000
0000
,
0000
0000
0000
0000
,
0000
0000
0000
0000
0000
0000
0000
0000
0000
0000
0000
0000
0000
0000
0000
0000
2000
3000
0000
0000
0000
0000
0000
0000
0200
0300
0000
0000
0000
0000
0000
0000
2000
3000
0000
0000
0000
0000
0000
0000
0020
0030
0000
0000
0000
0000
0000
0000
0200
0300
0000
0000
0000
0000
0000
0000
0000
0000
0000
0000
0000
0000
0000
0000
,
0002
0000
0000
2000
0003
0000
0200
3000
,
0000
0300
1000
0000
0001
0010
0001
1000
,
0040
0000
0130
0001
0000
0001
0000
1000
,
0001
0010
0001
1000
0010
1000
0001
0100
0010
1000
0001
1000
0100
1000
0001
0100
,
0001
1000
0001
0010
0100
0010
0001
1000
0100
1000
0001
0100
0010
1000
0001
1000
,
0100
1000
0001
0010
0001
1000
0010
0100
0001
1000
0001
0010
0001
1000
0100
1000
,
0001
0100
0010
0100
0010
1000
0001
0010
0001
1000
0100
0010
0001
1000
0100
1000
,
0001
1000
0010
0100
0001
1000
0010
1000
0001
0010
0001
1000
0100
0010
0100
1000
,
0001
1000
0010
0100
0001
1000
0100
1000
0001
0010
0100
1000
0001
1000
0010
0100
,
0001
1000
0001
0010
0001
1000
0010
1000
0001
0100
0010
1000
0001
0010
0001
1000
,
0010
0100
0010
0100
0001
1000
0100
1000
0001
0010
0100
0010
0001
1000
0001
0100
,
0020
0000
0000
0000
0000
0000
0000
0000
1030
0001
0010
0001
0100
0010
1000
0001
,
1000
0100
0010
0001
0100
0001
1000
0010
1000
0100
1000
0001
0010
0100
1000
0010
,
1000
0001
0010
0100
1000
0010
1000
0001
0100
0001
0010
0001
1000
0100
1000
0001
,
1000
0010
0100
0001
0010
0001
1000
0100
1000
0010
1000
0001
0100
0010
1000
0100
,
1000
0001
0010
0001
1000
0010
1000
0001
0100
0001
0010
0001
1000
0010
0100
0001
,
1000
0100
0010
0001
0100
0001
1000
0010
1000
0100
1000
0001
0010
0100
1000
0010
,
1000
0001
0010
0100
1000
0010
1000
0001
0100
0001
0010
0001
1000
0100
1000
0001
,
1000
0010
0100
0001
0010
0001
1000
0100
1000
0010
1000
0001
0100
0010
1000
0100
,
1000
0001
0010
0001
1000
0010
1000
0001
0100
0001
0010
0001
1000
0010
0100
0001
,
1000
0100
0010
0001
1000
0100
1000
0010
1000
0001
0100
0001
1000
0010
0100
0001
,
1000
0001
0010
0100
1000
0001
0010
0001
0100
0001
1000
0010
0100
0001
1000
0010
,
1000
0100
1000
0001
0010
0100
1000
0001
0100
0010
1000
0001
0100
0001
0010
0001
,
1000
0100
0010
0001
1000
0100
1000
0010
1000
0001
0100
0010
0100
0001
1000
0100
,
0010
0001
1000
0100
1000
0010
1000
0001
0100
0001
1000
0010
0100
0001
1000
0001
,
0010
0100
1000
0001
0010
0001
0100
0001
1000
0010
0100
0001
1000
0010
1000
0100
,
1000
0001
0010
0100
1000
0001
0100
0010
1000
0001
0100
0001
0010
0001
1000
0100
,
1000
0001
0100
0010
1000
0001
0010
0100
1000
0001
0100
0010
1000
0001
0010
0001
,
1000
0010
0100
0001
1000
0100
0010
0001
,
1000
0010
0100
0001
1000
0100
0010
0001
,
1000
0001
0100
0010
1000
0001
0010
0100
,
1000
0010
0100
0001
1000
0100
0010
0001
,
1000
0010
0100
0001
1000
0100
0010
0001
,
1000
0010
0100
0001
1000
0100
0010
0001
,
1000
0001
0100
0010
1000
0001
0010
0100
,
1000
0000
0010
0000
0100
0000
0010
0000
1000
0000
0001
0010
0001
0000
1000
0000
,
0001
0100
0010
1000
0001
0010
0100
1000
,
0001
0100
0010
1000
0001
0010
0100
1000
,
0001
1000
0010
0100
0001
1000
0100
0010
,
0001
0100
0010
1000
0001
0010
0100
1000
,
0001
0100
0010
1000
0001
0010
0100
1000
,
0001
0100
0010
1000
0001
0010
0100
1000
,
0001
1000
0010
0100
0001
1000
0100
0010
,
0001
0000
0100
0000
0010
0000
0100
0000
0001
0000
1000
0100
1000
0000
0001
0000
,
0000
0000
0000
0000
,
0000
0000
0000
0000
,
0000
0000
0000
0000
,
0000
0000
0000
0000
,
0000
0000
0000
0000
,
0000
0000
0000
0000
,
0000
0000
0000
0000
,
0000
0000
0000
0000
,
0000
0000
0000
0000
,
0000
0000
0000
0000
,
0000
0000
0000
0000
,
0000
0000
0000
0000
,
0000
0000
0000
0000
,
0000
0000
0000
0000
,
0000
0000
0000
0000
,
0000
0000
0000
0000
,
0000
0000
0000
0000
,
0000
0000
0000
0000
,
0000
0000
0000
0000
,
0000
0000
0000
0000
,
0000
0000
0000
0000
,
0000
0000
0000
0000
,
0000
0000
0000
0000
,
0000
0000
0000
0000
,
0000
0000
0000
0000
,
0000
0000
0000
0000
,
0000
0000
0000
0000
,
2000
3000
0000
0000
0000
0000
0000
0000
;

//---------------dance-single - Mad Matt----------------
#NOTES:
     dance-single:
     Mad Matt:
     Easy:
     18:
     1.000,1.000,0.066,0.459,1.000,483.000,3.000,21.000,0.000,0.000:




0000
0000
0000
0000
,
0000
0000
0000
0000
,
0000
0000
0000
0000
,
0000
0000
0000
0000
0000
0000
0000
0000
0000
0000
0000
0000
0000
0000
0000
0000
2000
3000
0000
0000
0000
0000
0000
0000
0200
0300
0000
0000
0000
0000
0000
0000
2000
3000
0000
0000
0000
0000
0000
0000
0020
0030
0000
0000
0000
0000
0000
0000
0200
0300
0000
0000
0000
0000
0000
0000
0000
0000
0000
0000
0000
0000
0000
0000
,
0002
0000
0000
2000
0003
0000
0200
3000
,
0000
0300
1000
0000
0001
0010
0001
1000
,
0040
0000
0130
0001
0000
0001
0000
1000
,
0001
0010
0001
1000
0010
1000
0001
0100
0010
1000
0001
1000
0100
1000
0001
0100
,
0020
0030
0000
0000
1000
0000
0000
0000
0001
0000
0000
0000
0200
0300
0000
0000
0001
0000
0000
0000
0010
0000
0000
0000
0200
0300
0000
0000
1000
0000
0000
0000
,
0001
0100
0001
0010
0100
1000
0001
0100
,
0040
1030
0001
0010
0100
0010
0100
1000
,
0001
0000
0000
0000
0000
0000
0000
0000
0100
0000
0000
0000
0000
0000
0000
0000
0020
0030
0000
0000
0000
0000
0000
0000
2000
3000
0000
0000
0000
0000
0000
0000
0002
0003
0000
0000
0000
0000
0000
0000
0020
0030
0000
0000
0000
0000
0000
0000
0200
0300
0000
0000
0000
0000
0000
0000
1000
0000
0000
0000
0000
0000
0000
0000
,
0020
0030
0000
0000
1000
0000
0000
0000
0001
0000
0000
0000
0020
0030
0000
0000
0001
0000
0000
0000
0100
0000
0000
0000
0020
0030
0000
0000
1000
0000
0000
0000
,
0001
0010
0001
0100
0010
1000
0001
0010
,
0400
1300
0001
0100
0010
0100
0010
1000
,
0020
0000
0000
0000
0000
0000
0000
0000
1030
0001
0010
0001
0100
0010
1000
0001
,
1000
0100
0010
0001
0100
0001
1000
0010
1000
0100
1000
0001
0010
0100
1000
0010
,
1000
0001
0010
0100
1000
0010
1000
0001
0100
0001
0010
0001
1000
0100
1000
0001
,
1000
0010
0100
0001
0010
0001
1000
0100
1000
0010
1000
0001
0100
0010
1000
0100
,
1000
0001
0010
0001
1000
0010
1000
0001
0100
0001
0010
0001
1000
0010
0100
0001
,
1000
0100
0010
0001
0100
0001
1000
0010
1000
0100
1000
0001
0010
0100
1000
0010
,
1000
0001
0010
0100
1000
0010
1000
0001
0100
0001
0010
0001
1000
0100
1000
0001
,
1000
0010
0100
0001
0010
0001
1000
0100
1000
0010
1000
0001
0100
0010
1000
0100
,
1000
0001
0010
0001
1000
0010
1000
0001
0100
0001
0010
0001
1000
0010
0100
0001
,
1000
0100
0010
0001
1000
0100
1000
0010
1000
0001
0100
0001
1000
0010
0100
0001
,
1000
0001
0010
0100
1000
0001
0010
0001
0100
0001
1000
0010
0100
0001
1000
0010
,
1000
0100
1000
0001
0010
0100
1000
0001
0100
0010
1000
0001
0100
0001
0010
0001
,
1000
0100
0010
0001
1000
0100
1000
0010
1000
0001
0100
0010
0100
0001
1000
0100
,
0010
0001
1000
0100
1000
0010
1000
0001
0100
0001
1000
0010
0100
0001
1000
0001
,
0010
0100
1000
0001
0010
0001
0100
0001
1000
0010
0100
0001
1000
0010
1000
0100
,
1000
0001
0010
0100
1000
0001
0100
0010
1000
0001
0100
0001
0010
0001
1000
0100
,
1000
0001
0100
0010
1000
0001
0010
0100
1000
0001
0100
0010
1000
0001
0010
0001
,
1000
0010
0100
0001
1000
0100
0010
0001
,
1000
0010
0100
0001
1000
0100
0010
0001
,
1000
0001
0100
0010
1000
0001
0010
0100
,
1000
0010
0100
0001
1000
0100
0010
0001
,
1000
0010
0100
0001
1000
0100
0010
0001
,
1000
0010
0100
0001
1000
0100
0010
0001
,
1000
0001
0100
0010
1000
0001
0010
0100
,
1000
0000
0010
0000
0100
0000
0010
0000
1000
0000
0001
0010
0001
0000
1000
0000
,
0001
0100
0010
1000
0001
0010
0100
1000
,
0001
0100
0010
1000
0001
0010
0100
1000
,
0001
1000
0010
0100
0001
1000
0100
0010
,
0001
0100
0010
1000
0001
0010
0100
1000
,
0001
0100
0010
1000
0001
0010
0100
1000
,
0001
0100
0010
1000
0001
0010
0100
1000
,
0001
1000
0010
0100
0001
1000
0100
0010
,
0001
0000
0100
0000
0010
0000
0100
0000
0001
0000
1000
0100
1000
0000
0001
0000
,
0000
0000
0000
0000
,
0000
0000
0000
0000
,
0000
0000
0000
0000
,
0000
0000
0000
0000
,
0000
0000
0000
0000
,
0000
0000
0000
0000
,
0000
0000
0000
0000
,
0000
0000
0000
0000
,
0000
0000
0000
0000
,
0000
0000
0000
0000
,
0000
0000
0000
0000
,
0000
0000
0000
0000
,
0000
0000
0000
0000
,
0000
0000
0000
0000
,
0000
0000
0000
0000
,
0000
0000
0000
0000
,
0000
0000
0000
0000
,
0000
0000
0000
0000
,
0000
0000
0000
0000
,
0000
0000
0000
0000
,
0000
0000
0000
0000
,
0000
0000
0000
0000
,
0000
0000
0000
0000
,
0000
0000
0000
0000
,
0000
0000
0000
0000
,
0000
0000
0000
0000
,
0000
0000
0000
0000
,
2000
3000
0000
0000
0000
0000
0000
0000
;

//---------------dance-single - Mad Matt----------------
#NOTES:
     dance-single:
     Mad Matt:
     Beginner:
     17:
     1.000,1.000,0.066,0.459,0.918,424.000,3.000,21.000,0.000,0.000:









0000
0000
0000
0000
,
0000
0000
0000
0000
,
0000
0000
0000
0000
,
0000
0000
0000
0000
0000
0000
0000
0000
0000
0000
0000
0000
0000
0000
0000
0000
2000
3000
0000
0000
0000
0000
0000
0000
0200
0300
0000
0000
0000
0000
0000
0000
2000
3000
0000
0000
0000
0000
0000
0000
0020
0030
0000
0000
0000
0000
0000
0000
0200
0300
0000
0000
0000
0000
0000
0000
0000
0000
0000
0000
0000
0000
0000
0000
,
0002
0000
0000
2000
0003
0000
0200
3000
,
0000
0300
1000
0000
0001
0010
0001
1000
,
0040
0000
0130
0001
0000
0001
0000
1000
,
0001
0010
0001
1000
0010
1000
0001
0100
0010
1000
0001
1000
0100
1000
0001
0100
,
0020
0030
0000
0000
1000
0000
0000
0000
0001
0000
0000
0000
0200
0300
0000
0000
0001
0000
0000
0000
0010
0000
0000
0000
0200
0300
0000
0000
1000
0000
0000
0000
,
0001
0100
0001
0010
0100
1000
0001
0100
,
0040
1030
0001
0010
0100
0010
0100
1000
,
0001
0000
0000
0000
0000
0000
0000
0000
0100
0000
0000
0000
0000
0000
0000
0000
0020
0030
0000
0000
0000
0000
0000
0000
2000
3000
0000
0000
0000
0000
0000
0000
0002
0003
0000
0000
0000
0000
0000
0000
0020
0030
0000
0000
0000
0000
0000
0000
0200
0300
0000
0000
0000
0000
0000
0000
1000
0000
0000
0000
0000
0000
0000
0000
,
0020
0030
0000
0000
1000
0000
0000
0000
0001
0000
0000
0000
0020
0030
0000
0000
0001
0000
0000
0000
0100
0000
0000
0000
0020
0030
0000
0000
1000
0000
0000
0000
,
0001
0010
0001
0100
0010
1000
0001
0010
,
0400
1300
0001
0100
0010
0100
0010
1000
,
0020
0000
0000
0000
0000
0000
0000
0000
1030
0001
0010
0001
0100
0010
1000
0001
,
1000
0100
0010
0001
0100
0001
1000
0010
1000
0100
1000
0001
0010
0100
1000
0010
,
1000
0001
0010
0100
1000
0010
1000
0001
0100
0001
0010
0001
1000
0100
1000
0001
,
1000
0010
0100
0001
0010
0001
1000
0100
1000
0010
1000
0001
0100
0010
1000
0100
,
1000
0001
0010
0001
1000
0010
1000
0001
0100
0001
0010
0001
1000
0010
0100
0001
,
1000
0100
0010
0001
0100
0001
1000
0010
1000
0100
1000
0001
0010
0100
1000
0010
,
1000
0001
0010
0100
1000
0010
1000
0001
0100
0001
0010
0001
1000
0100
1000
0001
,
1000
0010
0100
0001
0010
0001
1000
0100
1000
0010
1000
0001
0100
0010
1000
0100
,
1000
0001
0010
0001
1000
0010
1000
0001
0100
0001
0010
0001
1000
0010
0100
0001
,
1000
0100
0010
0001
1000
0100
0010
0001
,
1000
0100
1000
0010
1000
0001
0100
0001
,
1000
0010
0100
0001
1000
0010
0100
0001
,
1000
0010
1000
0100
1000
0001
0010
0001
,
1000
0100
0010
0001
0010
0100
1000
0001
,
0010
0001
0100
0001
1000
0010
1000
0001
,
0100
0010
1000
0010
0100
0001
0010
0001
,
1000
0001
0100
0010
1000
0001
0010
0100
1000
0001
0100
0010
1000
0000
0000
0000
,
0001
0100
0010
1000
0001
0010
0100
1000
,
0001
0100
0010
1000
0001
0010
0100
1000
,
0001
1000
0010
0100
0001
1000
0100
0010
,
0001
0100
0010
1000
0001
0010
0100
1000
,
0001
0100
0010
1000
0001
0010
0100
1000
,
0001
0100
0010
1000
0001
0010
0100
1000
,
0001
1000
0010
0100
0001
1000
0100
0010
,
0001
0000
0100
0000
0010
0000
0100
0000
0001
0000
1000
0100
1000
0000
0001
0000
,
1000
0010
0100
0001
1000
0100
0010
0001
,
1000
0010
0100
0001
1000
0100
0010
0001
,
1000
0001
0100
0010
1000
0001
0010
0100
,
1000
0010
0100
0001
1000
0100
0010
0001
,
1000
0010
0100
0001
1000
0100
0010
0001
,
1000
0010
0100
0001
1000
0100
0010
0001
,
1000
0001
0100
0010
1000
0001
0010
0100
,
1000
0000
0010
0000
0100
0000
0010
0000
1000
0000
0001
0010
0001
0000
1000
0000
,
0000
0000
0000
0000
,
0000
0000
0000
0000
,
0000
0000
0000
0000
,
0000
0000
0000
0000
,
0000
0000
0000
0000
,
0000
0000
0000
0000
,
0000
0000
0000
0000
,
0000
0000
0000
0000
,
0000
0000
0000
0000
,
0000
0000
0000
0000
,
0000
0000
0000
0000
,
0000
0000
0000
0000
,
0000
0000
0000
0000
,
0000
0000
0000
0000
,
0000
0000
0000
0000
,
0000
0000
0000
0000
,
0000
0000
0000
0000
,
0000
0000
0000
0000
,
0000
0000
0000
0000
,
0000
0000
0000
0000
,
0000
0000
0000
0000
,
0000
0000
0000
0000
,
0000
0000
0000
0000
,
0000
0000
0000
0000
,
0000
0000
0000
0000
,
0000
0000
0000
0000
,
0000
0000
0000
0000
,
2000
3000
0000
0000
0000
0000
0000
0000
;
