#TITLE:Neo Eden;
#SUBTITLE:Hanasaku Iroha ED1 - Hazy(2011);
#ARTIST:sphere;
#TITLETRANSLIT:;
#SUBTITLETRANSLIT:;
#ARTISTTRANSLIT:;
#CREDIT:;
#BANNER:bn.jpg;
#BACKGROUND:bg.png;
#LYRICSPATH:;
#CDTITLE:bombastik.png;
#MUSIC:Neo Eden.mp3;
#OFFSET:0.500;
#SAMPLESTART:100.000;
#SAMPLELENGTH:12.000;
#SELECTABLE:YES;
#BPMS:0.000=175.000;
#STOPS:;
#BGCHANGES:;
// cache tags:
#FIRSTBEAT:3.000;
#LASTBEAT:323.500;
#SONGFILENAME:Songs/FUCK ANIME PACK/Neo Eden/Neo Eden.sm;
#HASMUSIC:1;
#HASBANNER:1;
#MUSICLENGTH:114.990;
// end cache tags

//---------------dance-single - Blank----------------
#NOTES:
     dance-single:
     Blank:
     Challenge:
     12:
     1.000,1.000,1.000,1.000,0.748,757.000,388.000,158.000,0.000,207.000:

0000
0000
0000
0000
0000
0000
0000
0000
0000
0000
0000
0000
2002
0000
0000
3003
,
1110
0001
2200
3301
0110
1000
0202
2303
,
0000
0000
3001
0000
0110
0000
1000
0000
0011
1000
0011
0000
1100
0000
0011
0000
,
1110
0001
2200
3301
0110
1100
0022
2033
,
0000
0000
3101
0000
0110
0000
0002
0000
1103
0000
1100
0000
0101
1000
0110
0001
,
1110
0001
1110
0001
0110
0110
1110
0022
,
0033
0000
2000
3000
2000
3000
2000
0000
3000
0000
0101
0000
1000
0000
0022
0033
,
1110
0000
0001
0000
1110
0000
0001
0000
1110
0000
0011
0000
0011
0000
2022
3033
,
0000
0000
1100
0000
1100
0000
0110
0000
0110
0000
0011
0000
0011
0100
1011
0100
,
2022
0000
3033
0000
1000
0000
0222
0333
0000
0000
1000
0000
0111
0000
2110
0000
,
0000
0000
0000
0000
0001
0010
0001
0100
0010
0001
3100
0010
2002
0000
3003
0000
,
1011
0000
0100
0010
1001
0000
0010
0001
1100
0000
0010
1000
0101
0000
1000
0001
,
0110
0000
0010
0100
0011
0000
1000
0010
2200
3300
0220
0330
2200
0000
0000
3300
,
0111
0000
1000
0010
0101
0000
0100
0001
1100
0000
0001
0100
1011
0000
0001
1000
,
0011
0000
0100
0010
0101
0000
0100
1000
0022
0033
0220
0330
0022
0100
1000
0133
,
1011
0000
1110
0000
1101
0000
0111
0000
1110
0000
0222
0000
0333
0000
2220
0330
,
0000
0110
0011
0101
3110
0000
1110
0000
,
1001
0100
0011
1000
1101
0010
1010
0100
,
1011
0100
0101
1000
1110
0001
1100
0100
,
2022
3033
1110
0011
0110
0110
1100
1001
,
0011
0000
0011
0000
1010
0000
0220
0000
0330
0000
1001
0000
1001
0000
0110
0001
,
1110
0001
1010
0100
1110
1000
0011
0010
,
1101
0010
1100
0001
1011
0100
1001
0010
,
2220
3330
1001
0110
1100
1100
0011
1010
,
0101
0000
0101
0000
1100
0000
1001
0000
0220
0000
0331
1000
0011
0000
1000
0001
,
1110
0000
0001
0000
0111
0000
1000
0000
1101
0000
0200
0000
1301
0000
0010
0001
,
1110
0000
0100
0000
0111
0000
0001
0000
1101
0000
2000
0000
3001
0000
0010
0100
,
2022
3133
1100
0220
1331
1001
0110
2002
,
3113
0000
0000
0000
0000
0000
0000
0000
1110
0000
0000
0000
0000
0000
0000
0000
0222
0333
0000
0000
0000
0000
0000
0000
2202
3303
0000
0000
0010
0000
0100
0000
,
1011
0100
0001
0010
0101
1000
0010
0100
0011
1000
0001
0100
1001
0010
0100
0001
,
1100
0010
1000
0001
0110
1000
0010
0100
2002
0000
3113
0000
0110
0000
0001
0100
,
1012
0000
0100
0000
1000
0000
0010
0000
2113
0000
0001
0000
0010
0000
0100
3000
,
1012
0000
0100
0000
1000
0000
0010
0100
1000
0100
0013
0100
1001
0010
1001
0100
,
1011
0010
0101
1000
0011
0010
1100
0100
,
1001
0010
0110
0001
1010
0100
1100
0001
,
2220
3330
0011
1001
0110
0110
1100
1010
,
0011
0000
0011
0000
1010
0000
0220
0000
0330
0000
1001
0000
1100
0000
0001
0100
,
1011
0010
1101
1000
0111
0001
1011
1000
,
1110
0010
0111
0100
1011
1000
0111
0010
,
2220
3330
0101
1100
0011
0011
1001
0110
,
1100
0000
1100
0000
0101
0000
0110
0000
2200
0000
3301
0100
1000
0000
0101
0010
,
1101
0000
0010
0000
0111
0000
1000
0000
1011
0000
0100
0000
1110
0000
0001
0100
,
1011
0000
0010
0000
1101
0000
1000
0000
1011
0000
0100
0000
1110
0000
0100
0010
,
2202
3303
0110
0000
0110
0000
1100
0000
0111
0000
0101
0000
1101
0000
0101
0000
,
0111
0000
0000
0000
1110
0000
0000
0000
2222
3333
0000
0000
2222
3333
0000
0000
,
1101
0010
0001
0100
1010
0100
1000
0010
0101
0010
0100
0001
1100
0010
0001
1000
,
0101
0010
1000
0100
1010
0001
0100
0010
2002
0000
3103
0010
1000
0000
0101
0010
,
1101
0010
1000
0001
0110
1000
0010
0100
1010
0001
0100
0010
1100
0001
1000
0010
,
0101
1000
0010
0001
1100
0010
0001
0100
2002
0000
3003
0000
1010
0100
0011
1000
,
0112
0000
0100
1000
0110
0000
0100
0010
1100
0000
1000
0100
1010
0000
0010
0103
,
2011
0000
0001
0100
0011
0000
0010
0001
0110
0000
0001
0010
0101
0000
0010
3100
,
1012
0100
1100
0010
1100
1100
0000
2200
,
3303
0000
0000
0000
0000
0000
0000
0000
0110
0001
1100
0000
0111
0000
1101
0010
,
1101
0010
1000
0001
1110
0001
0100
0010
1101
0010
1000
0100
1011
0100
0001
1000
,
0111
0000
1000
0000
0001
0000
0100
0000
1011
0000
0100
0000
0010
0000
1000
0000
0111
0000
0000
0000
1110
0000
0000
0000
1011
0000
0000
0000
2202
3303
0000
0000
,
0110
0001
0100
0010
1101
0010
0100
0001
1110
0001
0100
1000
0111
1000
0010
0100
,
1011
0100
0001
1000
0111
1000
0001
0010
1101
0000
0222
0000
1333
0000
1101
0010
,
1101
0010
0111
1000
1101
0001
1110
0011
,
1101
0000
1101
0000
0110
0000
0022
0000
0033
0000
2200
0000
3311
0000
0100
0010
,
1101
0010
0100
0010
1001
0100
0010
0100
1001
0010
0100
0010
1001
0100
0010
0100
,
2002
0000
0000
0000
0000
0000
0000
3003
0110
0000
0110
0000
1100
0000
1001
0010
,
2101
0010
0001
0100
0010
0100
0001
3010
1102
0010
1000
0100
1000
0010
0100
0013
,
2101
0010
0001
0100
0010
0100
0001
3010
1101
0000
0011
0000
0111
0000
1100
0000
,
0112
1000
0010
0100
0010
1000
0100
0013
2101
0010
0100
0001
0100
0010
0100
3010
,
1102
0010
1000
0100
2023
0000
3232
0000
0303
0000
0001
1000
0010
0100
1011
0100
,
1011
0100
1110
0010
1101
1000
1011
1011
,
0111
1100
0110
0220
0330
2200
3300
0012
,
1010
0100
1100
1000
0110
1000
1103
0010
,
2220
0000
0000
0000
3330
0000
0000
0000
1110
0000
0011
1000
0110
0000
1100
0001
,
1110
0000
0100
0000
1010
0000
0001
0000
2110
0000
0010
0000
0101
0000
0011
0100
,
0011
0000
0100
0000
0001
0000
3010
0000
1001
0000
0100
0000
1100
0010
0100
0001
,
1110
0000
0000
0000
0101
0010
1000
0001
1110
0000
0000
0000
1100
0010
0100
0001
,
1110
0000
0000
0000
1110
0000
0000
0000
1110
0000
0101
0000
1110
0001
0100
0010
,
1101
0000
0110
0000
1110
0000
0001
0100
1011
0000
1100
0000
1011
0000
0220
0000
,
0330
0000
1100
0000
0111
0000
1000
0010
1101
0000
1110
0000
1011
0000
0111
1000
,
0111
0000
1110
0000
2022
3033
0100
0010
1101
0000
0101
0000
1101
0000
0222
0000
,
0333
0000
1100
0000
1011
0000
1100
0000
1101
0000
0011
0100
1001
0010
1100
0001
,
1110
0110
1110
0011
1110
0110
1110
0222
,
0333
0111
1100
0111
0110
0111
1100
0111
,
1111
0000
1100
1111
0000
0110
1111
2222
,
0000
0000
0000
3330
1010
0100
1000
0010
1100
0010
0100
1000
0220
0000
0333
0000
;
