#TITLE:Disruptor;
#SUBTITLE:;
#ARTIST:mrSimon;
#TITLETRANSLIT:;
#SUBTITLETRANSLIT:;
#ARTISTTRANSLIT:;
#CREDIT:ChaosUnown;
#BANNER:disruptor-bn.png;
#BACKGROUND:disruptor.png;
#LYRICSPATH:;
#CDTITLE:chaosunownCD.png;
#MUSIC:disruptor.ogg;
#OFFSET:0.014;
#SAMPLESTART:73.840;
#SAMPLELENGTH:12.000;
#SELECTABLE:YES;
#DISPLAYBPM:156.000;
#BPMS:0.000=156.000,78.000=312.000,79.000=156.000,94.000=312.000,96.000=156.000,96.500=312.000,97.500=156.000,98.500=312.000,101.000=156.000,101.500=312.000,102.000=156.000,102.500=312.000,103.000=156.000,103.500=312.000,106.000=156.000,107.000=312.000,107.500=156.000,108.500=312.000,109.000=156.000,110.000=312.000,110.500=156.000,111.000=312.000,112.500=156.000,113.500=312.000,116.000=156.000,116.500=312.000,117.000=156.000,117.500=312.000,122.000=156.000,123.250=312.000,123.500=156.000,125.000=312.000,126.000=156.000,128.000=312.000,129.000=156.000,130.000=312.000,130.500=156.000,134.000=312.000,134.500=156.000,135.500=364.000,139.000=312.000,141.000=468.000,143.000=312.000,143.750=156.000,144.500=312.000,145.000=156.000,147.000=312.000,147.500=156.000,150.000=312.000,150.750=156.000,187.000=78.000,187.250=234.000,188.000=156.000,218.500=312.000,220.000=156.000,234.000=468.000,235.000=156.000,251.500=312.000,252.000=156.000;
#STOPS:37.750=0.384
,78.000=0.048
,78.250=0.048
,78.500=0.097
,94.000=0.192
,95.000=0.193
,96.500=0.095
,97.000=0.048
,97.250=0.048
,98.500=0.096
,99.000=0.144
,99.750=0.144
,100.500=0.097
,101.500=0.048
,101.750=0.048
,102.500=0.096
,103.000=0.385
,103.500=0.048
,103.750=0.048
,104.000=0.096
,104.500=0.048
,104.750=0.096
,105.250=0.048
,105.500=0.097
,107.000=0.096
,108.500=0.096
,110.000=0.096
,111.000=0.096
,111.500=0.096
,112.000=0.048
,112.250=0.048
,113.500=0.096
,114.000=0.144
,114.750=0.145
,115.500=0.095
,116.500=0.048
,116.750=0.048
,117.500=0.096
,118.000=0.096
,118.500=0.193
,119.500=0.048
,119.750=0.048
,120.000=0.097
,120.500=0.048
,120.750=0.095
,121.250=0.048
,121.500=0.097
,123.250=0.048
,125.000=0.192
,128.000=0.064
,128.333=0.065
,128.667=0.063
,130.000=0.096
,134.000=0.097
,135.500=0.385
,139.000=0.128
,139.667=0.128
,140.333=0.129
,141.000=0.044
,141.167=0.045
,141.333=0.045
,141.500=0.045
,141.667=0.045
,141.833=0.045
,142.000=0.045
,142.167=0.045
,142.333=0.045
,142.500=0.054
,142.750=0.054
,143.000=0.144
,144.500=0.096
,147.000=0.097
,148.500=0.385
,150.000=0.145
,187.000=0.768
,218.500=0.048
,218.750=0.048
,219.000=0.193
,234.000=0.064
,234.250=0.064
,234.500=0.128
,251.500=0.096
;
#BGCHANGES:;
// cache tags:
#FIRSTBEAT:0.000;
#LASTBEAT:251.500;
#SONGFILENAME:Songs/Omnifarious/(ChaosUnown) Disruptor/disruptor.sm;
#HASMUSIC:1;
#HASBANNER:1;
#MUSICLENGTH:98.690;
// end cache tags

//---------------dance-single - P. Mason----------------
#NOTES:
     dance-single:
     P. Mason:
     Challenge:
     11:
     0.756,0.860,0.345,0.578,0.887,428.000,34.000,57.000,151.000,0.000:


M000
000M
0000
0000
0000
0000
0000
0000
,
0000
0000
0000
0000
,
00M0
0000
0000
0000
,
0000
0000
0000
000M
000M
000M
000M
000M
000M
000M
000M
000M
,
10MM
0000
0100
0010
0100
0010
0001
1000
0M10
0000
0100
0010
0000
0100
0010
0000
,
1000
0000
0000
0000
10M1
0000
0000
0000
0000
0000
0000
0000
0000
0000
0000
0001
,
0010
0000
0000
0000
0000
0000
0100
0000
0000
1000
0000
0000
0100
0000
0000
1000
0000
0000
0001
0000
0000
0100
0000
0000
00M1
0000
0000
0000
00M0
0000
1000
0000
00M0
0001
0000
0000
00M0
0000
0000
1000
00M0
0000
0001
0000
00M0
0000
0000
0000
,
00M0
0000
00M0
1000
0000
0000
0M20
0000
0000
0000
0000
0000
0000
0000
0000
0000
0000
0000
0000
0000
0000
0000
0000
0000
,
0230
0000
0000
0000
0000
0000
M301
0000
0000
0010
0000
0000
0001
0000
1000
0000
0001
0000
M100
0000
0000
0010
0000
0000
,
1000
0000
0000
0000
0000
0000
0000
0000
1000
0000
0000
0000
0000
0000
0000
0000
0000
0000
0000
0000
0000
MM11
0000
0000
0000
0000
0000
0000
0000
0000
0001
0000
0000
1000
0000
0000
0200
0000
0000
0300
0000
0000
0200
0000
0000
0300
0000
0000
,
10M0
0000
0000
0000
0000
0000
0001
0000
0100
0000
0001
0000
10M0
0000
0000
0100
0000
0000
001M
0000
0000
0000
0010
0000
,
0000
0000
0000
0000
0000
0000
000M
0000
0000
0200
0000
0000
0000
0000
0000
0000
0000
0000
0000
0000
00M0
0000
0000
0000
00M0
0000
0000
0000
00M0
0000
000M
0000
00M0
0000
0000
0000
00M0
0000
0000
0000
00M0
0000
0000
0000
00M0
0000
0000
0000
,
13MM
0000
0000
0001
0100
0001
1000
0100
0010
0000
000M
0000
0000
0000
0002
0000
,
2003
0000
0000
0000
3010
0000
0100
0001
0010
0002
0000
0000
1003
0000
0000
1000
,
0010
0000
0000
1000
0000
0000
0001
0000
0000
0000
0000
0000
0010
0000
0000
0100
0000
0000
0010
0000
0000
0100
0000
0000
1000
0000
0000
0000
0000
0000
1000
0000
0000
0001
0000
0000
0200
0000
0000
0000
0000
0000
0000
0300
0000
0100
0000
0000
,
0000
0000
0010
0000
1000
0001
1000
0100
0010
0000
0001
0100
0010
0000
0000
0010
,
1000
0001
1000
0000
0100
0010
0001
1000
0010
0000
0100
0001
1000
0000
0000
1000
,
0000
0000
1100
0000
0100
0000
0010
0001
1000
0000
0010
0100
M001
0000
1000
0100
,
1000
0000
0000
0100
0000
0000
001M
0000
0000
0100
0000
0000
1000
0000
0000
0000
0000
0000
0000
0000
1000
0000
0000
0000
0000
0000
0000
0000
1000
0000
00M0
0000
0001
0000
0000
0000
0100
0000
0000
0000
0010
0000
0000
0000
0100
0000
0000
0000
,
0001
0000
0000
0000
1000
0000
0000
0000
0001
0000
0000
0000
0020
0000
0000
0000
0032
0000
0000
0000
1003
0000
0000
0000
0010
0000
0000
0100
0000
0000
0004
0000
0000
0000
0000
0000
1MM3
0000
0000
0000
0000
0000
0200
0000
0000
0000
0000
0000
,
0000
0000
0000
0000
,
0000
0300
0000
0000
,
0000
0000
0020
0000
,
0000
0000
MM3M
0001
,
01M1
0000
0200
0000
0310
1000
0004
0000
0M00
0000
0023
0000
0130
0000
0000
0100
,
0000
0000
10M1
0000
1000
0000
0010
0100
0001
0000
1000
0000
01MM
0000
0100
0010
,
M001
0000
0000
0000
1000
0000
0001
0000
0000
0000
1000
0000
0001
0000
0000
0000
0200
0000
0000
0000
0000
0000
0000
0300
M110
0000
0000
0000
0002
0000
0000
0000
,
0000
0000
0000
0003
0M11
0000
0000
0000
4000
0000
0004
0000
0000
0000
3000
0000
0103
0000
0000
0000
0010
0000
0000
0000
101M
0000
0000
0000
1000
0000
0000
0000
,
0001
0010
0004
0000
M000
0000
0203
0000
0310
0000
0000
0010
0000
0000
1M01
0000
,
1000
0000
0100
0010
M001
0000
0100
0000
0020
0000
1030
0000
0000
0000
0100
0010
,
M001
0000
1000
0001
0000
1000
0001
0000
2020
0000
0000
0000
0000
3030
2020
0000
,
0000
0000
3M30
0000
1000
0100
1000
0100
,
1000
0000
0001
0000
1000
0000
0010
0000
0000
0000
0000
0000
0200
0000
0000
0301
0000
0000
1000
0000
0000
011M
0000
0000
,
0000
0000
0002
0000
0000
0000
1003
0010
0200
0000
0301
0000
1000
0000
11MM
0000
,
00MM
0000
0000
00MM
0000
0000
00MM
0000
0000
00MM
0000
0000
00MM
0000
0000
00MM
0000
0000
0011
0000
0000
0000
0011
0000
,
0000
0000
0000
0000
0011
0000
0000
0000
0000
0000
0000
0000
M220
0000
000M
0000
M000
0000
000M
0000
M000
0000
000M
0000
M000
0000
000M
0000
M000
0000
000M
0000
M000
0000
000M
0330
2000
0000
0000
0000
0000
0000
3000
0000
0000
1000
0000
0000
,
00M1
0000
0200
0000
0310
0100
0001
0000
10M0
0000
0100
0010
0002
0000
0103
0000
,
M010
0000
1MM1
0000
0000
0000
1000
0100
2000
0000
3000
1000
00M1
0000
0100
0000
,
0010
0100
0001
0100
M010
0000
1000
0001
2000
0000
0000
3100
0000
0000
0M11
0000
,
0001
0000
0001
0100
M010
0000
1000
0001
0020
0000
0000
0000
0000
0000
0000
0000
,
0000
0000
0M30
M000
,
00M0
0000
0000
0000
0000
0000
0000
0000
0001
0000
1000
0010
1000
0010
0100
0001
,
10M0
0000
0100
1000
0000
0100
1000
0000
0001
0000
0000
0000
1M20
0000
0000
0000
,
0000
0000
0030
0000
0000
0000
01M1
0001
,
1000
0000
0100
0000
1000
0000
0M01
0000
0000
0010
0000
0000
010M
0000
0000
0000
0100
0000
M000
0000
0000
0000
0000
0000
,
00M0
0000
0000
0000
0000
0000
00M0
0000
0000
00M0
0000
0000
10M0
0000
0000
00M0
0000
0000
00M0
0000
00M0
0000
00M0
0000
,
10M0
0000
0000
0000
0000
0000
0000
0000
0000
0000
0000
0000
0000
0000
0000
0000
00M1
0000
0000
0000
0000
0000
0000
0000
0000
0000
0000
0000
0000
0000
0000
0000
10M0
0000
0000
0000
0000
0000
0000
0000
0000
0000
0000
0000
0000
0000
0000
0000
00M0
0000
0000
0000
0000
0000
0000
0000
0000
0000
0000
0000
0000
0000
0000
0000
00M0
0000
0000
0000
0000
0000
0000
0000
0000
0000
0000
0000
0000
0000
0000
0000
00M0
0000
0000
0000
0000
0000
0000
0000
0000
0000
0000
0000
0000
0000
0000
0000
00M0
0000
0000
0000
0000
0000
0000
0000
0000
0000
0000
0000
00M0
0000
0000
0000
0000
0000
M000
0000
0000
0000
0000
0000
00M0
0000
0000
0000
0000
0000
0M0M
0000
0000
0000
0000
0000
00M0
0000
0000
0000
0000
0000
M000
0000
0000
0000
0000
0000
MMMM
0000
0000
0000
0000
0000
0000
0000
0000
0000
0000
0000
0000
0000
0000
0000
0000
0000
0000
0000
0000
0000
0000
0000
0000
0000
0000
0000
0000
0000
0000
0000
0000
0000
0000
0000
0000
0000
0000
0000
0000
0000
0000
0000
0000
0000
0000
0000
,
1MM1
0000
0000
1000
0100
0000
2000
0000
3001
0100
0010
0000
1M10
0000
2000
0000
,
3002
0000
0003
0010
0100
0000
0020
0000
0031
1000
0001
1000
0010
0000
0100
0000
,
0002
0000
0003
1000
0100
0000
0020
0000
0031
1000
0010
0000
011M
0000
0200
0000
,
0302
0000
0003
0010
0100
0000
1000
0001
0100
0010
0100
0010
4000
0000
3000
0000
,
1M01
0000
0000
0001
0010
0000
0002
0000
1003
0010
1000
0000
1M01
0000
0002
0000
,
0023
0000
0030
0100
0010
0000
0002
0000
1003
0010
1000
0010
0100
0000
0002
0000
,
2003
0000
3000
0100
0010
0000
0001
0100
0010
1000
0001
0000
11M0
0000
2000
3000
,
0002
0000
0003
1000
0010
0000
0200
0000
0301
1000
0100
0010
0200
0000
0300
0000
,
1MM1
0000
1000
0010
0000
0100
0001
1000
0100
0000
0010
0001
0010
0000
0001
1000
,
0010
0100
0010
0000
0100
0001
0000
0001
0000
1000
0010
0000
0100
0000
0100
0000
,
0002
0000
0000
1003
0100
0000
2000
0000
3001
0000
0100
0000
0100
0000
0001
0010
,
0100
0000
0000
0000
1000
0000
0000
0000
0100
0000
0000
0000
0000
0000
0000
0000
1000
0000
0000
0000
0001
0000
0000
0000
1000
0000
0000
0000
0000
0000
0000
0000
0010
0000
0000
0000
0100
0000
0000
0000
0010
0000
0000
0000
0000
0000
0000
0000
0400
0000
0000
0000
0000
0000
0000
0000
0000
0000
0000
0000
0000
0000
0000
0300
,
10M1
0000
0001
0010
0100
0000
1000
0010
1000
0010
0100
0000
0001
0000
0010
0000
,
0100
0000
0000
1000
0000
0000
0100
0000
0000
0000
0000
0000
1000
0000
0000
0001
0000
0000
1000
0000
0001
0000
1000
0000
0100
0000
0000
1000
0000
0000
0100
0000
0000
0000
0000
0000
0010
0000
0000
0000
0000
0000
0001
0000
0000
0000
0000
0000
,
1000
0000
0010
0000
0100
0001
0100
0000
0010
1000
0001
0000
0M11
0000
0010
0000
,
0200
0000
0000
0000
0000
0000
0000
0000
1300
0001
1000
0000
2000
0000
3MMM
0000
;
