#TITLE:Dota;
#SUBTITLE:(Ruckman);
#ARTIST:Basshunter;
#TITLETRANSLIT:;
#SUBTITLETRANSLIT:;
#ARTISTTRANSLIT:;
#CREDIT:;
#BANNER:;
#BACKGROUND:;
#LYRICSPATH:;
#CDTITLE:;
#MUSIC:Basshunter - Dota.ogg;
#OFFSET:-0.792;
#SAMPLESTART:45.763;
#SAMPLELENGTH:11.860;
#SELECTABLE:YES;
#BPMS:0.000=139.980,72.000=69.990,76.000=139.980,156.000=-70.000,160.000=69.999,166.000=139.979,230.000=69.999,232.000=139.979,296.000=-70.001,300.000=69.999,308.000=139.979,460.000=-160.002,464.000=159.999;
#STOPS:;
#BGCHANGES:;
// cache tags:
#FIRSTBEAT:5.500;
#LASTBEAT:473.000;
#SONGFILENAME:Songs/new cedric/Basshunter - Dota/Basshunter - Dota.sm;
#HASMUSIC:1;
#HASBANNER:0;
#MUSICLENGTH:105.000;
// end cache tags

//---------------dance-single - Blank----------------
#NOTES:
     dance-single:
     Blank:
     Hard:
     11:
     1.000,1.000,1.000,0.143,1.000,953.000,178.000,15.000,287.000,22.000:
0000
0000
0000
0000
,
0000
0000
0000
0000
0000
0000
0100
0000
1000
0100
0001
0100
1000
0010
0001
0010
,
1000
0000
0000
0000
0000
0000
0000
1100
0000
0000
0000
0000
0000
0000
0000
0000
0100
0000
0000
0000
0010
0000
0000
0000
0100
0000
0000
0000
1000
0000
0000
0000
,
1010
0000
0000
0000
0000
0000
0000
0000
0000
0000
0000
0000
0000
0000
0000
0000
0000
0000
0000
0000
0000
0000
0000
0000
0000
0000
0000
0000
0000
0000
0000
0000
0000
0000
0000
0000
0000
0000
0000
1001
0000
0000
0000
0000
0000
0000
0000
0000
0000
0000
0000
0000
0000
0000
0000
0000
0000
0000
0000
0000
0000
0000
0000
0000
0000
0000
0000
0000
0000
0000
0000
0000
0000
0000
0000
0000
0000
0000
0000
0000
0000
0000
0000
0000
0000
0000
0000
0000
0000
0000
0000
0000
0000
0000
0000
0000
M00M
0000
0000
0000
0000
0000
0000
0000
0000
0000
0000
0000
0000
0000
0000
0000
0M00
0000
0000
0000
0000
0000
0000
0000
0000
0000
0000
0000
0000
0000
0000
0000
00M0
0000
0000
0000
0000
0000
0000
0000
0000
0000
0000
0000
0000
0000
0000
0000
M00M
0000
0000
0000
0000
0000
0000
0000
0000
0000
0000
0000
0000
0000
0000
0000
00M0
0000
0000
0000
0000
0000
0000
0000
0000
0000
0000
0000
0000
0000
0000
0000
0M00
0000
0000
0000
0000
0000
0000
0000
0000
0000
0000
0000
0000
0000
0000
0000
,
M00M
0M00
00M0
M00M
00M0
0M00
M00M
0M00
00M0
M00M
00M0
0M00
,
M000
0000
0000
0010
0100
0001
0100
0010
,
1001
0000
0101
0000
1010
1000
0100
1000
,
0110
0000
0000
0000
0000
0101
0000
0000
0000
0000
MMM0
0000
M00M
0000
M00M
0000
MMM0
0000
0000
0000
0MM0
0000
M00M
0000
,
M00M
M00M
0MM0
0000
0000
MMMM
0MM0
0MM0
0MM0
0000
0MM0
M00M
,
MMMM
0000
0000
0000
M00M
0000
0000
0000
M00M
0000
0000
0000
0000
0000
0000
0000
0000
0000
0100
0000
0000
0000
0000
0000
1000
0000
0000
0000
0000
0000
0100
0000
0000
1000
0000
0000
0001
0000
0000
0010
0000
0000
0100
0000
0000
1000
0000
0000
,
1001
0000
0101
0000
0010
1000
0100
1000
,
1010
0000
0000
0101
0000
0000
0000
0000
0010
0000
0100
0000
1000
0000
0100
0000
,
0110
0000
0000
1100
0000
0000
0010
0000
0001
0000
1000
0000
0100
0000
0010
0000
,
1001
0000
0000
1100
0000
0000
0010
0000
0001
0000
0100
0000
1000
0000
0100
0000
,
0101
0000
0000
0000
0000
1010
0000
0000
0000
0000
0000
0000
1100
0000
0000
0010
0000
0000
0001
0000
0000
1000
0000
0000
,
0101
0000
0000
1100
0000
0000
0000
0000
0011
0000
1000
0000
0100
0000
1000
0000
,
1010
0000
0000
0110
0000
0000
0100
0000
0001
0000
0100
0000
0010
0000
1000
0000
,
1001
0000
0000
1100
0000
0000
0110
0010
0001
0100
0010
1000
0100
0001
0100
1000
,
0010
M00M
0MM0
0MM0
M00M
M00M
0MM0
0MM0
M00M
0000
0000
1100
0110
1001
0101
0110
,
1010
0000
1100
0000
0011
1000
0100
1000
,
1010
0000
0000
1001
0000
0000
0000
0000
1100
0000
0100
0000
0010
0000
0100
0000
,
1001
0000
0000
0101
0000
0000
0010
0000
1010
0000
1000
0000
0100
0000
0010
0000
,
1001
0000
0000
0110
0000
0000
0001
0000
0100
0000
1000
0000
0100
0000
0010
0000
,
1010
0000
0101
0000
0011
0100
1000
0001
,
1010
0000
0000
0110
0000
0000
0000
0000
1100
0000
0100
0000
0010
0000
0001
0000
,
1100
0000
0000
1010
0000
0000
0100
0000
0101
0000
0001
0000
0010
0000
0100
0000
,
1100
0000
0000
1001
0000
0000
0100
0000
0010
1000
0100
0010
0001
0010
1000
0010
,
0001
0000
0000
1000
0001
0000
1000
0001
1000
0000
0100
0000
1000
0000
0010
0000
,
0100
0000
0000
0001
0100
0000
0010
1000
0001
0000
0100
0000
0010
0000
1000
0000
,
0001
0000
0000
0100
0010
0000
1000
0100
0001
0000
0100
0000
1000
0000
0010
0000
,
0001
0000
0000
0010
1000
0000
0100
1000
0100
0000
0010
0000
0001
0000
1000
0000
,
0100
0000
0000
0010
0001
0000
1000
0001
0010
0000
0100
0000
1000
0000
0010
0000
,
0100
0000
0000
0001
0100
0000
0001
0010
1000
0000
0010
0000
0001
0000
0100
0000
,
0010
0000
0000
1000
0100
0000
0010
0000
0001
0000
1000
0000
0001
0000
0100
0000
,
0010
0000
0000
1000
0010
0000
0100
0001
1000
0000
0110
0000
1001
0000
0110
0000
,
1001
0000
0000
1100
0000
0000
0100
0000
1000
0100
1000
0000
0100
0000
0010
0000
,
0110
0000
0000
1100
0000
0000
0100
0000
0010
0100
0010
0000
0100
0000
0010
0000
,
0011
0000
0000
1100
0000
0000
0101
0000
1010
0000
0000
0110
0000
0000
0101
0000
,
1001
0000
0000
0000
0000
0000
1100
0000
0000
0000
0000
0000
0011
0000
0000
0000
0000
0000
1001
0000
0000
0000
0000
0000
1000
0000
0000
0100
0000
0000
1000
0000
0000
0100
0000
0000
0010
0000
0001
0000
0100
0000
0010
0000
1000
0000
0100
0000
,
0010
0000
0000
1111
0000
1111
0000
1111
0000
1111
0000
1111
0000
0000
0000
0000
0000
0000
0000
0000
0000
0000
0000
0000
0000
0000
0000
0000
0000
0000
0000
0000
0000
0000
0000
0000
0000
0000
0000
0000
0000
0000
0000
0000
0000
0000
0000
0000
,
0000
0000
0000
0000
,
0000
0000
MMMM
MMMM
MMMM
MMMM
MMMM
MMMM
MMMM
MMMM
MMMM
MMMM
MMMM
MMMM
MMMM
0000
0000
0000
1000
0000
0000
0010
0000
0000
0120
0000
0000
0000
0000
0000
0000
0000
0000
1030
0000
0000
0000
0000
0000
0000
0000
0000
0100
0000
0000
0000
0000
0000
,
1000
0100
1000
0000
1001
0000
0001
0000
0021
0000
0000
0130
0000
0000
1000
0000
,
0100
0000
0010
0000
0001
0000
1000
0000
2010
0000
0000
3001
0000
1000
0001
0000
,
0101
0000
0011
0000
0101
0000
0110
0000
2010
0000
0000
3100
0000
0000
1000
0000
,
0100
0000
1000
0000
0001
0000
0010
0000
0210
0000
0000
1300
0000
0000
0010
0000
,
1000
0001
0010
0000
0100
0000
1000
0000
0012
0000
0000
1003
0000
0000
0001
0000
,
0100
0000
0001
0000
0010
0000
0100
0000
2001
0000
0000
3100
0000
1000
0100
0000
,
0011
0000
1001
0000
0011
0000
0101
0000
2010
0000
0000
3001
0000
0000
1100
0000
,
0101
0000
1010
0000
0011
0000
1001
0000
1200
0000
0000
0310
0000
0000
0001
0000
,
1000
0001
1000
0000
0011
0000
1000
0000
1020
0000
0000
0130
0000
0000
0100
0000
,
0101
0000
0100
0000
0010
0000
1000
0000
2010
0000
0000
3100
0000
0010
0001
0000
,
1001
0000
0011
0000
1100
0000
1001
0000
1020
0000
0000
0130
0000
0000
0101
0000
,
1100
0000
1001
0000
0110
0000
0101
0000
2010
0000
0000
3100
0000
0000
0010
0000
,
0001
0010
0001
0000
0101
0000
0100
0000
1020
0000
0000
0130
0000
0000
0100
0000
,
1001
0000
1000
0000
0100
0000
0010
0000
0012
0000
0000
1003
0000
0001
1000
0000
,
1100
0011
1100
0011
0101
1010
1001
0011
,
0001
0000
0000
0010
0000
0000
0100
0000
0000
1000
0000
0000
0001
0000
0010
0000
0100
0000
1000
0000
0100
0000
0010
0000
0001
0000
0000
0000
0000
0000
0000
0000
0000
0000
1000
0000
0100
0000
0000
0000
0100
0000
0010
0000
0000
0000
0010
0000
,
0011
0000
0001
0100
0000
0100
0010
0000
0010
1000
0000
1000
,
0010
0000
0010
0100
0000
0100
0001
0000
0001
1000
0000
1000
,
0010
0000
0010
0001
0000
0001
0010
0000
0010
1000
0000
1000
,
0100
0000
0100
0010
0000
0010
0001
0000
0001
0100
0000
0100
,
0010
0000
0010
1000
0000
1000
0100
0000
0100
1000
0000
1000
,
0001
0000
0001
0010
0000
0010
0100
0000
0100
1000
0000
1000
,
0010
0000
1000
0100
0000
0100
0001
0000
0001
0100
0000
0100
,
1000
0000
1000
0010
0100
0010
0100
0001
0100
0010
1000
0100
,
0110
0000
0000
0000
1100
0000
0000
0000
0000
0000
0100
0000
1000
0000
0000
0000
1000
0000
0010
0000
0000
0000
0100
0001
,
0100
0000
0101
0000
0000
1000
0010
1000
0010
0100
0001
1000
,
1001
0000
1100
0000
0000
0100
0010
0001
1000
0001
0100
0010
,
0110
0000
0000
0000
1100
0000
0000
0000
0000
0000
0010
0000
0001
0000
1000
0000
0010
0000
0100
0000
0010
0000
1000
0100
,
1000
0000
0000
0000
1100
0000
0000
0000
0000
0000
1000
0000
0100
0000
0000
0000
0010
0000
0001
0000
0000
0000
0100
0010
,
0100
0000
0000
0000
0101
0000
0000
0000
0000
0000
0100
0000
0010
0000
1000
0000
0100
0000
0010
0000
0100
1000
0100
0000
,
0010
0100
1000
0010
1000
0001
0010
0001
0100
0010
1000
0100
,
1000
0100
1000
0100
1000
0100
0010
0100
0010
0100
0010
0100
0010
0001
0010
0001
0010
0001
1000
0001
1000
0001
1000
0001
,
0100
0000
1111
1111
1111
1111
1111
1111
1111
1111
1111
1111
1111
1111
1111
1111
1111
1111
1111
0000
0000
0000
0000
0000
0000
0000
0000
0000
0000
0000
0000
0000
0000
0000
0000
0000
0000
0000
0000
0000
0000
0000
0000
0000
0000
0000
0000
0000
,
0000
0000
0000
0000
,
0000
0000
MMMM
MMMM
MMMM
MMMM
MMMM
MMMM
MMMM
MMMM
MMMM
MMMM
MMMM
MMMM
MMMM
MMMM
MMMM
MMMM
MMMM
0000
0000
0000
0000
0000
0000
0000
0000
0000
0000
0000
0000
0000
0000
0000
0100
0000
1000
0000
0000
0000
1000
0000
0001
0000
0000
0000
0001
0000
,
0011
0000
1001
0000
0000
0000
1100
0000
0100
1000
0000
1000
,
0010
0000
0101
0000
0000
0000
0110
0000
0100
0001
0000
0001
,
1000
0000
1100
0000
0000
0100
0010
0000
0010
0001
0000
0001
,
0100
0000
1010
0000
0000
1000
0100
0000
0010
0001
0000
0100
,
0101
0000
0110
0000
0000
0000
1000
0000
1000
0100
0000
0100
,
0010
0000
1001
0000
0000
0000
0101
0000
0010
1000
0000
1000
,
1100
0000
0110
0000
0000
0010
0001
0000
0001
0100
0000
0100
,
0110
0000
1010
0000
0000
1000
0100
0000
0100
1000
0000
0001
,
1000
0100
0010
0001
0010
0100
1000
0100
1000
0010
0100
0001
,
0010
1000
0010
0001
0100
0001
0100
0001
0010
0100
1000
0010
,
1000
0100
1000
0100
0010
0100
0001
0100
0010
0100
1000
0001
,
1000
0100
0010
0100
1000
0010
0001
0010
1000
0100
1000
0100
,
1000
0010
0100
0001
0010
0001
0100
0010
0100
1000
0100
0010
,
0100
0001
0100
0010
1000
0100
0010
0001
0010
1000
0010
0001
,
0100
0001
0010
0001
0100
0010
1000
0100
1000
0010
0100
0001
,
0100
1000
0100
0001
0100
0010
0100
0001
0010
0100
0010
0001
,
1001
0000
1100
1000
0000
1001
0001
0100
0010
1000
0010
0100
,
0001
0000
0101
0100
0000
0101
0100
0010
1000
0100
0010
0001
,
1000
0000
1100
1000
0000
0101
0001
0000
1001
1000
0000
1100
,
0100
0000
0010
0000
0001
0000
0100
0000
0010
0000
1000
0000
0010
0100
0010
0100
0010
1000
0010
1000
0010
1000
0001
1000
,
0001
0000
0000
M00M
M00M
M00M
M00M
0000
0MM0
0000
0000
0MM0
M00M
M000
M000
0M00
00M0
000M
000M
000M
00M0
0M00
M000
0000
0000
0000
0MM0
0000
M00M
0000
M00M
0000
M00M
0000
M00M
0000
0MM0
0000
M00M
0000
M00M
0000
0000
0000
1000
0000
0000
0000
,
0001
1000
0001
0100
0000
0000
0101
0000
0010
1000
0100
1000
,
0010
0000
1000
0100
0000
0010
0001
1000
0100
0010
0000
0100
,
1000
0000
1000
0010
0000
0010
0100
0001
0100
0010
1000
0100
,
0010
0000
1000
0100
0000
1000
0100
0010
0001
0100
0010
1000
,
0001
0000
0001
0100
0000
0010
1000
0100
1000
0010
0100
0001
,
0100
0000
0010
1000
0000
0100
0010
0100
1000
0100
0010
0001
,
1000
0000
1000
0010
0000
1000
0100
1000
0010
0100
0001
0100
,
0001
0000
0001
1000
0000
0100
0010
0001
0100
0010
1000
0010
,
0100
0000
0001
1000
0000
0100
0010
0001
1000
0001
0010
0100
,
1000
0000
1000
0100
0000
1000
0100
0010
0100
1000
0010
0100
,
0001
0000
0100
0001
0000
0100
0010
1000
0100
0010
0100
1000
,
0010
0000
0100
0001
0000
0010
0100
1000
0010
0100
0001
0010
,
0100
0000
1000
0100
0000
1000
0100
1000
0010
0100
0010
0100
,
0001
0000
0100
0001
0000
0100
0010
1000
0100
1000
0010
0100
,
0001
0000
0100
0001
0000
0010
0001
0100
0001
0100
0010
0100
,
0010
0000
1000
0010
0000
1000
0010
0100
0010
0100
0001
0010
,
0001
0000
0000
0000
1000
0000
0100
0000
0000
0000
0100
0000
1000
0100
1000
0100
0010
0100
0010
0100
1000
0100
0000
0000
,
0000
0000
0000
0000
,
0000
0000
0000
0000
,
MMM0
M00M
M00M
MMM0
0000
0MM0
M00M
MMMM
M00M
M00M
0000
M00M
MMMM
M00M
M00M
M00M
,
0000
M00M
MM0M
M0MM
M00M
0000
0000
0000
0000
0000
0000
0000
0000
0000
0000
0000
;
