#TITLE:The Dream of Scarlet;
#SUBTITLE:Scarlet Rapsodia;
#ARTIST:dBu;
#TITLETRANSLIT:;
#SUBTITLETRANSLIT:;
#ARTISTTRANSLIT:;
#CREDIT:;
#BANNER:tdosbn.png;
#BACKGROUND:tdosbg.png;
#LYRICSPATH:;
#CDTITLE:!-carlitos-.png;
#MUSIC:The Dream of Scarlet.mp3;
#OFFSET:-0.020;
#SAMPLESTART:44.581;
#SAMPLELENGTH:12.000;
#SELECTABLE:YES;
#BPMS:0.000=200.000,195.000=100.000;
#STOPS:;
#BGCHANGES:;
// cache tags:
#FIRSTBEAT:4.750;
#LASTBEAT:207.500;
#SONGFILENAME:Songs/Astronomic Metal Collection 2/(-carlitos-) The Dream of Scarlet/The Dream of Scarlet.sm;
#HASMUSIC:1;
#HASBANNER:1;
#MUSICLENGTH:72.129;
// end cache tags

//---------------dance-single - ----------------
#NOTES:
     dance-single:
     :
     Hard:
     11:
     1.000,1.000,1.000,1.000,0.416,314.000,80.000,139.000,28.000,59.000:
0000
0000
0000
0000
,
0000
0000
0000
1000
0100
0010
0001
0100
0010
1000
0010
0100
0010
1000
0100
0010
,
0001
0010
0100
0010
1001
0000
0000
0000
1001
0000
0000
0000
2000
0000
3200
0000
,
0320
0032
0000
2003
0000
3020
0230
0000
,
2300
0000
3101
0000
0101
0000
0002
0023
,
0230
0000
2300
0000
0000
0000
3200
0000
0000
0000
0320
0000
0000
0000
0031
0100
,
1001
0000
1001
0000
1001
0000
2010
3201
,
1320
0132
0000
2103
0000
3020
0231
0000
,
2310
0000
0012
0003
3000
0000
0000
0000
1001
0000
0000
0000
0102
0000
1023
0000
,
0231
2310
0000
3210
0000
1320
0000
0030
,
0000
0000
0210
0300
1001
0000
0000
0000
1001
0000
0000
0000
2010
0000
3200
0000
,
1320
0032
0000
2013
0000
3020
1230
0000
,
2301
0000
0021
0030
3000
0000
0000
0000
1001
0000
0000
0000
1002
0000
0123
0000
,
0231
0000
2310
0000
0000
0000
3210
0000
0000
0000
0311
0000
1000
0010
0100
0010
,
1000
0001
0010
0100
1020
0000
0000
0000
1000
0000
0000
0000
1000
0000
0000
0000
,
1000
0000
0101
0000
0231
0000
0001
0000
0000
0000
0301
0000
1000
0010
0100
0010
,
1000
0000
0000
0100
0000
0000
0010
0000
0000
0001
0000
0000
1000
0000
0000
0000
0010
0000
0000
0000
0100
0000
0000
0000
0001
0000
0000
0000
0010
0000
0000
0000
0100
0000
0000
0000
1000
0000
0000
0000
0010
0000
0000
0000
0100
0000
0000
0000
,
0010
1000
0001
0100
0010
0100
0001
0010
0100
1000
0010
0100
,
0001
0000
0010
0000
0100
0000
2000
0000
0000
0000
3200
0000
0000
0000
0320
0000
0000
0000
0132
0000
0000
1200
0003
0000
,
0000
0320
0000
2130
3000
0102
0000
0000
,
0010
0000
0000
0003
2000
0000
0000
0000
3201
0000
0320
0000
0032
0000
0023
0000
,
0001
0230
0300
0200
1320
0032
0203
2300
,
3101
0102
0000
0000
1023
0230
0000
0320
,
0000
0032
0000
1203
0000
2301
0000
3000
,
0011
0000
0000
1000
0010
0100
0001
0010
0100
1000
0010
0100
,
0010
1000
0001
0100
0010
0100
0001
0010
0100
1000
0010
0100
,
0001
0010
0100
1000
0001
0100
0010
1000
0010
1000
0100
0010
,
0001
0000
0100
0000
0020
0000
0000
0030
0000
0201
0000
0000
0000
0000
0000
2310
0000
0000
0000
0000
0000
0000
0000
0000
,
3011
0100
0002
0000
0100
0000
1000
1000
,
1000
0000
0203
0000
0010
0000
0001
0001
,
0001
0000
2300
0000
0001
0000
0010
0010
,
0010
3021
0000
0230
0302
0023
0230
2300
,
3210
0302
0023
0000
0100
0000
0230
0000
,
1000
2300
0010
3020
,
0100
0032
0100
1000
,
1000
0023
0100
0230
0312
0023
0230
2300
,
3210
0302
0023
0000
0100
0000
0230
0000
,
1000
2300
0010
3020
,
0100
0032
0100
1000
,
1000
0023
0100
0230
0312
0023
0230
2300
,
3200
0302
1023
0000
1000
0000
0231
0000
,
0001
0001
2310
0000
0010
0000
3021
0000
,
0001
0001
0132
0000
1000
0000
1000
0000
,
1000
0023
1000
0230
1302
0023
0231
2300
,
3210
0302
1023
1000
1000
1000
0231
0001
,
0001
0001
2310
0010
0010
0010
3021
0001
,
0001
0001
1032
1000
1000
1000
1000
1000
,
1003
0120
1000
0230
0312
0023
0231
2301
,
3201
1302
0000
0000
0000
0000
2M03
00M0
,
000M
00M0
0M00
00M0
000M
00M0
0M00
00M0
,
000M
00M0
0M00
00M0
000M
00M0
0M00
00M0
,
000M
00M0
0M00
00M0
000M
00M0
3M00
M0MM
;

//---------------dance-single - Copied from----------------
#NOTES:
     dance-single:
     Copied from:
     Challenge:
     13:
     1.000,1.000,1.000,1.000,0.645,399.000,142.000,140.000,50.000,103.000:

0000
0000
0000
0000
,
0000
0000
0000
1000
0101
0010
0001
0100
0010
0001
0110
1001
0100
1000
0010
0100
,
1010
0101
1010
0101
1010
0000
M00M
0000
1001
0000
M00M
0000
2000
0000
3200
0000
,
0320
0032
0000
2003
0000
3020
0230
0000
,
2300
0000
3101
0M0M
0101
0M0M
0002
0023
,
0230
0000
0000
0000
2300
0000
0000
0000
0000
0000
0000
0000
3200
0000
0000
0000
0000
0000
0000
0000
0320
0000
0000
0000
0000
0000
0000
0000
0031
0010
0100
1000
,
0011
00MM
1001
0100
1001
0100
2010
3201
,
1320
0132
0010
2103
0101
3020
0231
0001
,
2310
0000
0102
0003
3M00
0000
0010
0000
1001
0000
0010
0000
0102
0000
1023
0000
,
0231
2310
0001
3210
0011
1320
0001
0130
,
1010
0000
0210
0300
1001
0000
M00M
0000
1001
0000
M00M
0000
2010
0000
3200
0000
,
1320
0032
0100
2013
0101
3020
1230
0010
,
2301
0000
0120
0030
30M0
0000
0100
0000
1001
0000
0100
0000
1002
0000
0123
0000
,
0231
0000
2310
0000
0001
0000
3210
0000
1010
0000
0321
0000
1000
0001
0100
0001
,
1000
0001
1030
0100
102M
0000
0000
0000
100M
0000
0000
0000
100M
0000
0000
0000
,
100M
0000
0101
0000
0231
0000
M001
0000
0000
0000
M001
0000
1000
0010
0001
0010
,
1000
0000
0000
0010
0000
0000
0001
0000
0000
0010
0000
0000
1300
0000
0000
0000
0100
0000
0000
0000
0010
0000
0000
0000
1100
0000
0000
0000
0001
0000
0000
0000
0010
0000
0000
0000
1000
0000
0000
0000
0100
0000
0000
0000
0010
0000
0000
0000
,
1100
0001
0010
1000
0100
0010
1100
0001
0010
1000
0100
0010
,
1100
0000
0001
0000
0010
0000
2000
0000
0000
0000
3200
0000
1001
0000
0320
0000
0000
0000
0132
0000
0000
1200
0003
0000
,
0011
0000
0000
0320
0000
0000
0000
0001
0000
2130
0000
0000
3000
0000
0000
0102
0000
0000
0000
0000
0000
0100
0000
0000
,
1010
0000
0010
0103
2000
0000
0000
0000
3201
0000
0320
0000
0032
0000
0023
0000
,
1001
0000
0000
0230
0000
0000
0300
0010
0000
0200
0000
0000
1320
0000
0000
0032
0000
0000
0203
0000
0000
2300
0000
0000
,
3101
1002
0010
0000
1023
0230
0010
0320
,
1100
0000
0000
0032
0000
0000
0000
0010
0000
1203
0000
0000
0000
0000
0000
2301
0000
0000
0010
0000
0000
3100
0000
0000
,
0011
0000
0000
0000
0000
0000
0010
0000
0000
0100
0000
0000
1000
0000
0000
0000
0100
0000
0000
0000
0010
0000
0000
0000
1100
0000
0000
0000
0001
0000
0000
0000
0010
0000
0000
0000
1000
0000
0000
0000
0100
0000
0000
0000
0010
0000
0000
0000
,
1100
0001
0010
1000
0100
0010
1100
0010
0001
0100
0001
0010
,
1100
0001
0010
1000
0001
0100
1010
0001
0010
1000
0001
0100
,
1010
0000
0001
0000
0200
0000
0300
0010
0000
0201
0000
0000
0000
0000
0000
2310
0000
0000
0001
0000
0000
0100
0000
0000
,
3011
0000
0100
0010
0002
0000
0000
0000
1100
0000
0000
0000
0100
0000
0010
0000
,
1100
0000
0010
0000
0203
0010
0001
0000
1010
0000
0000
0000
0010
0000
0001
0000
,
1010
0011
2300
0000
0101
0000
0100
0001
,
0110
3021
0000
0230
0302
0023
0230
2300
,
3210
0000
0000
0302
0000
0000
0023
0000
0000
0100
0000
0000
1001
0000
0000
0000
1000
0000
0230
0000
0000
0010
0000
0000
,
1001
0000
0010
0000
2300
0000
0100
0000
0011
0000
0100
0000
3020
0100
1000
0000
,
0101
0000
0000
1000
0000
0000
0032
0000
0000
0100
0000
0000
1010
0000
0000
0000
0100
0000
0010
0000
0000
0100
0000
0000
,
1010
0000
0000
0023
0000
0000
0100
0000
0000
0230
0000
0000
0312
0000
0000
0023
0000
0000
0230
0001
0000
2300
0000
0000
,
3210
0000
0000
0302
0000
0000
0023
0000
0000
0100
0000
0000
1001
0000
0000
0000
1000
0000
0230
0000
0000
0010
0000
0000
,
1001
0000
0010
0000
2300
0000
0010
0000
0101
0000
0010
0000
3020
0100
1000
0000
,
0101
0000
0000
1000
0000
0000
0032
0000
0000
0100
0000
0000
1010
0000
0000
0000
0100
0000
0010
0000
0000
0100
0000
0000
,
1010
0000
0000
0023
0000
0000
1000
0000
0000
0230
0000
0000
1302
0000
0000
0023
0000
0000
0230
0001
0000
2300
0000
0000
,
3200
0302
1023
0000
0101
0000
0231
0000
,
1010
0000
0000
0001
0000
0000
2310
0000
0000
0000
0000
0000
0101
0000
0000
0000
0000
0000
3021
0000
0000
0000
1000
0000
,
0101
1000
0132
0000
1010
0000
1010
0000
,
1010
0023
1001
0230
1302
0023
0231
2300
,
3210
0000
0302
0000
1023
0000
1000
0100
1001
0000
0100
1000
0231
0000
0001
0010
,
1001
0000
1000
0010
2301
0000
0001
0010
0101
0000
0001
0100
3021
0000
1000
0100
,
1001
0000
0001
0100
1032
0000
1000
0100
1010
0100
0010
0100
1010
0000
1000
0100
,
1013
0000
0120
0000
0101
0000
0230
0000
0312
0000
0023
0000
0231
0000
2301
0010
,
3201
0010
1302
0000
0000
0000
0000
0000
0000
0000
0000
0000
2M03
0000
00M0
0000
,
000M
00M0
0M00
00M0
000M
00M0
0M00
00M0
,
000M
00M0
0M00
00M0
000M
00M0
0M00
00M0
,
000M
00M0
0M00
00M0
000M
00M0
3M00
M0MM
;
