#TITLE:Sarah's Song;
#SUBTITLE:;
#ARTIST:Tyrian;
#TITLETRANSLIT:;
#SUBTITLETRANSLIT:;
#ARTISTTRANSLIT:;
#CREDIT:;
#BANNER:sarah.png;
#BACKGROUND:sarah-bg.png;
#LYRICSPATH:;
#CDTITLE:PF-cdtitle.png;
#MUSIC:Tyrian - Sarah's Song.mp3;
#OFFSET:0.000;
#SAMPLESTART:45.732;
#SAMPLELENGTH:12.000;
#SELECTABLE:YES;
#BPMS:0.000=131.200;
#STOPS:;
#BGCHANGES:;
// cache tags:
#FIRSTBEAT:8.000;
#LASTBEAT:163.000;
#SONGFILENAME:Songs/Keys of Flames/Sarah's Song (PolarFox)/sarah.sm;
#HASMUSIC:1;
#HASBANNER:1;
#MUSICLENGTH:74.919;
// end cache tags

//---------------dance-single - ----------------
#NOTES:
     dance-single:
     :
     Hard:
     10:
     0.971,0.925,0.681,0.027,1.000,456.000,51.000,2.000,0.000,0.000:
0000
0000
0000
0000
,
0000
0000
0000
0000
,
1000
0000
1000
0001
0100
0000
0100
0001
1000
0010
0100
0010
0001
0000
1000
0100
,
0010
0000
0010
0001
1000
0000
1000
0100
0000
0100
1000
0100
0010
0001
1000
0001
,
1000
0000
1000
0100
0010
0000
0010
0100
0000
0100
0010
0001
0010
0000
0010
0001
,
1000
0000
1000
0100
0010
0000
0010
0001
0000
0001
0100
0010
1000
0001
1000
0100
,
1000
0000
0100
0010
1000
0000
1000
0001
0000
0001
0100
0010
1000
0000
0010
0001
,
0100
0000
0100
0010
0001
0000
0010
0100
1001
0000
1001
0000
1001
1001
1001
1001
,
0100
0010
1000
0000
1100
0000
0100
0010
0001
0010
0100
0000
1100
0000
0011
0000
,
0001
0010
0100
0000
1100
0000
1000
0100
0000
0001
0010
0000
0011
0010
0100
1000
,
0100
0001
0100
0000
1100
0000
0001
0010
0100
1000
0010
0000
1001
0000
0110
0000
,
1000
0100
0010
0000
0110
0000
0001
0100
0000
0100
0001
0000
1100
0010
0001
0010
,
1000
0100
0001
0000
0110
0000
0100
0010
0001
0010
0100
0000
0011
0000
0100
0000
,
1000
0010
0001
0000
0110
0000
1000
0100
0000
0100
1000
0000
0011
0100
1000
0100
,
0001
0010
0100
0000
0011
0000
1000
0100
0000
0001
0010
0000
0110
0000
1000
0000
,
0001
1000
0001
0000
0110
0000
1000
0010
0000
0010
0100
0000
1010
0001
0100
0010
,
0001
0100
0010
1000
0011
0000
0010
1000
0000
0100
0001
0000
0101
0000
1000
0000
,
0001
0100
0010
0000
1100
0000
0010
0001
0000
0001
0010
0000
0010
0100
1000
0100
,
0010
1000
0001
0100
0011
0000
1000
0001
0000
0100
0010
0000
0110
0000
0001
0000
,
1000
0100
0010
0000
0110
0000
0100
0010
0000
0010
0100
0000
0110
1000
0100
0001
,
1000
0010
0100
0000
0101
0000
0010
0100
0000
0001
0010
0000
1001
0000
0010
0000
,
0001
0010
0100
0000
1100
0000
0001
1000
0000
1000
0001
0000
1100
0010
1000
0001
,
0100
0010
1000
0100
0110
0000
0100
0010
0000
0001
0100
0000
1001
0000
0100
0000
,
0010
1000
0001
0000
1010
0000
0001
0010
0000
1000
0010
0000
0001
0010
0100
1000
,
0100
0000
0001
0010
0100
0000
0100
0010
0000
0010
0100
1000
0010
0000
1000
0100
,
1000
0000
0001
0100
0010
0000
0010
1000
0000
1000
0100
1000
0001
0010
0100
1000
,
0001
0000
0100
0010
1000
0000
1000
0100
0000
0010
1000
0100
0001
0000
0001
1000
,
0100
0000
0100
0001
1000
0000
0010
0100
0000
0001
1000
0001
0100
1000
0100
0010
,
0011
0000
1000
0100
0010
0000
0001
0010
0000
1000
0100
1000
0010
0000
0100
0010
,
1000
0000
1000
0100
1000
0000
0100
0010
0000
1000
0010
0001
0010
0001
1000
0100
,
0010
0000
0001
0100
0010
0000
0001
0010
0000
0010
0100
1000
0010
0000
0010
0001
,
0010
0000
0100
1000
0001
0000
1000
0010
0011
0000
1001
0000
0100
0100
0100
0100
,
1100
0000
0010
0100
0010
0000
1000
0100
0000
0001
0010
0100
0010
0000
0100
0001
,
0010
0000
0010
0100
1000
0000
1000
0010
0000
0010
0100
1000
0001
1000
0001
0100
,
0001
0000
0001
0100
0010
0000
1000
0100
0000
0001
0010
0100
0010
0000
1000
1000
,
0010
0000
0100
0010
0001
0000
0001
1000
0000
1000
0100
1000
0100
0010
0001
0010
,
1000
0000
0001
0001
0010
0000
0100
0010
0000
0100
1000
1000
0010
0000
0100
0100
,
0010
0000
0001
0001
0010
0000
0100
1000
0000
0010
0100
0010
1000
0100
0010
0001
,
1001
0000
0100
0100
1001
0000
0100
0100
1100
0000
0001
0001
0110
0000
0100
0100
,
0011
0000
1000
1000
1100
0000
0001
0001
1001
0000
0110
0000
1000
0001
1000
0001
,
2200
0000
0000
3300
;
