#TITLE:MAXX UNLIMITED;
#SUBTITLE:;
#ARTIST:Z;
#TITLETRANSLIT:;
#SUBTITLETRANSLIT:;
#ARTISTTRANSLIT:;
#CREDIT:;
#BANNER:bn.PNG;
#BACKGROUND:bg.PNG;
#LYRICSPATH:;
#CDTITLE:cdtitle.png;
#MUSIC:MAXX UNLIMITED.mp3;
#OFFSET:-0.845;
#SAMPLESTART:13.600;
#SAMPLELENGTH:12.000;
#SELECTABLE:YES;
#DISPLAYBPM:140.000:320.000;
#BPMS:0.000=300.000,76.000=150.000,78.000=300.000,90.000=150.000,92.000=300.000,156.000=280.000,188.000=300.000,220.000=150.000,236.000=300.000,268.000=140.000,276.000=125.000,277.000=48.000,278.000=320.000;
#STOPS:278.000=1.500
;
#BGCHANGES:;
// cache tags:
#FIRSTBEAT:0.000;
#LASTBEAT:454.000;
#SONGFILENAME:Songs/toune 3/MAXXX UNLIMIETD/MAXX UNLIMITED.sm;
#HASMUSIC:1;
#HASBANNER:1;
#MUSICLENGTH:101.992;
// end cache tags

//---------------dance-single - ----------------
#NOTES:
     dance-single:
     :
     Hard:
     9:
     0.747,1.000,0.755,0.176,0.088,438.000,77.000,18.000,0.000,0.000:
0101
0000
0000
0101
0000
0000
0001
0000
,
0010
0001
1000
0100
,
1100
0000
0000
1100
0000
0000
1000
0000
,
0010
1000
0100
0010
,
0011
0000
0000
0011
0000
0000
0001
0000
,
0100
0010
1000
0100
,
0110
0000
0000
0110
0000
0000
0110
0000
,
0001
1000
0001
1000
0001
0000
0000
0000
,
1100
0000
0000
1100
0000
0000
1000
0000
,
0010
1000
0001
0100
,
0101
0000
0000
0101
0000
0000
0001
0000
,
0010
0001
0100
0010
,
1010
0000
0000
1010
0000
0000
1000
0000
,
0100
0010
0001
0100
,
0110
0000
0000
0110
0000
0000
0110
0000
,
1000
0001
1000
0001
1000
0001
1000
0001
,
0100
0001
0010
0001
,
0100
0001
0010
0001
,
0100
0001
0010
0001
,
0100
0000
0010
0100
0000
0001
0000
1000
0100
0000
0000
0000
1000
0000
0000
0000
,
0010
1000
0100
1000
,
0010
1000
0100
1000
,
0010
0000
0000
0000
1000
0000
0000
0000
0100
0000
0010
0100
0000
1000
0000
0001
,
0100
0000
0001
0000
1000
0010
0000
0000
,
0100
0000
0010
0000
1000
0100
0000
0000
,
0010
0000
0001
0000
0100
1000
0000
0001
,
0100
0101
0001
1001
,
0100
0000
1000
0000
0001
0010
0000
0000
,
0100
0000
0010
0000
0001
0100
0000
0000
,
0010
0000
1000
0000
0100
0001
0000
1000
,
0100
1100
1000
1001
,
0001
0000
0100
0000
0010
1000
0000
1000
,
0010
0000
0100
0000
0001
0010
0000
0010
,
0001
0000
0100
0000
0010
1000
0000
1000
,
0002
0013
0002
0103
,
1000
0000
0100
0000
0010
0001
0000
0001
,
0010
0000
0100
0000
1000
0010
0000
0010
,
1000
0000
0100
0000
0010
0001
0000
0001
,
0010
0100
0010
0100
0010
0100
0010
0000
,
0002
0000
0000
0000
,
0000
0000
0000
0000
,
0023
0000
0000
0032
,
0000
0000
0203
0300
,
2002
0000
0000
0000
,
0000
0000
0003
0000
,
3020
0000
0000
0230
,
0000
0000
0302
0003
,
1000
0010
0100
0010
,
1000
0100
0001
0100
,
1200
0000
0000
0320
,
0000
0000
0000
0030
0020
0000
0030
0000
,
0001
0100
1000
0100
,
0001
0010
0100
0010
,
0001
1000
0100
0010
,
0001
1000
0001
1000
0001
1000
0001
1000
,
0000
0000
1100
0000
0000
1100
0000
0000
1100
0000
0000
1100
0000
0000
1100
0000
,
0000
0000
0110
0000
0000
0110
0000
0000
0110
0000
0000
0110
0000
0000
0110
0000
,
0000
0000
0101
0000
0000
0101
0000
0000
0101
0000
0000
0101
0000
0000
0101
0000
,
0000
0000
1001
0000
0000
1001
0000
0000
1001
0000
0000
1001
0000
0000
1001
0000
,
0010
0001
1000
0010
,
0100
1000
0001
0100
,
0010
0001
0100
1000
,
0010
0000
0100
0000
0001
0010
0100
0000
,
0010
1000
0001
0010
,
0100
0001
1000
0100
,
0010
0010
0010
0010
,
0001
1000
0001
1000
0001
1000
0001
1000
,
0000
0000
1010
0000
0000
0100
0000
0000
0001
0000
0000
0010
0000
0000
0011
0000
,
0000
0000
0101
0000
0000
0010
0000
0000
1000
0000
0000
0100
0000
0000
1100
0000
,
2002
0000
0000
0000
0000
0000
0000
0000
0000
3003
0000
0000
0010
0000
0000
0000
,
1000
0001
1000
0010
,
1000
0100
1000
0010
,
0100
0001
0010
0100
,
1000
0000
0001
0010
0000
0100
0001
0000
,
1000
0001
0010
1000
,
0010
0001
0100
1000
,
0010
0100
1000
0001
,
0100
0001
0000
0010
0001
0000
1000
0000
,
0010
0100
0100
1000
,
0001
0010
0010
0001
,
0010
0100
0100
0001
,
1000
0000
0010
0000
0010
1000
0010
0000
,
0100
0001
0010
0100
,
1000
0001
0010
0001
,
0001
0000
1000
0000
1000
0000
0001
0010
,
0001
0010
0100
1000
0100
1000
0001
0000
,
0000
0101
0000
0000
0101
0000
0010
0000
,
0000
1010
0000
0000
1010
0000
1000
0000
,
0000
0110
0000
0000
1000
0010
0100
0001
,
1000
0000
0000
1000
,
0000
1100
0000
0000
1100
0000
0010
0000
,
0000
0011
0000
0000
0011
0000
0001
0000
,
0000
0110
0000
0000
1000
0000
0100
0000
,
1001
0010
1001
0001
,
0000
0011
0000
0000
0100
0000
1000
0000
,
0000
1010
0000
0000
0100
0000
0110
0000
,
0000
1010
0000
0000
1010
0000
1000
0000
,
1100
0000
0000
1000
,
0000
1010
0000
0000
0100
0000
0001
0000
,
0000
0011
0000
0000
0100
0000
0110
0000
,
0000
0011
0000
0000
0011
0000
0001
0000
,
0101
0000
0000
0001
,
0010
0010
0100
0001
,
1000
0000
0001
0100
0010
0000
1000
0000
,
0100
0010
0001
1000
,
0100
0000
0010
0001
0100
0000
0010
0000
,
1000
1000
0100
0010
,
0001
0000
1000
0010
0100
0000
0001
0000
,
0000
0011
0000
0000
0010
0000
0100
0000
,
0000
1100
0000
0000
1000
0000
1001
0000
,
0000
1000
0100
0000
0000
0100
0010
0000
,
0000
0010
0001
0000
0000
0001
2002
0000
,
0000
0000
0000
0000
,
0000
0000
3003
0000
;

//---------------dance-single - ----------------
#NOTES:
     dance-single:
     :
     Medium:
     7:
     0.549,0.668,0.206,0.275,0.000,343.000,21.000,28.000,0.000,0.000:
1000
0010
1000
0000
,
0001
0100
0001
1000
,
0001
0010
0001
0000
,
1000
0010
1000
0001
,
1000
0100
1000
0000
,
0001
0010
0100
1000
,
0010
0000
0000
0100
0000
0000
0010
0000
,
0100
0100
0100
0000
,
0001
0010
0001
0000
,
1000
0100
1000
0001
,
1000
0010
1000
0000
,
0001
0010
0001
1000
,
0001
0100
0001
0000
,
1000
0010
0100
0001
,
0010
0000
0000
0100
0000
0000
0010
0000
,
0001
0001
1000
1000
,
0010
1000
0100
0000
,
1000
0001
0100
0000
,
0010
1000
0100
0000
,
2002
3003
0010
0001
,
0100
0000
0001
1000
,
0100
0000
0010
0001
,
0100
0000
1001
0110
,
0010
1000
0001
0000
,
0010
0100
1000
0000
,
0010
1000
0001
0000
,
0100
0001
0101
0000
,
0010
0001
1000
0000
,
0010
0100
0001
0000
,
0010
0001
1000
0000
,
0100
1000
1100
0000
,
1000
0010
0100
0000
,
0001
0010
0100
0000
,
1000
0001
0100
0000
,
2020
3030
2020
3030
,
0001
0010
0100
0000
,
1000
0010
0100
0000
,
0001
1000
0100
0000
,
0022
0033
0022
0033
,
2000
0000
0000
0000
,
0000
0000
0000
3000
,
0002
0000
0003
0020
,
0000
0030
0200
0300
,
0020
0000
0000
0000
,
0000
0000
0000
0030
,
0002
0000
0003
2000
,
0000
3000
0002
0003
,
1000
0100
0000
0010
,
0000
0001
0000
1000
,
1010
0000
0000
0101
,
0000
0000
1001
0000
,
1000
0010
0000
0100
,
0000
0001
0000
0010
,
0100
0000
0010
0000
,
0100
0000
0100
0000
0010
0100
0010
0000
,
0002
0010
0010
0013
,
0020
0100
0100
0130
,
2000
0010
0010
3010
,
0002
1000
1000
1003
,
0100
1000
0100
1000
,
0001
0010
0001
0000
,
0100
0001
0100
0001
,
1000
0010
1000
0000
,
0001
0010
0100
0010
,
0001
0100
0010
0000
,
0100
0100
0100
0100
,
0001
0001
1000
1000
,
0020
1000
0100
1030
,
0200
0001
0010
0301
,
2002
0000
3003
0100
,
0100
0100
0000
0010
,
0010
0010
0000
1000
,
0010
0010
0000
0001
,
0100
0100
0000
1000
,
0100
0010
0001
1000
,
0100
0010
0001
1000
,
0001
1000
0010
1000
,
0100
0100
0000
1000
,
0010
1000
0010
1000
,
0100
1000
0100
1000
,
0010
0100
0010
1000
,
1000
1000
0000
0001
,
0010
0001
0010
0001
,
0100
0001
0100
0001
,
0010
0000
0100
0000
0010
0000
0001
0010
,
0001
0000
1000
0100
1000
0000
0010
0000
,
0000
0001
0000
0000
1000
0000
0100
0000
,
0000
0010
0000
0000
0100
0000
1000
0000
,
0000
1001
0000
0000
0010
0000
0100
0000
,
0110
0000
0000
0001
,
0000
1000
0000
0000
0001
0000
0100
0000
,
0000
0010
0000
0000
0100
0000
0001
0000
,
0000
1000
0000
0000
0010
0000
0100
0000
,
0001
0010
0001
1000
,
0000
0001
0000
0000
0010
0000
0001
0000
,
0000
1000
0000
0000
0010
0000
0100
0000
,
0000
0001
0000
0000
0010
0000
0100
0000
,
0110
0000
0000
0001
,
0000
0100
0000
0000
0010
0000
1000
0000
,
0000
0100
0000
0000
0010
0000
0001
0000
,
0000
1000
0000
0000
0100
0000
0010
0000
,
0110
0000
0000
0001
,
0100
0100
0000
0001
,
1000
0001
0100
0001
,
0010
0010
0000
0001
,
1000
0001
0010
0001
,
0100
0100
0000
0001
,
1000
0001
0001
1000
,
0000
1100
0000
0000
0000
0000
0010
0000
,
0000
0011
0000
0000
0000
0000
1001
0000
,
0000
0001
1000
0000
0000
1000
0001
0000
,
0000
0100
0010
0000
0000
0000
2002
0000
,
0000
0000
0000
0000
,
0000
0000
3003
0000
;

//---------------dance-single - ----------------
#NOTES:
     dance-single:
     :
     Easy:
     5:
     0.405,0.445,0.235,0.176,0.000,247.000,24.000,18.000,0.000,0.000:
0001
0000
0001
0000
,
1000
0000
1000
0001
,
1000
0000
1000
0000
,
0001
0000
0001
1000
,
0001
0000
0001
0000
,
1000
0000
0010
0000
,
0100
0000
0010
0000
,
0100
0100
0100
0000
,
1000
0000
1000
0000
,
0001
0000
0001
1000
,
0001
0000
0001
0000
,
1000
0000
1000
0001
,
1000
0000
1000
0000
,
0001
0000
0010
0000
,
0100
0000
0010
0000
,
0100
0100
0100
0000
,
0100
0000
0010
0000
,
0001
0000
0010
0000
,
0100
0000
0010
0000
,
2002
3003
0100
0000
,
0010
0000
1000
0000
,
0010
0000
0100
0000
,
0010
0000
1001
0110
,
0100
0000
1000
0000
,
0100
0000
0001
0000
,
0100
0000
1000
0000
,
0010
0000
1010
0000
,
0100
0000
0001
0000
,
0100
0000
1000
0000
,
0100
0000
0001
0000
,
0010
0000
0011
0000
,
0001
0000
0010
0000
,
1000
0000
0010
0000
,
0001
0000
0010
0000
,
0002
0003
0200
0300
,
1000
0000
0010
0000
,
0001
0000
0010
0000
,
1000
0000
0010
0000
,
2000
3000
0200
0300
,
0002
0000
0000
0000
,
0000
0000
0000
0003
,
1000
0000
0000
0001
,
0000
0000
1000
0000
,
0200
0000
0000
0000
,
0000
0000
0000
0300
,
1000
0000
0000
0001
,
0000
0000
1000
0000
,
0001
0000
0010
0000
,
0100
0000
1000
0000
,
0100
0000
0000
0010
,
0000
0000
0100
0000
,
0001
0000
0100
0000
,
0010
0000
1000
0000
,
0010
0000
0100
0000
,
0010
0010
0010
0000
,
2000
0000
0100
3000
,
0200
0000
0010
0300
,
0002
0000
0100
0003
,
2000
0000
0001
3000
,
0010
0000
0010
0000
,
1000
0000
1000
0000
,
0010
0000
0010
0000
,
0001
0000
0001
0000
,
1000
0000
0010
0000
,
1000
0000
0010
0000
,
0100
0100
0100
0000
,
1000
0001
1001
0000
,
0200
0000
0010
0300
,
0020
0000
0100
0030
,
2002
0000
3003
0010
,
0000
0010
0000
0100
,
0000
0100
0000
0001
,
0000
0100
0000
1000
,
0000
0010
0000
0001
,
1000
0001
0000
0001
,
1000
0001
0000
0010
,
0100
0010
0000
0100
,
0010
0100
0000
0001
,
1000
0001
1000
0001
,
1000
0001
0000
0010
,
0100
0010
0100
0010
,
0100
0010
0000
1000
,
0001
1000
0001
1000
,
0001
1000
0000
0100
,
0010
0100
0010
0001
,
0001
1000
1000
0100
,
0000
1001
0000
0010
,
0000
1001
0000
0100
,
0000
1001
0000
0010
,
0010
0000
0000
1000
,
0000
0110
0000
0001
,
0000
0110
0000
1000
,
0000
0110
0000
0001
,
1000
0001
1000
0010
,
0000
1001
0000
0100
,
0000
1001
0000
0010
,
0000
1001
0000
0010
,
0010
0000
0000
1000
,
0000
0110
0000
0001
,
0000
0110
0000
1000
,
0000
0110
0000
0001
,
0001
0000
0000
1000
,
0000
0010
0000
1000
,
0001
1000
0000
0001
,
0000
0100
0000
0001
,
1000
0001
0000
1000
,
0000
0010
0000
1000
,
0001
1000
0000
0001
,
0000
1000
0000
0000
0000
0000
1000
0000
,
0000
0001
0000
0000
0000
0000
0110
0000
,
0000
1001
0000
0110
,
0000
0110
0000
2002
,
0000
0000
0000
0000
,
0000
0000
3003
0000
;

//---------------dance-single - ----------------
#NOTES:
     dance-single:
     :
     Beginner:
     3:
     0.219,0.329,0.098,0.010,0.000,145.000,10.000,1.000,0.000,0.000:
1000
0000
0000
0000
,
0001
0000
1000
0000
,
0001
0000
0000
0000
,
1000
0000
0001
0000
,
1000
0000
0000
0000
,
0001
0000
0000
0000
,
0010
0000
0000
0000
,
0010
0000
0010
0000
,
0001
0000
0000
0000
,
1000
0000
0001
0000
,
1000
0000
0000
0000
,
0001
0000
1000
0000
,
0001
0000
0000
0000
,
1000
0000
0000
0000
,
0010
0000
0000
0000
,
0010
0000
0010
0000
,
0010
0000
0000
0000
,
1000
0000
0000
0000
,
0010
0000
0000
0000
,
1001
0000
0010
0000
,
0000
0000
0001
0000
,
0000
0000
0010
0000
,
0000
0000
1001
0000
,
0010
0000
0000
0000
,
0010
0000
0000
0000
,
0010
0000
0000
0000
,
0110
0000
0000
0000
,
0010
0000
0000
0000
,
0010
0000
0000
0000
,
0010
0000
0000
0000
,
0110
0000
0000
0000
,
1000
0000
0000
0000
,
0001
0000
0000
0000
,
1000
0000
0000
0000
,
0010
0000
0000
0000
,
0001
0000
0000
0000
,
1000
0000
0000
0000
,
0001
0000
0000
0000
,
0100
0000
0000
0000
,
1000
0000
0000
0000
,
0000
0000
0000
0000
,
0010
0000
0000
0010
,
0000
0000
0010
0000
,
0010
0000
0000
0000
,
0000
0000
0000
0000
,
0100
0000
0000
0100
,
0000
0000
0100
0000
,
1000
0000
0000
0000
,
0010
0000
0000
0000
,
1000
0000
0000
1000
,
0000
0000
1000
0000
,
0001
0000
0000
0000
,
0100
0000
0000
0000
,
0010
0000
0000
0000
,
0100
0000
0100
0000
,
0001
0000
0000
0000
,
0010
0000
0000
0000
,
1000
0000
0000
0000
,
0001
0000
0000
0000
,
0100
0000
0000
0000
,
0001
0000
0000
0000
,
0100
0000
0000
0000
,
1000
0000
0000
0000
,
0001
0000
0000
0000
,
0001
0000
0000
0000
,
0010
0000
0010
0000
,
0100
0000
1001
0000
,
0010
0000
0000
0000
,
0100
0000
0000
0000
,
0020
0000
0030
0000
,
0000
0100
0000
0000
,
0000
0010
0000
0000
,
0000
0010
0000
0000
,
0000
0100
0000
1000
,
0000
1000
0000
1000
,
0000
1000
0000
0100
,
0000
0100
0000
0010
,
0000
0010
0000
0001
,
0000
0001
0000
0001
,
0000
0001
0000
0100
,
0000
0100
0000
0100
,
0000
0100
0000
0001
,
0000
0001
0000
0001
,
0000
0001
0000
0010
,
0000
0010
0000
1001
,
0000
1001
0000
0010
,
0000
0000
0000
0100
,
0000
0000
0000
0010
,
0000
0000
0000
0100
,
0100
0000
0000
0001
,
0000
0000
0000
1000
,
0000
0000
0000
0001
,
0000
0000
0000
0110
,
0000
0110
0000
0100
,
0000
0000
0000
0010
,
0000
0000
0000
0100
,
0000
0000
0000
0100
,
0100
0000
0000
0001
,
0000
0000
0000
1000
,
0000
0000
0000
0001
,
0000
0000
0000
1000
,
1000
0000
0000
0001
,
0000
0000
0000
0001
,
0000
0001
0000
1000
,
0000
0000
0000
1000
,
0000
1000
0000
0001
,
0000
0000
0000
0001
,
0000
0001
0000
1000
,
0000
0000
0000
0001
,
0000
0000
0000
0010
,
0000
0001
0000
0100
,
0000
1000
0000
1001
;
