#TITLE:Bonetrousle;
#SUBTITLE:Undertale OST\;
#ARTIST:Toby Fox;
#TITLETRANSLIT:;
#SUBTITLETRANSLIT:;
#ARTISTTRANSLIT:;
#CREDIT:owenviau1;
#BANNER:BN.PNG;
#BACKGROUND:BG.PNG;
#LYRICSPATH:;
#CDTITLE:../CDTitleOV1.png;
#MUSIC:toby fox - UNDERTALE Soundtrack - 24 Bonetrousle.ogg;
#OFFSET:-0.053;
#SAMPLESTART:60.839;
#SAMPLELENGTH:29.999;
#SELECTABLE:YES;
#BPMS:0.000=150.000;
#STOPS:;
#BGCHANGES:;
// cache tags:
#FIRSTBEAT:0.000;
#LASTBEAT:287.500;
#SONGFILENAME:Songs/owenviau1 Simfiles 7/Bonetrousle - [owenviau1] v1.0.3/Bonetrousle.sm;
#HASMUSIC:1;
#HASBANNER:1;
#MUSICLENGTH:115.264;
// end cache tags

//---------------dance-single - 1- (owenviau1)----------------
#NOTES:
     dance-single:
     1- (owenviau1):
     Beginner:
     1:
     0.115,0.156,0.121,0.000,0.000,79.000,14.000,0.000,0.000,0.000:
1000
0000
0000
0000
,
0001
0000
0000
0000
,
0100
0000
0000
0000
,
0010
0000
0000
0000
,
0000
1001
0000
0000
0000
0000
0000
0000
,
0001
0000
0000
0000
,
1000
0000
0000
0000
,
0010
0000
0000
0000
,
0000
0110
0000
0000
0000
0000
0000
0000
,
0010
0000
0000
0000
,
0100
0000
0000
0000
,
0001
0000
0000
0000
,
0000
1001
0000
0000
0000
0000
1000
0000
,
0000
0000
0010
0000
,
0000
0100
0000
0000
,
0001
0000
0000
0000
,
0000
1001
0000
0000
0000
0000
1000
0000
,
0000
0010
0000
0000
,
0100
0000
0000
0000
,
0001
0000
0000
0000
,
1001
0000
0000
0000
,
1000
0000
0000
0000
,
0010
0000
0000
0000
,
0100
0000
0000
0000
,
0000
0110
0000
0000
0000
0000
0000
0000
,
0010
0000
0000
0000
,
1000
0000
0000
0000
,
0001
0000
0000
0000
,
1001
0000
0000
0000
,
1000
0000
0000
0000
,
0100
0000
0000
0000
,
0010
0000
0000
0000
,
0001
0000
0000
0000
,
1000
0000
0000
0010
,
0000
0000
0100
0000
,
0001
0000
0000
0000
,
1000
0000
0000
0000
,
0001
0000
0000
0000
,
0100
0000
0000
0000
,
0010
0000
0000
0000
,
0000
1001
0000
0000
0000
0000
0000
0000
,
0001
0000
0000
0000
,
1000
0000
0000
0000
,
0010
0000
0000
0000
,
0000
0110
0000
0000
0000
0000
0000
0000
,
0010
0000
0000
0000
,
0100
0000
0000
0000
,
0001
0000
0000
0000
,
0000
1001
0000
0000
0000
0000
1000
0000
,
0000
0000
0010
0000
,
0000
0100
0000
0000
,
0001
0000
0000
0000
,
0000
1001
0000
0000
0000
0000
1000
0000
,
0000
0010
0000
0000
,
0100
0000
0000
0000
,
0001
0000
0000
0000
,
1001
0000
0000
0000
,
1000
0000
0000
0000
,
0010
0000
0000
0000
,
0100
0000
0000
0000
,
0000
0110
0000
0000
0000
0000
0000
0000
,
0010
0000
0000
0000
,
1000
0000
0000
0000
,
0001
0000
0000
0000
,
1001
0000
0000
0000
,
1000
0000
0000
0000
,
0100
0000
0000
0000
,
0010
0000
0000
0000
,
0001
0000
0000
0000
,
1000
0000
0000
0010
,
0000
0000
0100
0000
,
0001
0000
0000
1000
,
0000
0000
0000
0000
;

//---------------dance-single - 5 (owenviau1)----------------
#NOTES:
     dance-single:
     5 (owenviau1):
     Easy:
     5:
     0.429,0.373,0.000,0.625,0.000,274.000,0.000,72.000,0.000,0.000:
1000
0100
1000
0010
,
0100
0001
1000
0010
,
0100
0010
1000
0001
,
0010
0001
0100
0010
,
0100
0001
2000
3010
,
0100
0002
1003
0100
,
1000
0020
0130
0001
,
1000
0200
0310
0001
,
1000
0010
0200
0302
,
1003
0020
0130
0010
,
1000
0002
0013
0100
,
1000
0010
0100
0000
,
0001
1000
0020
0230
,
0301
2000
3010
0100
,
0001
2000
3100
1000
,
0010
0200
0301
0000
,
0000
1000
0010
0200
,
0301
0020
0130
1000
,
0001
0200
0301
1000
,
0010
0100
0010
0000
,
1000
0001
0200
0320
,
1030
0002
0013
0100
,
1000
0001
0200
0310
,
0200
0301
2000
0000
,
3010
0100
0002
2003
,
3010
0200
0301
1000
,
0200
1300
0020
0130
,
0001
1000
0200
0000
,
0310
0001
2000
3020
,
0130
0002
1003
0100
,
1000
0010
0200
0301
,
0020
0130
2000
0000
,
3001
0100
0020
0130
,
0001
1000
1000
0100
,
1000
0010
0200
0301
,
1000
0010
0100
0001
,
1000
0100
1000
0010
,
0100
0001
1000
0010
,
0100
0010
1000
0001
,
0010
0001
0100
0010
,
0100
0001
2000
3010
,
0100
0002
1003
0100
,
1000
0020
0130
0001
,
1000
0200
0310
0001
,
1000
0010
0200
0302
,
1003
0020
0130
0010
,
1000
0002
0013
0100
,
1000
0010
0100
0000
,
0001
1000
0020
0230
,
0301
2000
3010
0100
,
0001
2000
3100
1000
,
0010
0200
0301
0000
,
0000
1000
0010
0200
,
0301
0020
0130
1000
,
0001
0200
0301
1000
,
0010
0100
0010
0000
,
1000
0001
0200
0320
,
1030
0002
0013
0100
,
1000
0001
0200
0310
,
0200
0301
2000
0000
,
3010
0100
0002
2003
,
3010
0200
0301
1000
,
0200
1300
0020
0130
,
0001
1000
0200
0000
,
0310
0001
2000
3020
,
0130
0002
1003
0100
,
1000
0010
0200
0301
,
0020
0130
2000
0000
,
3001
0100
0020
0130
,
0001
1000
1000
0100
,
1000
0010
0200
0301
,
1000
0010
0100
0001
,
0000
0000
0000
0000
;

//---------------dance-single - 7.88 (8-) (owenviau1----------------
#NOTES:
     dance-single:
     7.88 (8-) (owenviau1:
     Medium:
     8:
     0.761,0.686,0.000,0.920,0.147,508.000,0.000,106.000,0.000,0.000:
1000
0100
1000
0010
0100
0001
0100
0010
,
1000
0001
1000
0010
0100
0010
1000
0001
,
0010
0001
1000
0100
1000
0001
0100
0010
,
1000
0001
0010
0001
1000
0100
1000
0010
,
0100
0001
1000
0100
2000
0000
3020
0000
,
0130
0001
2000
0000
3100
0010
0001
1000
,
0010
1000
0002
0000
0013
0100
1000
0010
,
0100
0010
2000
0000
3001
0010
0001
0100
,
0010
0000
1000
0000
0001
0000
0010
0000
0200
0000
0000
1300
0002
0000
0000
0000
,
0103
0010
2000
0000
3100
0010
0001
1000
,
0010
0100
0020
0000
1030
0001
0010
0001
,
0200
0000
0320
0000
1030
0100
2000
0000
3002
0003
0100
0000
0010
0000
0100
0000
,
0001
1000
0100
0010
0002
0000
0203
0000
,
0310
1000
0020
0000
0130
0001
1000
0100
,
0010
0001
2000
0000
3010
0100
0010
1000
,
0001
0010
0002
0000
1003
0010
0100
0001
,
1000
0000
0100
0000
0010
0000
0001
0000
0200
0000
0000
0310
2000
0000
0000
0000
,
3001
0010
0002
0000
0103
0010
1000
0010
,
0100
0001
2000
0000
3100
0010
0001
1000
,
0020
0000
0130
0000
0001
1000
0002
0000
0203
0300
0010
0000
1000
0100
1000
0000
,
0001
0010
0100
1000
0020
0000
0230
0000
,
0301
0000
0000
1000
0000
0000
0010
0200
0000
0000
0000
0000
0301
0000
0000
1000
0000
0000
0100
0000
0000
1000
0000
0000
,
0010
0000
0100
0001
0100
0000
0010
0000
2000
0000
0000
0000
3100
0000
0010
0000
,
0002
0000
0000
1003
0010
0000
0100
0000
0020
0000
0000
0000
0000
0000
0000
0000
,
1030
0100
1000
0001
0200
0000
0320
0000
,
1030
0000
0000
0100
0000
0000
1000
0002
0000
0000
0000
0000
0103
0000
0000
0010
0000
0000
0100
0000
0000
0001
0000
0000
,
2000
0000
0000
0000
0000
0000
0000
0000
0000
3010
0000
0000
0100
0000
0000
0000
0000
0000
0001
0000
0000
0000
0000
0000
0020
0000
0000
0000
0000
0000
0000
0000
0000
0000
0130
0000
1000
0000
0000
0000
0000
0000
0001
0000
0000
0000
0000
0000
,
0100
0000
0000
0010
0000
0000
0100
0000
0000
0001
0000
0000
1000
0020
0000
0000
0000
0000
0000
0000
0000
0000
0000
0000
,
0130
0001
1000
0001
0200
0000
0320
0000
,
1030
0000
0000
0100
0000
0000
1000
0002
0000
0000
0000
0000
0103
0000
0000
0010
0000
0000
0100
0000
0000
0001
0000
0000
,
2000
0000
0000
0000
0000
0000
0000
0000
0000
3010
0000
0000
0100
0000
0000
0000
0000
0000
0001
0000
0000
0000
0000
0000
0020
0000
0000
0000
0000
0000
0000
0000
0000
0000
0030
0000
0100
0000
0000
0000
0000
0000
1000
0000
0000
0000
0000
0000
,
0002
0000
0000
0003
0000
0100
0010
0000
0000
1000
0000
0000
0002
0000
0000
0000
0000
0000
0000
0000
0000
0000
0000
0000
,
1003
0000
0000
0010
0000
0000
0100
0000
0000
0010
0000
0000
2000
0000
0000
0000
0000
3001
0200
0000
0000
0000
0000
0000
,
0310
0000
0000
1000
0000
0000
0002
0000
0000
0000
0000
0000
0023
0000
0000
0030
0000
0100
1000
0000
0000
0010
0000
0000
,
0100
0010
1000
0001
0020
0000
0230
0300
,
1000
0001
2000
3100
0020
0030
0002
0003
,
1000
0100
1000
0010
0100
0001
0100
0010
,
1000
0001
1000
0010
0100
0010
1000
0001
,
0010
0001
1000
0100
1000
0001
0100
0010
,
1000
0001
0010
0001
1000
0100
1000
0010
,
0100
0001
1000
0100
2000
0000
3020
0000
,
0130
0001
2000
0000
3100
0010
0001
1000
,
0010
1000
0002
0000
0013
0100
1000
0010
,
0100
0010
2000
0000
3001
0010
0001
0100
,
0010
0000
1000
0000
0001
0000
0010
0000
0200
0000
0000
1300
0002
0000
0000
0000
,
0103
0010
2000
0000
3100
0010
0001
1000
,
0010
0100
0020
0000
1030
0001
0010
0001
,
0200
0000
0320
0000
1030
0100
2000
0000
3002
0003
0100
0000
0010
0000
0100
0000
,
0001
1000
0100
0010
0002
0000
0203
0000
,
0310
1000
0020
0000
0130
0001
1000
0100
,
0010
0001
2000
0000
3010
0100
0010
1000
,
0001
0010
0002
0000
1003
0010
0100
0001
,
1000
0000
0100
0000
0010
0000
0001
0000
0200
0000
0000
0310
2000
0000
0000
0000
,
3001
0010
0002
0000
0103
0010
1000
0010
,
0100
0001
2000
0000
3100
0010
0001
1000
,
0020
0000
0130
0000
0001
1000
0002
0000
0203
0300
0010
0000
1000
0100
1000
0000
,
0001
0010
0100
1000
0020
0000
0230
0000
,
0301
0000
0000
1000
0000
0000
0010
0200
0000
0000
0000
0000
0301
0000
0000
1000
0000
0000
0100
0000
0000
1000
0000
0000
,
0010
0000
0100
0001
0100
0000
0010
0000
2000
0000
0000
0000
3100
0000
0010
0000
,
0002
0000
0000
1003
0010
0000
0100
0000
0020
0000
0000
0000
0000
0000
0000
0000
,
1030
0100
1000
0001
0200
0000
0320
0000
,
1030
0000
0000
0100
0000
0000
1000
0002
0000
0000
0000
0000
0103
0000
0000
0010
0000
0000
0100
0000
0000
0001
0000
0000
,
2000
0000
0000
0000
0000
0000
0000
0000
0000
3010
0000
0000
0100
0000
0000
0000
0000
0000
0001
0000
0000
0000
0000
0000
0020
0000
0000
0000
0000
0000
0000
0000
0000
0000
0130
0000
1000
0000
0000
0000
0000
0000
0001
0000
0000
0000
0000
0000
,
0100
0000
0000
0010
0000
0000
0100
0000
0000
0001
0000
0000
1000
0020
0000
0000
0000
0000
0000
0000
0000
0000
0000
0000
,
0130
0001
1000
0001
0200
0000
0320
0000
,
1030
0000
0000
0100
0000
0000
1000
0002
0000
0000
0000
0000
0103
0000
0000
0010
0000
0000
0100
0000
0000
0001
0000
0000
,
2000
0000
0000
0000
0000
0000
0000
0000
0000
3010
0000
0000
0100
0000
0000
0000
0000
0000
0001
0000
0000
0000
0000
0000
0020
0000
0000
0000
0000
0000
0000
0000
0000
0000
0030
0000
0100
0000
0000
0000
0000
0000
1000
0000
0000
0000
0000
0000
,
0002
0000
0000
0003
0000
0100
0010
0000
0000
1000
0000
0000
0002
0000
0000
0000
0000
0000
0000
0000
0000
0000
0000
0000
,
1003
0000
0000
0010
0000
0000
0100
0000
0000
0010
0000
0000
2000
0000
0000
0000
0000
3001
0200
0000
0000
0000
0000
0000
,
0310
0000
0000
1000
0000
0000
0002
0000
0000
0000
0000
0000
0023
0000
0000
0030
0000
0100
1000
0000
0000
0010
0000
0000
,
0100
0010
1000
0001
0020
0000
0230
0300
,
1000
0001
2000
3100
0020
0030
0002
0003
,
0000
0000
0000
0000
;

//---------------dance-single - 12.23 (12) (owenviau----------------
#NOTES:
     dance-single:
     12.23 (12) (owenviau:
     Hard:
     12:
     1.000,1.000,0.000,0.434,1.000,1080.000,0.000,50.000,0.000,0.000:
1000
0100
0010
0001
0100
0010
1000
0001
0100
0001
0010
0100
1000
0010
0100
0010
,
1000
0001
0010
0001
0100
0010
1000
0001
0100
0001
1000
0010
0100
0010
1000
0001
,
0010
0001
0100
0010
1000
0001
0010
0100
1000
0001
0010
0001
0100
0010
0100
0001
,
1000
0010
1000
0001
0100
0010
0100
0001
1000
0100
1000
0010
0100
0001
1000
0100
,
0010
0001
0100
0010
0100
0001
1000
0010
1000
0001
0100
0010
0100
0001
1000
0100
,
1000
0010
0100
0001
1000
0100
1000
0001
0010
0001
0100
0010
1000
0001
0100
0001
,
1000
0010
0100
0010
1000
0001
0100
0001
0010
0100
1000
0010
0100
0010
1000
0001
,
0010
0001
0100
0010
0100
0001
1000
0010
1000
0001
0100
0010
1000
0001
0010
0001
,
1000
0100
0010
0001
1000
0100
0010
0001
0100
0010
1000
0001
0100
0001
0010
0100
,
1000
0010
0100
0010
1000
0001
0010
0001
0100
0010
1000
0001
0100
0001
1000
0010
,
0100
0010
1000
0001
0010
0001
0100
0010
1000
0001
0010
0100
1000
0001
0010
0001
,
0100
0010
0100
0001
1000
0010
1000
0001
0100
0010
0100
0001
1000
0100
1000
0010
,
0100
0001
1000
0100
0010
0001
0100
0010
0100
0001
1000
0010
1000
0001
0100
0010
,
0100
0001
1000
0100
1000
0010
0100
0001
1000
0100
1000
0001
0010
0001
0100
0010
,
1000
0001
0100
0001
1000
0010
0100
0010
1000
0001
0100
0001
0010
0100
1000
0010
,
0100
0010
1000
0001
0010
0001
0100
0010
0100
0001
1000
0010
1000
0001
0100
0010
,
1000
0001
0010
0001
1000
0100
0010
0001
1000
0100
1000
0010
0100
0001
0100
0010
,
1000
0001
0010
0001
1000
0100
1000
0010
0100
0001
0100
0010
1000
0001
0010
0001
,
0100
0010
0100
0001
1000
0010
1000
0001
0100
0010
1000
0001
0010
0001
1000
0100
,
0010
0001
0100
0010
1000
0001
0100
0010
0200
0000
0301
0000
1000
0010
1000
0000
,
0001
0100
0010
0100
0001
1000
0100
1000
0010
0100
0010
1000
0001
0100
0001
1000
,
0010
0100
0010
1000
0001
0010
0001
1000
0100
0010
0001
1000
0100
1000
0001
0100
,
0010
0100
0001
1000
0010
1000
0100
0010
0001
1000
0100
0010
0100
1000
0001
0100
,
0010
0100
0001
1000
0010
1000
0001
0100
0010
0100
0001
1000
0100
1000
0010
0100
,
0010
1000
0001
0010
0001
0100
0010
1000
0001
0010
0100
1000
0010
0100
0001
1000
,
0100
1000
0001
0100
0001
1000
0001
0100
0010
0100
0001
1000
0010
1000
0001
0100
,
0010
0100
0001
1000
0100
1000
0010
0100
0001
1000
0100
0010
0001
1000
0010
0100
,
0010
1000
0001
0010
0001
0100
0010
0100
0001
1000
0100
1000
0010
0100
0010
1000
,
0001
0100
0001
1000
0100
0010
0001
0100
0010
1000
0001
1000
0100
0010
0001
0100
,
0010
0100
0001
1000
0100
1000
0010
0100
0001
0100
0010
1000
0100
1000
0001
0010
,
0001
1000
0100
1000
0010
0100
0001
0100
0010
1000
0001
1000
0100
0010
0001
1000
,
0010
0100
0010
1000
0001
0100
0001
1000
0100
1000
0010
0100
0001
1000
0100
0010
,
0001
0000
0000
0000
0000
0000
0000
0000
0000
0000
0000
0000
0002
0000
0000
0003
0000
0000
0000
0000
0000
0000
0000
0000
2000
0000
0000
0000
3000
0000
0000
0000
0000
0000
0000
0000
0002
0000
0000
0000
0003
0000
0000
0000
0000
0000
0000
0000
0020
0000
0000
0000
0000
0000
0000
0000
0000
0000
0000
0000
0130
0000
0000
0000
0000
0000
0000
0000
2000
0000
0000
0000
3002
0000
0000
0000
0000
0000
1003
0000
0000
0000
0000
0000
0010
0000
0000
0000
0000
0000
0000
0000
0000
0000
0000
0000
,
0200
0300
0000
0002
0003
0000
2000
3000
0000
0010
0000
0000
2000
3000
0000
0001
0000
0020
0230
0000
0000
2300
0000
0000
,
3002
0000
0203
0000
0302
0003
2000
3000
0020
0000
0000
0000
0230
0000
0300
0000
,
0002
2003
3200
0010
0320
0030
0002
0003
,
1000
0100
0010
0001
0100
0010
1000
0001
0100
0001
0010
0100
1000
0010
0100
0010
,
1000
0001
0010
0001
0100
0010
1000
0001
0100
0001
1000
0010
0100
0010
1000
0001
,
0010
0001
0100
0010
1000
0001
0010
0100
1000
0001
0010
0001
0100
0010
0100
0001
,
1000
0010
1000
0001
0100
0010
0100
0001
1000
0100
1000
0010
0100
0001
1000
0100
,
0010
0001
0100
0010
0100
0001
1000
0010
1000
0001
0100
0010
0100
0001
1000
0100
,
1000
0010
0100
0001
1000
0100
1000
0001
0010
0001
0100
0010
1000
0001
0100
0001
,
1000
0010
0100
0010
1000
0001
0100
0001
0010
0100
1000
0010
0100
0010
1000
0001
,
0010
0001
0100
0010
0100
0001
1000
0010
1000
0001
0100
0010
1000
0001
0010
0001
,
1000
0100
0010
0001
1000
0100
0010
0001
0100
0010
1000
0001
0100
0001
0010
0100
,
1000
0010
0100
0010
1000
0001
0010
0001
0100
0010
1000
0001
0100
0001
1000
0010
,
0100
0010
1000
0001
0010
0001
0100
0010
1000
0001
0010
0100
1000
0001
0010
0001
,
0100
0010
0100
0001
1000
0010
1000
0001
0100
0010
0100
0001
1000
0100
1000
0010
,
0100
0001
1000
0100
0010
0001
0100
0010
0100
0001
1000
0010
1000
0001
0100
0010
,
0100
0001
1000
0100
1000
0010
0100
0001
1000
0100
1000
0001
0010
0001
0100
0010
,
1000
0001
0100
0001
1000
0010
0100
0010
1000
0001
0100
0001
0010
0100
1000
0010
,
0100
0010
1000
0001
0010
0001
0100
0010
0100
0001
1000
0010
1000
0001
0100
0010
,
1000
0001
0010
0001
1000
0100
0010
0001
1000
0100
1000
0010
0100
0001
0100
0010
,
1000
0001
0010
0001
1000
0100
1000
0010
0100
0001
0100
0010
1000
0001
0010
0001
,
0100
0010
0100
0001
1000
0010
1000
0001
0100
0010
1000
0001
0010
0001
1000
0100
,
0010
0001
0100
0010
1000
0001
0100
0010
0200
0000
0301
0000
1000
0010
1000
0000
,
0001
0100
0010
0100
0001
1000
0100
1000
0010
0100
0010
1000
0001
0100
0001
1000
,
0010
0100
0010
1000
0001
0010
0001
1000
0100
0010
0001
1000
0100
1000
0001
0100
,
0010
0100
0001
1000
0010
1000
0100
0010
0001
1000
0100
0010
0100
1000
0001
0100
,
0010
0100
0001
1000
0010
1000
0001
0100
0010
0100
0001
1000
0100
1000
0010
0100
,
0010
1000
0001
0010
0001
0100
0010
1000
0001
0010
0100
1000
0010
0100
0001
1000
,
0100
1000
0001
0100
0001
1000
0001
0100
0010
0100
0001
1000
0010
1000
0001
0100
,
0010
0100
0001
1000
0100
1000
0010
0100
0001
1000
0100
0010
0001
1000
0010
0100
,
0010
1000
0001
0010
0001
0100
0010
0100
0001
1000
0100
1000
0010
0100
0010
1000
,
0001
0100
0001
1000
0100
0010
0001
0100
0010
1000
0001
1000
0100
0010
0001
0100
,
0010
0100
0001
1000
0100
1000
0010
0100
0001
0100
0010
1000
0100
1000
0001
0010
,
0001
1000
0100
1000
0010
0100
0001
0100
0010
1000
0001
1000
0100
0010
0001
1000
,
0010
0100
0010
1000
0001
0100
0001
1000
0100
1000
0010
0100
0001
1000
0100
0010
,
0001
0000
0000
0000
0000
0000
0000
0000
0000
0000
0000
0000
0002
0000
0000
0003
0000
0000
0000
0000
0000
0000
0000
0000
2000
0000
0000
0000
3000
0000
0000
0000
0000
0000
0000
0000
0002
0000
0000
0000
0003
0000
0000
0000
0000
0000
0000
0000
0020
0000
0000
0000
0000
0000
0000
0000
0000
0000
0000
0000
0130
0000
0000
0000
0000
0000
0000
0000
2000
0000
0000
0000
3002
0000
0000
0000
0000
0000
1003
0000
0000
0000
0000
0000
0010
0000
0000
0000
0000
0000
0000
0000
0000
0000
0000
0000
,
0200
0300
0000
0002
0003
0000
2000
3000
0000
0010
0000
0000
2000
3000
0000
0001
0000
0020
0230
0000
0000
2300
0000
0000
,
3002
0000
0203
0000
0302
0003
2000
3000
0020
0000
0000
0000
0230
0000
0300
0000
,
0002
2003
3200
0010
0320
0030
0002
0003
,
0000
0000
0000
0000
;

//---------------dance-single - ----------------
#NOTES:
     dance-single:
     :
     Challenge:
     18:
     1.000,1.000,0.000,0.434,1.000,1518.000,0.000,50.000,0.000,0.000:
1000
0100
0010
0001
0100
0010
1000
0001
0100
0001
0010
0100
1000
0010
0100
0010
,
1000
0001
0010
0001
0100
0010
1000
0001
0100
0001
1000
0010
0100
0010
1000
0001
,
0010
0001
0100
0010
1000
0001
0010
0100
1000
0001
0010
0001
0100
0010
0100
0001
,
1000
0010
1000
0001
0100
0010
0100
0001
1000
0100
1000
0010
0100
0001
1000
0100
,
0010
0000
0000
0001
0000
0000
0100
0000
0010
0000
1000
0000
0001
0000
0100
0000
0001
0000
1000
0000
0010
0000
0100
0000
0010
0000
1000
0000
0001
0000
0010
0000
0001
0000
0100
0000
0010
0000
1000
0000
0001
0000
0010
0000
0100
0000
1000
0000
,
0010
0100
0001
1000
0010
1000
0100
0010
0001
0100
0010
0100
0001
1000
0010
1000
0001
0100
0001
1000
0010
0100
0010
1000
,
0001
0010
0001
0100
0010
0100
0001
1000
0010
0100
0001
1000
0100
0010
0001
1000
0010
0100
0010
1000
0001
0010
0001
1000
,
0100
0010
0001
0100
0010
0100
0001
1000
0010
0100
0001
0100
0010
1000
0001
0010
0001
1000
0100
0010
0001
1000
0010
1000
,
0001
0100
0001
0010
0100
1000
0010
0100
0010
1000
0001
0100
0001
1000
0010
0100
0010
1000
0001
0100
0010
0100
0001
1000
,
0100
0010
0001
0100
0001
1000
0010
0100
0010
1000
0001
0010
0100
1000
0010
0100
0001
1000
0100
1000
0010
0100
0010
1000
,
0001
0100
0001
1000
0010
0100
0010
1000
0001
0010
0001
0100
0010
1000
0001
0010
0100
1000
0010
0100
0001
1000
0010
1000
,
0100
0010
0001
0100
0010
0100
0001
1000
0010
1000
0001
0100
0001
1000
0010
0100
0010
1000
0001
0010
0001
0100
0010
0100
,
0001
1000
0010
0100
0001
1000
0100
0010
0001
1000
0010
0100
0010
1000
0001
0010
0001
1000
0100
0010
0001
0100
0010
0100
,
0001
1000
0010
0100
0001
0100
0010
1000
0001
0010
0001
1000
0100
0010
0001
1000
0010
1000
0001
0100
0001
0010
0100
1000
,
0010
0100
0010
1000
0001
0100
0001
1000
0010
0100
0010
1000
0001
0100
0010
0100
0001
1000
0100
0010
0001
0100
0001
1000
,
0010
0100
0010
1000
0001
0010
0100
1000
0010
0100
0001
1000
0100
1000
0010
0100
0010
1000
0001
0100
0001
1000
0010
0100
,
0010
1000
0001
0010
0001
0100
0010
1000
0001
0010
0100
1000
0010
0100
0001
1000
0010
1000
0100
0010
0001
0100
0010
0100
,
0001
1000
0010
1000
0001
0100
0001
1000
0010
0100
0010
1000
0001
0010
0001
0100
0010
0100
0001
1000
0010
0100
0001
1000
,
0100
0010
0001
1000
0010
0100
0010
1000
0001
0010
0001
1000
0100
0010
0001
0100
0010
0100
0001
1000
0010
0100
0001
0100
,
0010
0000
1000
0000
0001
0000
0010
0000
0100
0000
1000
0000
0010
0000
0100
0000
0010
0000
1000
0000
0001
0000
1000
0000
0020
0000
0000
0000
0000
0000
0130
0000
0000
0000
0000
0000
0001
0000
0000
1000
0000
0000
0001
0000
0000
0000
0000
0000
,
0100
0010
1000
0001
0100
0001
0010
0100
1000
0001
0010
0001
0100
0010
1000
0001
0010
0100
1000
0010
0100
0001
1000
0010
,
1000
0100
0010
0001
0100
0010
0100
0001
1000
0010
1000
0001
0100
0001
1000
0010
0100
0010
1000
0001
0010
0001
0100
0010
,
0100
0001
1000
0010
0100
0001
1000
0100
0010
0001
1000
0010
0100
0010
1000
0001
0010
0001
1000
0100
0010
0001
0100
0010
,
0100
0001
1000
0010
0100
0001
0100
0010
1000
0001
0010
0001
1000
0100
0010
0001
1000
0010
1000
0001
0100
0001
0010
0100
,
1000
0010
0100
0010
1000
0001
0100
0001
1000
0010
0100
0010
1000
0001
0100
0010
0100
0001
1000
0100
0010
0001
0100
0001
,
1000
0010
0100
0010
1000
0001
0010
0100
1000
0010
0100
0001
1000
0100
1000
0010
0100
0010
1000
0001
0100
0001
1000
0010
,
0100
0010
1000
0001
0010
0001
0100
0010
1000
0001
0010
0100
1000
0010
0100
0001
1000
0010
1000
0100
0010
0001
0100
0010
,
0100
0001
1000
0010
1000
0001
0100
0001
1000
0010
0100
0010
1000
0001
0010
0001
0100
0010
0100
0001
1000
0010
0100
0001
,
1000
0100
0010
0001
1000
0010
0100
0010
1000
0001
0010
0001
1000
0100
0010
0001
0100
0010
0100
0001
1000
0010
0100
0001
,
0100
0010
1000
0001
0010
0001
1000
0100
0010
0001
1000
0010
1000
0001
0100
0001
0010
0100
1000
0010
0100
0010
1000
0001
,
0100
0001
1000
0010
0100
0010
1000
0001
0100
0010
0100
0001
1000
0100
0010
0001
0100
0001
1000
0010
0100
0010
1000
0001
,
0010
0100
1000
0010
0100
0001
1000
0100
1000
0010
0100
0010
1000
0001
0100
0001
1000
0010
0100
0010
1000
0001
0010
0001
,
0100
0000
0000
0000
0000
0000
0020
0000
0030
0000
0000
0000
2000
0000
3000
0000
0000
0000
0002
0000
0003
0000
0000
0000
0020
0000
0000
0000
0000
0000
0130
0000
0000
0000
2000
0000
3002
0000
0000
1003
0000
0000
0010
0000
0000
0000
0000
0000
,
0200
0300
0000
0002
0003
0000
2000
3000
0000
0010
0000
0000
2000
3000
0000
0001
0000
0020
0230
0000
0000
2300
0000
0000
,
3002
0000
0203
0000
0302
0003
2000
3000
0020
0000
0000
0000
0230
0000
0300
0000
,
0002
2003
3200
0010
0320
0030
0002
0003
,
1000
0010
0100
0001
0010
0100
1000
0001
0100
0001
0010
0100
1000
0010
0100
0010
,
1000
0001
0010
0001
0100
0010
1000
0001
0100
0001
1000
0010
0100
0010
1000
0001
,
0010
0001
0100
0010
1000
0001
0010
0100
1000
0001
0010
0001
0100
0010
0100
0001
,
1000
0010
1000
0001
0100
0010
0100
0001
1000
0100
1000
0010
0100
0001
1000
0100
,
0010
0000
0000
0001
0000
0000
0100
0000
0010
0000
1000
0000
0001
0000
0100
0000
0001
0000
1000
0000
0010
0000
0100
0000
0010
0000
1000
0000
0001
0000
0010
0000
0001
0000
0100
0000
0010
0000
1000
0000
0001
0000
0010
0000
0100
0000
1000
0000
,
0010
0100
0001
1000
0010
1000
0100
0010
0001
0100
0010
0100
0001
1000
0010
1000
0001
0100
0001
1000
0010
0100
0010
1000
,
0001
0010
0001
0100
0010
0100
0001
1000
0010
0100
0001
1000
0100
0010
0001
1000
0010
0100
0010
1000
0001
0010
0001
1000
,
0100
0010
0001
0100
0010
0100
0001
1000
0010
0100
0001
0100
0010
1000
0001
0010
0001
1000
0100
0010
0001
1000
0010
1000
,
0001
0100
0001
0010
0100
1000
0010
0100
0010
1000
0001
0100
0001
1000
0010
0100
0010
1000
0001
0100
0010
0100
0001
1000
,
0100
0010
0001
0100
0001
1000
0010
0100
0010
1000
0001
0010
0100
1000
0010
0100
0001
1000
0100
1000
0010
0100
0010
1000
,
0001
0100
0001
1000
0010
0100
0010
1000
0001
0010
0001
0100
0010
1000
0001
0010
0100
1000
0010
0100
0001
1000
0010
1000
,
0100
0010
0001
0100
0010
0100
0001
1000
0010
1000
0001
0100
0001
1000
0010
0100
0010
1000
0001
0010
0001
0100
0010
0100
,
0001
1000
0010
0100
0001
1000
0100
0010
0001
1000
0010
0100
0010
1000
0001
0010
0001
1000
0100
0010
0001
0100
0010
0100
,
0001
1000
0010
0100
0001
0100
0010
1000
0001
0010
0001
1000
0100
0010
0001
1000
0010
1000
0001
0100
0001
0010
0100
1000
,
0010
0100
0010
1000
0001
0100
0001
1000
0010
0100
0010
1000
0001
0100
0010
0100
0001
1000
0100
0010
0001
0100
0001
1000
,
0010
0100
0010
1000
0001
0010
0100
1000
0010
0100
0001
1000
0100
1000
0010
0100
0010
1000
0001
0100
0001
1000
0010
0100
,
0010
1000
0001
0010
0001
0100
0010
1000
0001
0010
0100
1000
0010
0100
0001
1000
0010
1000
0100
0010
0001
0100
0010
0100
,
0001
1000
0010
1000
0001
0100
0001
1000
0010
0100
0010
1000
0001
0010
0001
0100
0010
0100
0001
1000
0010
0100
0001
1000
,
0100
0010
0001
1000
0010
0100
0010
1000
0001
0010
0001
1000
0100
0010
0001
0100
0010
0100
0001
1000
0010
0100
0001
0100
,
0010
0000
1000
0000
0001
0000
0010
0000
0100
0000
1000
0000
0010
0000
0100
0000
0010
0000
1000
0000
0001
0000
1000
0000
0020
0000
0000
0000
0000
0000
0130
0000
0000
0000
0000
0000
0001
0000
0000
1000
0000
0000
0001
0000
0000
0000
0000
0000
,
0100
0010
1000
0001
0100
0001
0010
0100
1000
0001
0010
0001
0100
0010
1000
0001
0010
0100
1000
0010
0100
0001
1000
0010
,
1000
0100
0010
0001
0100
0010
0100
0001
1000
0010
1000
0001
0100
0001
1000
0010
0100
0010
1000
0001
0010
0001
0100
0010
,
0100
0001
1000
0010
0100
0001
1000
0100
0010
0001
1000
0010
0100
0010
1000
0001
0010
0001
1000
0100
0010
0001
0100
0010
,
0100
0001
1000
0010
0100
0001
0100
0010
1000
0001
0010
0001
1000
0100
0010
0001
1000
0010
1000
0001
0100
0001
0010
0100
,
1000
0010
0100
0010
1000
0001
0100
0001
1000
0010
0100
0010
1000
0001
0100
0010
0100
0001
1000
0100
0010
0001
0100
0001
,
1000
0010
0100
0010
1000
0001
0010
0100
1000
0010
0100
0001
1000
0100
1000
0010
0100
0010
1000
0001
0100
0001
1000
0010
,
0100
0010
1000
0001
0010
0001
0100
0010
1000
0001
0010
0100
1000
0010
0100
0001
1000
0010
1000
0100
0010
0001
0100
0010
,
0100
0001
1000
0010
1000
0001
0100
0001
1000
0010
0100
0010
1000
0001
0010
0001
0100
0010
0100
0001
1000
0010
0100
0001
,
1000
0100
0010
0001
1000
0010
0100
0010
1000
0001
0010
0001
1000
0100
0010
0001
0100
0010
0100
0001
1000
0010
0100
0001
,
0100
0010
1000
0001
0010
0001
1000
0100
0010
0001
1000
0010
1000
0001
0100
0001
0010
0100
1000
0010
0100
0010
1000
0001
,
0100
0001
1000
0010
0100
0010
1000
0001
0100
0010
0100
0001
1000
0100
0010
0001
0100
0001
1000
0010
0100
0010
1000
0001
,
0010
0100
1000
0010
0100
0001
1000
0100
1000
0010
0100
0010
1000
0001
0100
0001
1000
0010
0100
0010
1000
0001
0010
0001
,
0100
0000
0000
0000
0000
0000
0020
0000
0030
0000
0000
0000
2000
0000
3000
0000
0000
0000
0002
0000
0003
0000
0000
0000
0020
0000
0000
0000
0000
0000
0130
0000
0000
0000
2000
0000
3002
0000
0000
1003
0000
0000
0010
0000
0000
0000
0000
0000
,
0200
0300
0000
0002
0003
0000
2000
3000
0000
0010
0000
0000
2000
3000
0000
0001
0000
0020
0230
0000
0000
2300
0000
0000
,
3002
0000
0203
0000
0302
0003
2000
3000
0020
0000
0000
0000
0230
0000
0300
0000
,
0002
2003
3200
0010
0320
0030
0002
0003
,
0000
0000
0000
0000
;
