#TITLE:Sonic Forces Fist Bump;
#SUBTITLE:(Megadrive Remix);
#ARTIST:ToastedNoodlez;
#TITLETRANSLIT:;
#SUBTITLETRANSLIT:;
#ARTISTTRANSLIT:;
#CREDIT:Owem;
#BANNER:../banner.png;
#BACKGROUND:../bg.png;
#LYRICSPATH:;
#CDTITLE:../cdtitleowem.png;
#MUSIC:ToatedNoodlez - Sonic Forces Fist Bump (Megadrive Remix).ogg;
#OFFSET:-0.034;
#SAMPLESTART:89.614;
#SAMPLELENGTH:29.999;
#SELECTABLE:YES;
#BPMS:0.000=217.000,316.000=108.500,320.000=217.000,868.000=108.500,872.000=217.000;
#STOPS:;
#BGCHANGES:;
// cache tags:
#FIRSTBEAT:0.000;
#LASTBEAT:936.000;
#SONGFILENAME:Songs/Owem's Simfiles 08 (not release)/Sonic Forces Fist Bump (Megadrive Remix) - [Owem] v1.0.1/Sonic Forces Fist Bump  Megadrive Remix.sm;
#HASMUSIC:1;
#HASBANNER:1;
#MUSICLENGTH:263.157;
// end cache tags

//---------------dance-single - 8/7/7/6-18-8/7/7/6-2----------------
#NOTES:
     dance-single:
     8/7/7/6-18-8/7/7/6-2:
     Challenge:
     19:
     1.000,1.000,0.137,0.494,1.000,2997.000,36.000,130.000,1.000,4.000:
1000
0000
0100
0010
0001
0000
0100
0000
0000
0000
0010
0000
1000
0001
1000
0000
,
0000
0100
0010
0001
2000
3020
0230
0302
,
1003
0000
0010
0100
0010
0000
1000
0000
0000
0000
0001
0100
0001
0000
0010
0000
,
0000
0000
0100
0000
1000
0000
0001
0000
0100
0010
1000
0001
1000
0100
0010
0001
,
M100
0000
0010
1000
0010
0000
0100
0000
0000
0000
0001
0000
1000
0100
1000
0000
,
0000
0000
0010
0000
0100
0000
0001
0000
1000
0100
0010
0001
1000
0010
1000
0001
,
0100
0010
0100
0010
0100
0001
1000
0010
1000
0100
0010
0001
1000
0100
1000
0010
,
0100
0010
1000
0001
0010
0001
0100
0010
1000
0010
0100
0001
1000
0010
1000
0001
,
1000
0100
0010
0001
1000
0100
1000
0001
0100
0010
1000
0010
0100
0001
0010
0001
,
1000
0100
1000
0010
0100
0001
1000
0001
0010
0100
0010
0001
1000
0010
1000
0001
,
0100
0010
1000
0010
0100
0001
0100
0010
1000
0001
0010
0001
0100
0010
1000
0001
,
0010
0001
1000
0100
0010
0001
0100
0001
1000
0010
1000
0001
0100
0010
0100
0001
,
1000
0100
1000
0001
0010
0100
0010
0001
1000
0100
1000
0001
0100
0010
1000
0010
,
0100
0010
1000
0001
0100
0001
0010
0100
1000
0100
0010
0001
0100
0001
0100
0010
,
1000
0001
0200
0310
2000
3010
0200
0310
,
2000
3001
0020
0230
1300
0001
1000
0010
,
0100
0010
2000
3100
2000
3001
0020
0130
,
0020
0031
2000
3200
1300
0002
1003
0010
,
0100
0010
2000
3001
0200
0301
0020
0130
,
2000
3100
0020
0032
1003
0100
1000
0010
,
0200
0001
0001
0001
,
0301
0000
1000
0000
0010
0000
1000
0000
0100
0010
0001
1000
0001
0000
0100
0010
,
1000
0001
0200
0310
0200
0301
2000
3100
,
0020
0000
0031
0000
2000
0000
3020
0130
0010
0000
1000
0000
0100
0000
1000
0000
,
0001
0040
0430
0310
0001
2000
3001
0400
,
0340
0000
1030
0000
0001
0000
0010
0100
2000
0000
3002
0000
0100
0000
0000
0000
,
0103
0010
2000
3001
2000
3100
0020
0032
,
1003
0000
0200
0000
2300
0000
3020
0130
0001
0000
1000
0000
0001
0000
0000
0000
,
1000
0102
0213
1320
,
1030
0000
0001
0000
1000
0100
0010
0000
0001
0000
0100
0010
0100
0000
0001
1000
,
0001
0010
0100
1000
0100
0010
0001
1000
0100
1000
0010
0100
0001
0100
0010
1000
,
0001
1000
0100
0010
0001
1000
0100
1000
0010
0100
0001
1000
0001
0010
0001
0100
,
0010
1000
0001
1000
0100
0010
0001
1000
0100
1000
0010
0100
0001
0100
0010
1000
,
0001
1000
0100
0010
0001
0010
0100
1000
0010
0100
0010
1000
0001
0100
0010
0100
,
0001
1000
0010
1000
0001
0100
0010
1000
0100
1000
0001
1000
0100
0010
0001
1000
,
0100
1000
0010
0100
0001
0100
0010
1000
0001
1000
0100
0010
0001
1000
0100
1000
,
0010
0100
0010
1000
0001
0100
0001
0010
0100
1000
0010
1000
0001
0010
0001
0100
,
0010
1000
0001
1000
0100
0010
0001
1000
0020
1000
0000
0000
0000
0000
0000
0000
,
2030
0000
3002
0203
0310
2000
3010
0200
,
0000
0301
1000
0000
0200
0000
0010
0000
,
0310
0001
1000
0002
0103
0020
0030
2000
,
0000
0001
0001
0000
3002
0000
0100
0000
,
0203
0000
0320
2030
3001
2000
3100
0020
,
0032
1000
2003
0010
,
3010
0110
0101
0001
1001
1010
0000
0110
,
0000
0000
0010
0000
1000
0001
1000
0100
0010
0000
0001
1000
0001
0100
0010
0100
,
0001
0000
0000
0000
2000
0000
3000
0000
0020
0030
0020
0000
0030
0000
1000
0100
,
1000
0001
0100
0010
0100
0001
1000
0100
0010
0001
0010
0100
1000
0001
0010
0001
,
0100
0010
1000
0010
0100
0010
1000
0001
0100
0001
0010
0100
1000
0010
1000
0001
,
0100
0010
0100
0001
1000
0100
1000
0001
0010
0100
0010
0001
1000
0100
1000
0010
,
0100
0001
1000
0001
0100
0010
0100
0001
1000
0010
1000
0100
0010
0001
0010
0100
,
1000
0001
0010
0001
0100
0010
0100
0001
1000
0010
1000
0100
0010
0001
1000
0001
,
0100
0010
0100
0001
1000
0100
1000
0001
0010
0100
0010
0001
1000
0100
1000
0010
,
0100
0001
0100
0010
1000
0100
1000
0001
0010
0100
1000
0001
0100
0000
0010
0000
,
0100
0000
0001
0000
1000
0000
0100
0000
0010
0001
1000
0000
0010
0000
1000
0001
,
0100
0010
0100
0001
1000
0100
0010
0100
1000
0001
0010
0001
1000
0001
0100
0010
,
1000
0100
1000
0001
0010
0100
1000
0001
1000
0100
0010
0001
1000
0100
1000
0001
,
0100
0001
0010
0100
1000
0010
1000
0001
0100
0010
0100
0001
1000
0100
1000
0010
,
0100
0001
0100
0010
1000
0001
1000
0100
0010
0001
1000
0100
1000
0010
0100
0010
,
1000
0001
0010
0100
0010
0001
1000
0100
1000
0010
0100
0001
1000
0001
0100
0010
,
1000
0100
1000
0001
0010
0100
1000
0100
0010
0001
1000
0010
1000
0000
0000
0000
,
0001
0010
0100
1000
0001
1000
0010
0100
0010
1000
0001
1000
0100
0010
0001
1000
,
0100
1000
0010
0100
0001
0100
0010
1000
0001
1000
0100
0010
0001
0010
0100
1000
,
0001
0100
0010
0100
0001
1000
0100
1000
0010
0100
0001
1000
0001
0100
0010
0100
,
0001
1000
0100
0010
0100
1000
0001
0010
0100
1000
0001
1000
0010
0100
0010
1000
,
0001
1000
0100
0010
0001
1000
0100
1000
0010
0100
0001
0100
0010
1000
0001
1000
,
0100
0010
0100
1000
0001
0010
0001
0100
0001
1000
0001
0100
0010
0100
0010
1000
,
0001
1000
0100
0010
0001
0010
0100
1000
0001
0010
0001
1000
0100
0010
0100
1000
,
0001
0100
0001
1000
0010
1000
0100
0010
0001
1000
0100
1000
0001
0010
0001
0100
,
0010
1000
0010
0100
0010
1000
0001
1000
0100
0010
0100
1000
0001
0010
0001
0100
,
0010
1000
0001
1000
0100
0010
0001
1000
0100
1000
0010
0100
0010
1000
0001
0100
,
0001
1000
0010
0100
0010
1000
0001
0010
0100
0010
0001
1000
0100
1000
0010
0100
,
0001
1000
0100
0010
0001
1000
0100
1000
0001
0100
0010
1000
0010
0100
0010
1000
,
0001
0100
0001
0010
0100
1000
0001
0010
0001
0100
0010
0100
0001
1000
0100
0010
,
0001
1000
0100
1000
0010
0100
0010
1000
0001
0010
0100
0010
0001
1000
0100
1000
,
0010
0100
0010
1000
0001
1000
0100
0010
0001
1000
0100
1000
0010
0100
0010
1000
,
0001
1000
0100
1000
0001
0010
0001
1000
0001
0100
0010
0100
0001
1000
0100
0010
,
0001
0010
0100
1000
0001
1000
0100
0010
0001
1000
0100
1000
0010
0100
0010
1000
,
0001
0100
0001
1000
0010
0100
0010
1000
0001
1000
0100
0010
0001
1000
0010
0100
,
0020
0000
1030
0010
0000
0100
0000
0001
0000
1000
0010
0100
0001
1000
0100
0010
,
0001
1000
0001
1000
0010
0100
0001
1000
0100
1000
0010
0100
0001
1000
0001
0010
,
0100
1000
0100
0010
0001
1000
0100
1000
0010
0100
0001
1000
0001
0100
0010
0100
,
0001
1000
0100
0010
0001
1000
0100
1000
0001
0010
0001
1000
0100
0010
0100
1000
,
0001
1000
0010
0100
0010
1000
0010
0100
0001
1000
0001
0010
0100
0010
0001
1000
,
0100
1000
0010
0100
0001
1000
0001
0010
0100
1000
0100
0010
0001
1000
0100
1000
,
0001
0100
0001
1000
0010
0100
0010
1000
0001
1000
0100
0010
0001
1000
0100
1000
,
0010
1000
0001
0100
0001
0010
0100
1000
0100
0010
0001
1000
0100
1000
0001
0100
,
0001
1000
0010
0100
0001
1000
0100
0010
0100
1000
0001
0010
0001
1000
0010
0100
,
0001
0000
1000
0020
0130
0001
2000
0000
,
3100
0010
0001
1000
0000
0010
0200
0000
,
0301
1000
0001
0020
0130
1000
0200
0000
,
0310
0001
1000
0001
0020
0230
2300
3002
,
0103
0000
0000
0010
0000
0000
0100
0000
0000
0002
0000
0000
1003
0000
0000
0100
0000
0000
2000
0000
0000
3001
0100
0001
,
0100
0010
0100
0001
0000
1000
0100
0010
,
0001
0100
0010
0100
0001
1000
0100
0010
,
0001
0000
1000
0000
0001
0000
0100
0000
0010
1000
0010
0100
0001
0000
1000
0100
,
0020
0000
0031
2000
3001
0010
0200
0000
,
1300
0000
0000
0000
0001
0000
0100
0010
1000
0000
0010
0000
0200
0000
0000
0000
,
0302
0000
1003
0100
0000
0010
0002
0000
,
1003
0000
0000
0000
0010
0000
0100
0001
0100
0000
0010
0000
1000
0000
0001
0000
,
2000
0000
3100
0020
0030
0002
0103
0020
,
1000
0000
0000
0000
1030
0000
0001
1000
0001
0000
0010
0000
0100
0000
1000
0000
,
0010
2010
3120
0231
,
0301
0000
1000
0000
0100
0010
0001
0000
1000
0000
0001
0100
0010
0000
1000
0010
,
0100
0001
0100
0001
1000
0100
1000
0010
0100
0010
1000
0001
0010
0100
0010
0001
,
1000
0100
1000
0001
0100
0001
1000
0010
0100
0001
0100
0010
1000
0001
1000
0100
,
0010
0001
1000
0100
1000
0001
0010
0001
0100
0010
1000
0010
0100
0010
1000
0001
,
0100
0001
0010
0100
1000
0001
0010
0001
0100
0010
0100
0001
1000
0100
0010
0100
,
1000
0001
0010
0001
0100
0010
0100
0001
1000
0010
1000
0100
0010
0001
1000
0100
,
1000
0001
0100
0001
1000
0010
0100
0010
1000
0001
0010
0100
0010
0001
1000
0100
,
1000
0001
0100
0010
0100
0001
1000
0100
0010
0001
0010
0100
1000
0001
1000
0010
,
0100
0010
1000
0001
0100
0001
0010
0100
1000
0002
0000
0000
0000
0000
0000
0000
,
2003
0000
3002
0203
0310
2000
3010
0200
,
0000
0301
1000
0000
0200
0000
0010
0000
,
0310
0001
1000
0002
0103
0020
0030
2000
,
0000
0001
0001
0000
3002
0000
0100
0000
,
0203
0000
0320
2030
3001
2000
3100
0020
,
0032
1000
2003
0010
,
3010
0110
0101
0001
1001
1010
0000
0110
,
0000
0000
0010
0000
1000
0001
1000
0000
0010
0000
1000
0000
0001
0100
0010
1000
,
0001
0000
0000
0000
2000
0000
3000
0000
0020
0030
0020
0000
0030
0000
1000
0100
,
1000
0001
1000
0100
0010
0001
1000
0010
1000
0001
0100
0010
0100
0001
1000
0001
,
0100
0010
1000
0001
0010
0100
1000
0001
0100
0001
0010
0100
1000
0010
1000
0001
,
0100
0010
0100
0001
1000
0100
1000
0001
0010
0100
0010
0001
1000
0100
1000
0010
,
0100
0001
1000
0001
0100
0010
0100
0001
1000
0010
1000
0100
0010
0001
0010
0100
,
1000
0001
0010
0001
0100
0010
0100
0001
1000
0010
1000
0100
0010
0001
1000
0001
,
0100
0010
0100
0001
1000
0100
1000
0001
0010
0100
0010
0001
1000
0100
1000
0010
,
0100
0001
0100
0010
1000
0100
1000
0001
0010
0100
1000
0001
0100
0000
0010
0000
,
0100
0000
0001
0000
1000
0000
0100
0000
0010
0001
1000
0000
0010
0000
1000
0001
,
0100
0010
0100
0001
1000
0100
0010
0100
1000
0001
0010
0001
1000
0001
0100
0010
,
1000
0100
1000
0001
0010
0100
1000
0001
1000
0100
0010
0001
1000
0100
1000
0001
,
0100
0001
0010
0100
1000
0010
1000
0001
0100
0010
0100
0001
1000
0100
1000
0010
,
0100
0001
0100
0010
1000
0001
1000
0100
0010
0001
1000
0100
1000
0010
0100
0010
,
1000
0001
0010
0100
0010
0001
1000
0100
1000
0010
0100
0001
1000
0001
0100
0010
,
1000
0100
1000
0001
0010
0100
1000
0100
0010
0001
1000
0010
1000
0000
0000
0000
,
0001
0010
0100
1000
0001
1000
0010
0100
0010
1000
0001
1000
0100
0010
0001
1000
,
0100
1000
0010
0100
0001
0100
0010
1000
0001
1000
0100
0010
0001
0100
0010
1000
,
0020
0000
0130
0001
1001
1000
0010
0100
,
0010
1000
0001
0010
0110
0100
1000
0001
,
1000
0010
0100
0010
1010
1000
0001
0010
,
0001
0100
0010
1000
1001
0001
0010
0100
,
1000
0010
1000
0001
0101
0100
0010
1000
,
0100
1000
0001
0010
0110
0100
1000
0001
,
1000
0100
0010
0001
0101
0100
0010
1000
,
0010
0110
0100
0001
1001
2000
3200
0320
,
0031
0100
0010
1000
1010
0010
0100
0001
,
0010
0001
1000
0100
0110
0010
0001
1000
,
0001
0100
0010
1000
1010
0010
0100
0001
,
1000
0100
0010
0100
1100
1000
0001
0010
,
0001
0100
0010
1000
1100
0100
0010
0001
,
1000
0001
0100
0010
0110
0100
0001
1000
,
0100
0010
0001
1000
0001
0100
0010
0100
,
0001
0000
1000
0000
0100
0000
1000
0000
0010
0100
0001
0000
1000
0000
0100
0010
,
0001
1000
0100
1000
0010
0100
0010
1000
0001
0010
0100
0010
0001
1000
0100
1000
,
0010
0100
0001
0100
0010
1000
0001
1000
0100
0010
0001
1000
0100
1000
0001
0010
,
0100
1000
0001
1000
0010
0100
0010
1000
0001
0100
0010
0100
0001
1000
0100
0010
,
0100
1000
0001
0010
0001
0100
0010
1000
0010
0100
0010
1000
0001
0010
0100
0010
,
0001
1000
0100
1000
0001
1000
0010
0100
0010
1000
0001
1000
0100
0010
0001
1000
,
0100
1000
0010
0100
0010
1000
0001
0100
0001
0010
0100
1000
0100
0010
0001
1000
,
0100
1000
0001
0010
0001
0100
0010
1000
0010
0100
0010
1000
0001
0100
0001
1000
,
0100
0010
0001
1000
0100
1000
0010
0100
0010
1000
0001
0010
0100
0010
0001
1000
,
0100
1000
0010
0100
0001
0100
0010
1000
0001
1000
0100
0010
0001
1000
0100
1000
,
0010
0100
0010
1000
0001
0100
0010
0100
0001
1000
0100
0010
0001
0010
0100
1000
,
0001
0010
0001
0100
0001
1000
0010
0100
0010
1000
0001
0100
0001
0010
0100
1000
,
0001
0010
0001
0100
0010
1000
0010
0100
0010
1000
0001
0100
0001
1000
0100
0010
,
0001
1000
0100
1000
0010
0100
0010
1000
0001
0010
0100
0010
0001
1000
0100
1000
,
0001
1000
0010
0100
0010
1000
0001
0100
0001
1000
0100
1000
0010
0100
0001
0100
,
0010
1000
0010
0100
0001
1000
0100
0010
0001
1000
0001
0100
0010
0000
1000
0000
,
0001
0010
0100
1000
0001
1000
0010
0100
0010
1000
0001
0100
0010
0000
0200
0000
,
0000
0301
1000
0010
0200
0300
0002
0003
,
2000
0000
3100
0020
0000
0031
1000
1020
,
0000
0130
0001
1000
0002
0003
0020
0030
,
0200
0300
1000
0020
0000
0130
0001
2001
,
0000
3010
0020
0030
0200
0300
0002
0003
,
1000
0000
0100
0000
0010
0000
0002
0000
0003
0000
1000
0000
0010
0000
0100
0001
,
1000
0100
1000
0010
0100
0010
1000
0001
0010
0100
0010
0001
1000
0100
1000
0001
,
0010
0001
1000
0001
0100
0010
1000
0010
0100
0010
0100
0001
1000
0100
0010
0001
,
1000
0100
1000
0001
0010
0001
0100
0010
1000
0010
0100
0001
1000
0100
0010
0100
,
1000
0001
0010
0001
0100
0001
1000
0010
0100
0010
1000
0100
0010
0001
0010
0100
,
1000
0001
1000
0100
0010
0001
1000
0100
1000
0001
0100
0001
1000
0010
0100
0010
,
1000
0001
0010
0001
0100
0010
1000
0010
0100
0001
1000
0100
0010
0001
1000
0100
,
1000
0010
0100
0001
1000
0001
1000
0010
0100
0010
1000
0001
1000
0100
0010
0001
,
1000
0100
1000
0010
0100
0001
0100
0010
1000
0001
1000
0100
0010
0001
0010
0100
,
1000
0001
0100
0010
0100
0001
1000
0100
1000
0010
0100
0001
1000
0001
0100
0010
,
0100
0001
1000
0100
0010
0100
1000
0001
0010
0100
1000
0001
1000
0010
0100
0010
,
1000
0001
1000
0100
0010
0001
1000
0100
1000
0010
0100
0001
0100
0010
1000
0001
,
1000
0100
0010
0100
1000
0001
0010
0001
0100
0001
1000
0001
0100
0010
0100
0010
,
1000
0001
1000
0100
0010
0001
0010
0100
1000
0001
0010
0001
1000
0100
0010
0100
,
1000
0001
0100
0001
1000
0010
1000
0100
0010
0001
1000
0100
1000
0001
0010
0001
,
0100
0010
1000
0010
0100
0010
1000
0001
1000
0100
0010
0100
1000
0001
0010
0001
,
0100
0010
1000
0001
1000
0100
0010
0001
1000
0100
1000
0010
0100
0010
1000
0001
,
0100
0001
1000
0010
0100
0010
1000
0001
0010
0100
0010
0001
1000
0100
1000
0010
,
0100
0001
1000
0100
0010
0001
1000
0100
1000
0001
0100
0010
1000
0010
0100
0010
,
1000
0001
0100
0001
0010
0100
1000
0001
0010
0001
0100
0010
0100
0001
1000
0100
,
0010
0001
1000
0100
1000
0010
0100
0010
1000
0001
0010
0100
0010
0001
1000
0100
,
1000
0010
0100
0010
1000
0001
1000
0100
0010
0001
1000
0100
1000
0010
0100
0010
,
1000
0001
1000
0100
1000
0001
0010
0001
1000
0001
0100
0010
0100
0001
1000
0100
,
0010
0001
0010
0100
1000
0001
1000
0100
0010
0001
1000
0100
1000
0010
0100
0010
,
1000
0001
1000
0010
0100
0010
1000
0001
1000
0100
0010
0001
1000
0100
1000
0010
,
0100
0001
0100
0010
1000
0001
1000
0100
0010
0001
0010
0100
1000
0001
0100
0010
,
0100
0001
1000
0100
1000
0010
0100
0001
1000
0001
0100
0010
0100
0001
1000
0100
,
0010
0100
1000
0001
0010
0100
1000
0001
1000
0010
0100
0010
1000
0001
1000
0100
,
0010
0001
1000
0100
1000
0010
0100
0001
0100
0010
1000
0001
1000
0100
0010
0100
,
1000
0001
0010
0001
0100
0001
1000
0001
0100
0010
0100
0010
1000
0001
1000
0100
,
0010
0001
0010
0100
1000
0001
0010
0001
1000
0100
0010
0100
1000
0001
0100
0001
,
1000
0010
1000
0100
0010
0001
1000
0100
1000
0001
0010
0001
0100
0010
1000
0010
,
0100
0010
1000
0001
1000
0100
0010
0100
1000
0001
0010
0001
0100
0010
1000
0001
,
1000
0100
0010
0001
1000
0100
1000
0010
0100
0010
1000
0001
0100
0001
1000
0010
,
0100
0010
1000
0001
0010
0100
0010
0001
1000
0100
1000
0010
0100
0001
1000
0100
,
0010
0001
1000
0100
1000
0001
0100
0010
1000
0010
0100
0010
1000
0001
0100
0001
,
0010
0100
1000
0001
0010
0001
0100
0010
0100
0001
1000
0100
0010
0001
1000
0100
,
1000
0010
0100
0010
1000
0001
0010
0100
0010
0001
1000
0100
1000
0010
0100
0010
,
1000
0001
1000
0100
0010
0001
1000
0100
1000
0010
0100
0010
1000
0001
1000
0100
,
1000
0001
0010
0001
1000
0001
0100
0010
0100
0001
1000
0100
0010
0001
0010
0100
,
1000
0001
1000
0100
0010
0001
1000
0100
1000
0010
0100
0010
1000
0001
0100
0001
,
1000
0010
0100
0010
1000
0001
1000
0100
0010
0001
1000
0100
1000
0001
0010
0100
,
0010
0001
1000
0100
0010
0100
1000
0001
1000
0010
0100
0001
1000
0001
0010
0100
,
1000
0010
1000
0001
0000
0010
0000
0100
0000
1000
0001
1000
0100
0010
0001
0100
,
0010
1000
0010
1000
0001
0100
0010
0100
0001
1000
0100
0010
0100
1000
0001
0100
,
0001
0010
0100
1000
0001
1000
0010
0100
0010
1000
0100
1000
0001
1000
0100
0010
,
0001
0010
0100
1000
0001
1000
0010
0100
0010
1000
0100
1000
0001
0010
0001
0100
,
0010
1000
0001
0100
0001
1000
0010
0100
0010
1000
0001
0100
0001
1000
0010
1000
,
0100
0010
0001
1000
0100
1000
0010
0100
0010
1000
0001
0010
0100
0010
0001
1000
,
0100
1000
0010
0100
0001
0100
0010
0100
0001
1000
0100
1000
0001
0010
0100
0010
,
0001
1000
0100
1000
0010
0100
0010
1000
0001
0010
0100
0010
0001
1000
0100
1000
,
0001
0100
0010
0100
0001
1000
0010
1000
0100
0010
0001
1000
0100
1000
0010
0100
,
0010
1000
0001
0100
0001
0010
0100
1000
0100
0010
0001
1000
0100
1000
0001
0010
,
0001
0100
0010
0100
0001
1000
0010
1000
0001
1000
0100
0010
0001
0010
0100
1000
,
0001
0010
0001
0100
0010
0100
0001
1000
0010
1000
0100
0010
0001
1000
0100
1000
,
0010
0100
0001
0100
0010
1000
0001
1000
0100
0010
0001
1000
0100
1000
0001
0010
,
0100
0010
0001
1000
0100
1000
0010
0100
0010
1000
0001
0010
0001
0100
0010
1000
,
0010
0100
0010
1000
0001
0100
0001
1000
0100
0010
0001
1000
0001
0100
0010
1000
,
0000
1002
0000
0000
,
0000
0000
0000
0000
0000
0000
0000
0000
0000
0000
0000
0000
0000
0000
1003
0001
,
1000
0000
0000
0000
;
