#TITLE:Max 300;
#SUBTITLE:Super Max Me Mix;
#ARTIST:Jondi & Spesh;
#TITLETRANSLIT:;
#SUBTITLETRANSLIT:;
#ARTISTTRANSLIT:;
#CREDIT:;
#BANNER:MAX 300 SMMM-bn.png;
#BACKGROUND:MAX 300 SMMM-bg.png;
#LYRICSPATH:;
#CDTITLE:;
#MUSIC:MAX 300(super-max-me_mix).mp3;
#OFFSET:-0.240;
#SAMPLESTART:56.100;
#SAMPLELENGTH:12.000;
#SELECTABLE:YES;
#BPMS:0.000=300.000,128.000=320.000,256.000=140.000,272.000=300.000,400.000=320.000;
#STOPS:;
#BGCHANGES:;
// cache tags:
#FIRSTBEAT:16.000;
#LASTBEAT:523.000;
#SONGFILENAME:Songs/maxxx/Max 300 (Super Max Me Mix S-10)/MAX 300 SM-MM.sm;
#HASMUSIC:1;
#HASBANNER:1;
#MUSICLENGTH:108.076;
// end cache tags

//---------------dance-double - ----------------
#NOTES:
     dance-double:
     :
     Hard:
     10:
     0.878,1.000,0.379,0.407,0.019,579.000,41.000,44.000,0.000,1.000:






00000000
00000000
00000000
00000000
,
00000000
00000000
00000000
00000000
,
00000000
00000000
00000000
00000000
,
00000000
00000000
00000000
00000000
,
00000000
00000000
00000000
00000000
,
00000000
00000000
00000000
00000000
,
00000000
00000000
00000000
00000000
,
00000000
00000000
00000000
00000000
,
00010000
01000000
00100000
01000000
,
00010000
00100000
00001000
00010000
,
00001000
00000000
00100000
00000000
00000100
00000000
00010000
00001000
,
00000100
00000010
00000100
00000000
00001001
00000000
00000000
00000000
,
00001000
00000010
00000100
00000010
,
00001000
00000100
00010000
00000100
,
00010000
00000000
00001000
00000000
00100000
00000000
00001000
00010000
,
00100000
01000000
00100000
00000000
10010000
00000000
00000000
00000000
,
00000000
00000000
10000000
00000000
00000000
00200000
00000000
00000000
,
00310000
00000000
00000000
00002000
00000000
00000000
00013000
00000000
,
00000000
00000000
00100000
00000000
00000000
00002000
00000000
00000000
,
10003000
00000000
00000000
00200000
00000000
00000000
00300100
00000000
,
00000000
00000000
00001000
00000000
00000000
00000020
00000000
00000000
,
00001030
00000000
00000000
00020000
00000000
00000000
00030001
00000000
,
00000000
00000000
00100000
00000000
00000000
20000000
00000000
00000000
,
31000000
00000000
00000000
00020000
00000000
00000000
10030000
00000000
,
00000000
00000000
10000000
00000000
00000000
00100000
00000000
00000000
,
00100000
00010000
00000000
00001000
00000100
00000000
00010100
00000000
,
00000000
00000000
00000001
00000000
00000000
00000100
00000000
00000000
,
00000100
00001000
00000000
00010000
00100000
00000000
00101000
00000000
,
00000000
00000000
10000000
01000000
00000000
00010000
00100000
00000000
,
10100000
00000000
00000000
00110000
00000000
00000000
10010000
00000000
,
00000000
00000000
00000001
00000010
00000000
00001000
00000100
00000000
,
00000101
00000000
00000000
00001100
00000000
00000000
00011000
00000000
,
00001000
00100000
00010000
00100000
,
00001000
00100000
00010000
01000000
00001000
00000000
00000000
00000000
,
00010000
00000100
00001000
00000100
,
00010000
00000100
00001000
00000010
00010000
00000000
00000000
00000000
,
00001000
00010000
00000100
00010000
,
00001000
00100000
00010000
01000000
00001000
00100000
00010000
00000000
,
00001000
00000000
00100000
01000000
00001000
01000000
00100000
00000000
,
00000100
00010000
00001000
00000010
00010000
00000000
00000000
00000000
,
00001000
00010000
00001000
00000000
00100000
01000000
00100000
00000000
,
00010000
00001000
00010000
00000000
00000100
00000010
00000100
00000000
,
00000100
00010000
00000100
00000000
00001000
00100000
00001000
00000000
,
00010000
00001000
00100010
00000000
,
00010000
00001000
00010000
00000000
00000100
00000010
00000100
00000000
,
00001000
00010000
00001000
00000000
00100000
01000000
00100000
00000000
,
00010000
00001000
00010000
00000000
00100000
00001000
00100000
00000000
,
00001000
00010000
01000100
00000000
,
00100000
00000000
00100000
00000000
00001000
00010000
00000000
00010000
,
00000100
00000000
00001000
00000001
00000000
00000010
00001000
00000000
,
00000100
00000000
00000100
00000000
00010000
00001000
00000000
00001000
,
00100000
00000000
00010000
10000000
00000000
01000000
00010000
00000000
,
00000100
00000000
00010000
00000000
00001000
00100000
00000000
00010000
,
00000100
00100000
00001000
00100000
00010000
00000000
00100000
00000000
,
00001000
00000000
00010000
00000100
00000000
00001000
00100000
00000100
,
00010000
00000100
00001000
00000100
00000000
10000000
00100000
00000000
,
01100000
00010000
00101000
00010000
,
00010100
00000100
00000101
00000110
,
00001000
00010100
00001000
00101000
,
00100000
01100000
00101000
00000000
,
00100000
00010000
00000100
00000000
00100000
00001000
00000100
00000000
,
00000100
00001000
00100000
00000000
00010100
00000000
00010000
00000000
,
01001000
00000000
00010000
00000000
00100000
00000000
00100000
00001000
,
00010000
00001000
00000010
00000001
00000100
00000000
00011000
00000000
,
00000000
00000000
00000000
00000000
00000002
00000000
00002003
00000000
00203000
00000000
00300000
02000000
00000000
03000000
00000020
00000000
,
00000030
00000000
00000000
00000000
20000000
00000000
30020000
00000000
00030200
00000000
00000300
00000020
00000000
00000030
02000000
00000000
,
03000000
00000000
00000000
00000000
00002000
00000000
02003000
00000000
23000000
00000000
30000000
00000200
00000000
00000300
00000002
00000000
,
00000003
00000000
00000000
00000000
00020000
00000000
00030020
00000000
00000032
00000000
00000003
00200000
00000000
00300000
20000000
00000000
,
30001000
00000000
00010000
00000000
00000100
00100000
00000000
00100000
,
00001000
00000000
00000010
00000000
00001000
00000100
00000000
00000010
,
00001000
00000000
00000001
00000000
00000100
00001000
00000000
01000000
,
00010000
00100000
00101000
00000000
,
00010000
00000000
00001000
00000000
00100000
00000100
00000000
00000100
,
00010000
00000000
01000000
00000000
00010000
00100000
00000000
01000000
,
00010000
00000000
10000000
00000000
00100000
00010000
00000000
00000010
,
00001000
00000100
00010100
00000000
,
00001000
00000010
00010000
00100000
,
00000100
00010000
01000000
00010000
,
10000000
00100000
00010000
00000100
,
00010000
00000100
00010000
00000100
00020000
00000000
00030000
00000000
,
00010000
01000000
00001000
00000100
,
00100000
00001000
00000010
00001000
,
00000001
00000100
00001000
00100000
,
00001000
00100000
00001000
00100000
00002000
00000000
00003000
00000000
,
00010000
00001000
00000000
00100000
00001000
00000000
00000001
00001000
,
00000000
00000100
00010000
00000000
00000010
00000000
00010100
00000000
,
00001000
00010000
00000000
00000100
00010000
00000000
10000000
00010000
,
00000000
00100000
00001000
00000000
01000000
00000000
00101000
00000000
,
00000100
00020000
00000000
00130000
02000000
00000000
03100000
20000000
,
00000000
31000000
00200000
00000000
10000000
00000000
01310000
00000000
,
00000100
00000002
00000000
00000103
00000020
00000000
00000130
00002000
,
00000000
00003010
00000200
00000000
00001000
00000000
00000310
00000000
,
00100000
10000000
00000000
01000000
00001000
00000000
00100000
00001000
,
00000000
00000100
00000001
00000000
00000000
00000000
00110000
00000000
,
00000100
00000000
00000010
00001000
00010000
00000000
00000100
00010000
,
00000000
00100000
01000000
00000000
00000000
00000000
10010000
00000000
,
00001000
00010000
00000000
00010000
00000100
00000000
00001000
00000010
,
00000000
00001000
00000001
00000000
00000000
00000000
00011000
00000000
,
00000200
00000000
00000300
00020000
00000000
00030000
00002000
00000000
,
00003000
00200000
00000000
00300000
00011000
00000000
00000000
00000000
,
00100000
00001000
00010000
00000000
00000100
00010000
00001000
00000000
,
00010000
00001000
00101000
00000000
,
00000100
00010000
00001000
00000000
00100000
00001000
00010000
00000000
,
00001000
00010000
00010100
00000000
,
10000000
01000000
00100000
00010000
,
00001000
00000100
00000010
00000001
,
00000100
00000000
00001000
00000000
00010000
00000100
00001000
00100000
,
00001000
00010000
00000100
00000000
00110000
00000000
00000000
00000000
,
00010000
01000000
00100000
00000000
00100000
00000000
00100000
00000000
,
01000000
00001000
00010000
00000000
00001000
00000000
00001000
00000000
,
00000010
00000001
00000100
00000000
00000100
00000000
00010000
00100000
,
01000000
10000000
01000000
00100000
10010000
00000000
00000000
00000000
,
00001000
00000010
00000100
00000000
00000100
00000000
00000100
00000000
,
00000010
00010000
00001000
00000000
00010000
00000000
00010000
00000000
,
01000000
10000000
00100000
00000000
00100000
00000000
00001000
00000100
,
00000010
00000001
00000010
00000100
00001001
00000000
00000000
00000000
,
00000100
00010000
00000100
00001000
00000100
00000010
00000100
00001000
,
00010000
00000100
00010000
00001000
00000100
00000000
00000000
00000000
,
00100000
00001000
00100000
00010000
00100000
01000000
00100000
00010000
,
00001000
00100000
00001000
00010000
00100000
00000000
00000000
00000000
,
01000000
00100000
10000000
01000000
10000000
00100000
01000000
00000000
,
00010000
00001000
00100000
00010000
00001000
00010000
00100000
00001000
,
00000100
00000000
00000010
00000001
00001000
00000000
00010000
00000000
,
01000000
10000000
10010000
00000000
,
00010000
10000000
00100000
10000000
00010000
10000000
00100000
01000000
,
00010000
01000000
10000000
01000000
00010000
01000000
00010000
00000000
,
00001000
00000100
00000001
00001000
00000100
00001000
00000100
00000010
,
00000001
00000010
00000001
00001000
00000010
00000100
00000001
00000000
,
00001000
00000000
00010000
01000000
00100000
10000000
00010000
00100000
,
00001000
00100000
00000100
00010000
00100000
00001000
00100000
00000000
,
00011000
00000000
00000000
00022000
00000000
00000000
00033000
00000000
;

//---------------dance-single - S-10 Oni----------------
#NOTES:
     dance-single:
     S-10 Oni:
     Challenge:
     10:
     0.826,1.000,0.120,0.009,0.037,611.000,13.000,1.000,0.000,0.000:

0000
0000
0000
0000
,
0000
0000
0000
0000
,
0000
0000
0000
0000
,
0000
0000
0000
0000
,
0100
0000
0001
0000
1000
0001
0000
1000
,
0001
0000
0100
0000
0010
1000
0000
0010
,
1000
0000
0100
0000
1000
0100
0000
0010
,
0001
0100
0001
0000
,
0001
0000
0000
0100
0000
0000
0100
0000
,
0000
0001
0000
0000
0001
0000
1000
0000
,
0010
0000
0000
0010
0000
0000
0010
0000
,
0000
0100
0000
0100
0001
0000
0001
0000
,
0010
0000
0000
0010
0000
0000
0100
0000
,
0000
0100
0000
0000
1000
0000
0001
0000
,
0100
0000
0000
0010
0000
0000
0010
0000
,
0000
1000
0000
1000
0100
0010
0001
0000
,
0100
0000
0001
0000
0000
0001
0000
0000
,
0010
0000
0000
0100
0000
0000
1000
0000
,
0000
0000
1000
0000
0000
0100
0000
0000
,
0100
0000
0000
0010
0000
0010
0001
0000
,
0000
0000
0001
0000
0000
0100
0000
0000
,
0010
0000
0000
1000
0000
0000
0100
0000
,
0000
0000
0100
0000
0000
1000
0000
0000
,
0010
0000
0000
0010
0000
0100
0001
0000
,
0000
0000
1000
0000
0000
0100
0000
0000
,
0100
0000
0000
1000
0000
0000
1100
0000
,
0000
0000
0100
0000
0000
0001
0000
0000
,
0010
0000
0000
0010
0000
0010
0001
0000
,
0000
0000
0101
0000
0000
1010
0000
0000
,
1100
0000
0000
1000
0000
0000
0001
0000
,
0000
0101
0000
0010
,
0100
0000
1000
0000
,
1000
0001
0100
0001
0010
0000
0001
0000
,
0100
0001
1000
0100
1000
0000
0010
0000
,
0100
0001
0100
0000
0001
0010
0001
0000
,
1000
0100
1000
0010
1000
0000
0001
0000
,
0100
0001
0100
0001
0010
0000
0100
0000
,
1000
0010
1000
0010
0100
0000
0010
0000
,
0100
0010
0100
0000
0001
0100
0001
0000
,
1000
0001
1000
0001
0100
0000
0001
0000
,
0100
0100
0001
0001
,
0010
0000
0010
0000
0001
0010
0001
0000
,
0100
0100
0010
0010
,
1000
0000
1000
0000
0100
1000
0100
0000
,
0010
0010
0001
0001
,
0100
0000
0100
0000
0001
0100
0001
0000
,
0010
0001
0010
0000
0100
1000
0100
0000
,
1000
0010
1000
0010
0100
0000
0001
0000
,
1000
1000
1000
1000
,
1000
0000
1000
0000
1000
0001
1000
0000
,
0001
0001
0001
0001
,
0001
0000
0001
0000
0001
1000
0001
0000
,
0100
0100
0100
0100
,
0100
0000
0100
0000
0100
0010
0100
0000
,
0010
0010
0010
0010
,
0010
0000
0010
0000
0010
0100
0010
0000
,
0100
0001
0100
0001
0100
0000
0001
0000
,
1000
0010
1000
0010
1000
0000
0001
0000
,
0100
0001
0100
0001
0100
0000
0001
0000
,
1000
0010
1000
0010
1000
0010
1000
0000
,
0001
0001
0100
0100
,
0001
0000
0001
1000
0000
1000
0001
0000
,
0001
0100
0100
0010
,
0010
0000
0100
0000
0100
0001
1000
0000
,
1000
0000
0000
0000
0100
0000
0001
0000
0000
0000
1000
0000
1000
0000
0000
1100
,
0000
0000
0000
0000
0100
0000
0010
0000
0000
0010
0000
0000
0001
0000
0000
0101
,
0000
0000
0000
0000
0001
0000
0001
0000
0000
0010
0000
0000
0010
0000
0000
1100
,
0000
0000
0000
0000
0000
1000
0000
0100
0000
0000
0010
0000
0000
0001
0000
0000
,
0100
0000
0001
0000
1000
0010
0000
1000
,
0010
0000
0100
0000
0001
0100
0000
0001
,
0100
0000
0001
0000
0010
0001
0000
0010
,
0001
1000
1100
0000
,
0100
0000
0100
0000
0100
0001
0000
0001
,
0010
0000
0010
0000
0010
0100
0000
0100
,
1000
0000
1000
0000
1000
0010
0000
0010
,
0100
0001
1001
0000
,
0100
0001
0100
0001
0100
0001
1000
0010
,
1000
0010
1000
0010
0100
0001
0010
0001
,
0010
0001
1000
0100
1000
0100
1000
0001
,
0100
0001
1000
0001
1000
0000
0000
0000
,
0100
0001
0100
0001
0010
0001
0100
0010
,
1000
0010
1000
0100
1000
0100
1000
0001
,
0100
0001
0100
0001
1000
0100
1000
0010
,
0100
0001
0010
0001
0100
0000
0000
0000
,
1000
0000
1000
0000
1000
0001
0000
0001
,
0100
0000
0100
0000
0100
0010
0000
0010
,
1000
0000
0100
0000
1000
0100
0000
0000
,
1000
0000
0001
0000
,
0100
0000
0000
0100
,
0000
0100
0001
0000
,
0001
0000
0010
0000
0100
1000
0000
0100
,
1000
0010
0100
0000
,
0100
0000
0101
0010
,
0000
0010
0100
0000
,
0100
0000
1000
1000
,
0000
0000
0010
0000
0100
0010
0100
0001
,
0010
0020
0000
0000
,
0000
0000
0000
0000
,
0100
0000
0000
0001
0000
0000
1000
0000
,
0000
0100
0000
0000
0001
0000
0000
0030
,
0001
1000
0001
0100
0001
0010
0001
1000
,
0001
0010
0001
0100
0001
1000
0010
1000
,
0100
1000
0001
0100
0001
0010
0001
0100
,
0010
1000
0100
1000
0001
0100
0001
0010
,
0001
0100
0010
1000
0100
1000
0001
1000
,
0001
0100
0001
0100
0001
0010
0001
0010
,
0001
0000
0100
0000
0100
0000
0100
0010
,
0000
0010
1000
0000
1000
0100
1000
0000
,
0100
1000
0100
0000
1000
0100
1000
0000
,
0001
0100
0001
0000
0100
0001
0100
0000
,
0001
0010
0001
0000
0010
0001
0010
0000
,
0100
0010
0100
0000
0010
0100
0010
0000
,
0100
1000
0100
0000
1000
0010
1000
0000
,
0010
0100
0001
0000
0100
0001
0010
0000
,
0001
0010
0100
0000
1000
0010
0100
0000
,
0001
1000
0001
1000
0001
0000
1000
0000
,
1000
0010
1000
0010
1000
0000
0010
0000
,
0010
0010
0001
0001
,
0100
0001
0100
0001
0100
0000
0010
0000
,
1000
1000
1000
1000
,
0100
1000
0100
1000
0100
0000
0010
0000
,
0010
0010
0001
0001
,
0100
0001
0100
0001
0100
0000
0001
0000
,
1000
0001
1000
0001
,
1000
0010
1000
0010
0100
0010
0100
0010
,
0100
0001
0100
0001
0010
0001
0010
0001
,
0010
0100
0010
0100
1000
0100
1000
0100
,
1000
0010
1000
0010
0100
0001
0010
0001
,
0010
0100
1000
0010
0100
0001
0010
0100
,
1000
0010
0100
0001
0010
0100
1000
0000
,
1001
0000
0000
0101
0000
0000
0000
0000
;
