#TITLE:Ernst;
#SUBTITLE:;
#ARTIST:Arvin;
#TITLETRANSLIT:;
#SUBTITLETRANSLIT:;
#ARTISTTRANSLIT:;
#CREDIT:;
#BANNER:../_bn-1.png;
#BACKGROUND:../bg-1.png;
#LYRICSPATH:;
#CDTITLE:;
#MUSIC:Ernst.ogg;
#OFFSET:0.009;
#SAMPLESTART:46.900;
#SAMPLELENGTH:17.000;
#SELECTABLE:YES;
#BPMS:0.000=220.000;
#STOPS:;
#BGCHANGES:;
// cache tags:
#FIRSTBEAT:4.000;
#LASTBEAT:852.500;
#SONGFILENAME:Songs/Index Tournament 1/Ernst - [Aoreo]/Ernst.sm;
#HASMUSIC:1;
#HASBANNER:1;
#MUSICLENGTH:233.454;
// end cache tags

//---------------dance-single - Aoreo----------------
#NOTES:
     dance-single:
     Aoreo:
     Challenge:
     19:
     1.000,1.000,0.000,0.647,1.000,2612.000,0.000,151.000,0.000,0.000:

0000
0000
0000
0000
,
1000
0001
0100
0001
0010
0100
1000
0001
0100
0010
0100
0001
1000
0100
1000
0001
,
0100
0010
1000
0001
0010
0100
1000
0001
1000
0010
0100
0001
1000
0001
0010
0100
,
1000
0001
1000
0010
0100
0001
1000
0100
0010
0001
1000
0010
1000
0001
0010
0100
,
0010
0001
1000
0010
0100
0001
1000
0100
0010
0001
1000
0001
0100
0010
1000
0001
,
0010
0100
1000
0010
1000
0001
0100
0001
1000
0100
0010
0001
1000
0001
0100
0010
,
1000
0001
0010
0100
1000
0001
1000
0010
0100
0001
1000
0100
0010
0001
1000
0001
,
0100
0010
1000
0001
1000
0100
0010
0001
1000
0001
0100
0010
1000
0001
1000
0100
,
0010
0001
1000
0010
0100
0010
1000
0001
0010
0100
1000
0001
0010
0001
1000
0010
,
1000
0100
0010
0001
1000
0001
0100
0010
1000
0001
1000
0100
0010
0001
1000
0001
,
0100
0010
1000
0001
1000
0100
0010
0001
1000
0001
0100
0010
0100
0001
1000
0100
,
0010
0100
1000
0001
0100
0010
1000
0010
0100
0001
1000
0100
0010
0001
1000
0001
,
0100
0010
1000
0010
0100
0001
1000
0100
0010
0001
1000
0001
0100
0010
1000
0010
,
0100
0001
1000
0100
0010
0100
1000
0001
0100
0010
0100
0001
1000
0001
0010
0100
,
1000
0001
1000
0010
0100
0001
1000
0001
0010
0100
1000
0001
1000
0010
0100
0001
,
0100
0010
1000
0001
0010
0100
1000
0001
1000
0010
0100
0001
1000
0100
1000
0001
,
0100
0010
1000
0001
0010
0100
1000
0001
1000
0010
0100
0001
1000
0100
0010
0001
,
2000
0000
0000
3002
,
0203
0302
0023
0230
,
2300
0000
0000
3020
,
0230
0000
0302
0000
0023
0000
0230
2300
,
0000
0000
0000
3020
0000
0000
0230
0000
,
0302
0000
0000
0023
0000
0000
0230
0000
,
2300
0000
0000
3002
0000
0000
0000
0000
,
0000
2003
3020
2030
3200
0320
0032
2003
,
3002
0000
0000
2003
,
3200
0320
0032
0203
,
0320
0000
0000
0000
0000
0000
0000
0000
0000
0000
0000
0000
2030
0000
0000
3000
,
2000
3002
0203
0302
,
0023
0000
0000
0230
0000
0000
2300
0000
,
3002
0203
0320
2030
,
3200
0000
0000
0320
0000
0000
0000
0000
,
0031
0100
0001
0010
0100
2000
3020
0230
,
0302
0000
0000
0000
0000
0000
2003
3020
,
0230
0000
0000
0302
0000
0000
2003
0000
,
3200
0000
0000
0000
0000
0000
2300
3002
,
0203
0000
0000
0302
0000
0000
0023
0000
,
0230
0000
0000
2300
0000
0000
3002
0000
,
0203
0000
0000
0320
0000
0000
2030
3000
,
2000
0000
0000
3002
0000
0000
0023
0000
,
0230
0000
0000
0000
,
1300
0001
1000
0100
0010
0001
1000
0001
,
0100
0000
0000
0010
0000
0000
0100
0000
0000
0001
0000
0000
1000
0000
0001
0000
1000
0000
0100
0000
0010
0000
0001
0000
,
1000
0100
1000
0010
0100
0001
1000
0001
0010
0100
1000
0001
0100
0001
1000
0100
,
1000
0010
0100
0001
1000
0001
0010
0100
1000
0010
1000
0001
0100
0010
1000
0001
,
0010
0100
1000
0010
1000
0001
0100
0010
1000
0100
1000
0001
0100
0001
0010
0100
,
1000
0001
1000
0010
0100
0001
1000
0001
0010
0100
1000
0001
1000
0010
0100
0001
,
0010
0001
1000
0010
0100
0001
1000
0001
0010
0100
1000
0001
1000
0010
0100
0001
,
1000
0100
1000
0010
0100
0001
0010
0001
1000
0010
0100
0001
1000
0100
0010
0001
,
0100
0001
1000
0001
0100
0010
1000
0001
1000
0100
0010
0001
1000
0100
1000
0001
,
1000
0010
0100
0001
1000
0001
0010
0100
1000
0001
0100
0001
1000
0010
0100
0001
,
0010
0100
1000
0001
1000
0010
0100
0001
1000
0100
1000
0001
0100
0010
1000
0001
,
1000
0100
0010
0001
1000
0001
0100
0010
1000
0001
1000
0100
0010
0001
1000
0001
,
0100
0010
1000
0010
0100
0001
1000
0100
0010
0001
1000
0001
0100
0010
1000
0001
,
0100
0010
0100
0001
0100
0010
1000
0001
0010
0100
1000
0001
0100
0001
1000
0001
,
0010
0100
1000
0010
1000
0001
0100
0010
1000
0001
1000
0100
0010
0001
1000
0001
,
0100
0010
1000
0001
0100
0001
1000
0100
0010
0001
1000
0010
0100
0001
0100
0010
,
1000
0100
0010
0001
1000
0001
0100
0010
1000
0001
0100
0001
1000
0100
0010
0001
,
0100
0001
1000
0100
0010
0100
1000
0001
1000
0010
0100
0001
1000
0001
0010
0100
,
1000
0010
1000
0001
0100
0010
1000
0100
0010
0001
1000
0001
0100
0010
0100
0001
,
0010
0100
1000
0001
1000
0010
0100
0001
1000
0100
1000
0010
0100
0001
1000
0001
,
0010
0100
1000
0001
0100
0010
1000
0001
1000
0100
0010
0001
0100
0001
1000
0010
,
0100
0010
1000
0001
0010
0001
0100
0010
1000
0001
1000
0100
0010
0001
1000
0010
,
1000
0100
1000
0001
0100
0010
0100
0001
1000
0100
0010
0001
1000
0010
0100
0001
,
0100
0010
1000
0001
0010
0100
0010
0001
1000
0001
0100
0010
1000
0001
1000
0100
,
0010
0001
0100
0001
1000
0010
0100
0001
0100
0010
1000
0001
0010
0100
1000
0001
,
0100
0001
1000
0010
0100
0010
1000
0001
1000
0100
0010
0001
1000
0010
0100
0001
,
0010
0100
1000
0001
1000
0010
0100
0010
1000
0001
1000
0100
0010
0001
1000
0001
,
0100
0010
0100
0001
1000
0010
0100
0001
0010
0100
1000
0001
0100
0001
1000
0010
,
0100
0001
0100
0010
1000
0001
1000
0100
0010
0001
0100
0001
1000
0010
0100
0010
,
1000
0001
1000
0100
1000
0001
0100
0010
1000
0001
1000
0100
0010
0001
1000
0100
,
1000
0010
0100
0010
1000
0001
1000
0100
0010
0001
1000
0001
0100
0010
0100
0001
,
1000
0001
0010
0100
1000
0001
0100
0001
1000
0010
0100
0001
0100
0010
1000
0001
,
1000
0100
0010
0001
1000
0010
1000
0001
0010
0100
1000
0001
1000
0010
0100
0001
,
0100
0010
1000
0001
0010
0001
0100
0010
1000
0010
0100
0001
0010
0100
1000
0001
,
2000
0000
0000
0000
0000
0000
0000
3000
,
0001
0100
0001
1000
0100
1000
0001
0100
0010
1000
0001
1000
0100
0010
0001
1000
,
0010
0100
0001
1000
0001
0100
0010
1000
0001
0010
0100
1000
0001
1000
0010
0100
,
0001
1000
0100
1000
0010
0100
0001
1000
0001
0010
0100
1000
0010
0100
0001
1000
,
0001
0010
0100
1000
0001
0100
0001
0010
0100
1000
0001
1000
0010
0100
0001
1000
,
0100
1000
0010
0100
0001
1000
0001
0010
0100
1000
0010
0100
0001
1000
0001
0100
,
0010
1000
0100
0010
0001
1000
0001
0100
0010
0100
0001
1000
0100
0010
0001
0100
,
0001
1000
0010
0100
0001
1000
0001
0010
0100
1000
0001
1000
0010
0100
0001
1000
,
0100
0010
0100
1000
0010
0100
0001
1000
0100
1000
0010
0100
0001
1000
0100
0010
,
0001
0100
0001
1000
0010
0100
0001
1000
0001
0010
0100
1000
0010
0100
0001
1000
,
0100
1000
0010
0100
0001
1000
0001
0010
0100
1000
0010
0100
0001
1000
0100
0010
,
0001
0100
0001
1000
0100
1000
0010
0100
0001
1000
0001
0010
0100
1000
0010
0100
,
0001
0100
0010
1000
0001
0010
0100
1000
0001
0100
0001
1000
0100
1000
0010
0100
,
0001
1000
0001
0010
0100
0010
0001
0100
0010
1000
0001
0010
0100
1000
0010
1000
,
0001
0100
0010
1000
0100
1000
0001
0100
0010
0100
0001
1000
0100
0010
0001
0100
,
0001
1000
0100
1000
0001
0100
0010
0100
0001
0010
0100
1000
0001
0100
0001
1000
,
0010
0100
0001
1000
0001
0010
0100
1000
0001
0100
0001
1000
0010
1000
0100
0010
,
0001
0100
0001
1000
0100
1000
0010
0100
0001
1000
0010
0100
0001
0010
0001
1000
,
0010
1000
0100
0010
0001
1000
0100
1000
0010
0100
0001
1000
0010
0100
0001
0010
,
0100
1000
0001
0100
0001
1000
0100
1000
0010
0100
0001
1000
0001
0010
0100
1000
,
0010
0100
0001
1000
0010
1000
0100
0010
0001
0100
0001
1000
0100
1000
0010
0100
,
0001
1000
0001
0100
0010
0100
0001
0010
0100
1000
0001
0100
0010
1000
0100
1000
,
0001
0100
0010
0100
0001
0010
0100
1000
0010
0100
0001
1000
0100
1000
0010
0100
,
0001
1000
0100
0010
0001
0100
0001
1000
0100
1000
0010
0100
0001
1000
0100
0010
,
0100
1000
0010
0100
0001
1000
0001
0010
0100
1000
0010
0100
0001
1000
0100
1000
,
0010
0100
0001
1000
0100
0010
0001
0100
0001
1000
0100
1000
0010
0100
0001
1000
,
0001
0010
0100
1000
0010
0100
0001
1000
0100
1000
0010
0100
0001
1000
0001
0010
,
0100
0010
0001
0100
0010
1000
0001
1000
0100
0010
0001
0100
0001
1000
0100
1000
,
0010
0100
0001
1000
0001
0100
0010
1000
0100
1000
0001
0100
0010
1000
0001
0010
,
0001
0100
0010
0100
0001
1000
0001
0010
0100
1000
0010
0100
0001
1000
0100
1000
,
0010
0100
0001
1000
0100
0010
0001
0100
0001
1000
0100
1000
0010
0100
0001
1000
,
0001
0010
0100
1000
0010
0100
0010
1000
0001
1000
0100
0010
0001
0100
0001
1000
,
0100
1000
0010
0100
0001
1000
0001
0010
0100
1000
0010
1000
0100
0010
0001
0100
,
0001
0100
0001
1000
0001
0010
0100
1000
,
0001
0100
0010
0100
0001
1000
0100
0010
,
0001
1000
0100
1000
0010
0100
0010
1000
,
0001
1000
0100
0010
0001
0100
0001
1000
,
0001
0010
0100
1000
0001
1000
0100
1000
,
0010
0100
0001
1000
0001
0010
0100
1000
,
0001
1000
0010
0100
0001
0100
0010
2000
,
3200
0320
0032
0000
0000
0000
0000
0000
,
2003
3020
2030
3200
,
0320
0032
0000
0000
,
0203
0320
2030
3200
,
0320
0032
0000
0000
0000
0203
0000
0000
,
0320
0000
2030
0000
0000
3200
0000
0000
,
0320
0000
0032
0000
0000
2003
0000
0000
,
0000
0000
0000
3002
0203
0302
0023
0230
,
2300
3002
2003
0000
0000
0000
0000
0000
,
3002
0023
0230
2300
,
3020
0230
0000
0000
,
0302
0003
0002
0000
2003
0000
3020
0000
,
2030
0000
3200
0000
0000
0320
0000
0000
,
0032
2003
3020
0230
,
0302
0000
0023
0000
0000
0230
0000
0000
,
0000
0000
1300
0010
1000
0100
0010
0002
,
0203
0320
2030
0000
0000
0000
0000
0000
,
3002
0203
0320
0000
0000
2030
0000
0000
,
3002
0023
0000
0000
,
0032
2003
3020
0000
0000
2030
0000
0000
,
3200
0000
0320
0000
0000
0032
0000
0000
,
2003
0000
3020
0000
0000
0230
0000
0000
,
0302
0003
0002
0000
0000
2003
0000
0000
,
3200
0320
0000
0000
,
0000
0000
0031
1000
0001
0010
0100
1000
,
0001
0000
0000
1000
0000
0000
0010
0000
0000
0100
0000
0000
0010
0000
0000
1000
0000
0000
0001
0000
1000
0000
0001
0000
,
0010
0000
0000
0000
0100
0000
0000
0000
1000
0000
0000
0000
0001
0000
0000
0010
0000
0000
0001
0000
0000
0100
0000
0000
0010
0000
0000
1000
0000
0000
0001
0000
0000
1000
0000
0000
0100
0000
0000
0010
0000
0000
0001
0000
0000
1000
0000
0000
,
0010
1000
0001
0010
0001
0100
0010
1000
0001
1000
0100
0010
0001
0100
0001
1000
,
0010
0100
0001
1000
0100
0010
0001
0100
0001
1000
0010
0100
0001
0010
0001
1000
,
0010
1000
0100
0010
0001
1000
0001
0100
0010
1000
0001
1000
0100
0010
0001
1000
,
0001
0100
0010
1000
0100
1000
0001
0100
0010
1000
0001
1000
0100
0010
0001
1000
,
0001
0100
0010
1000
0001
0010
0001
0100
0010
1000
0100
1000
0001
0100
0010
1000
,
0001
0010
0100
1000
0010
1000
0001
1000
0010
0100
0001
1000
0001
0010
0100
1000
,
0001
0010
0001
1000
0001
0100
0010
1000
0001
1000
0100
0010
0001
1000
0010
1000
,
0001
0100
0010
1000
0100
0010
0001
1000
0001
0100
0010
1000
0001
0010
0001
1000
,
0010
0100
0001
1000
0001
0010
0100
1000
0001
1000
0010
0100
0001
1000
0001
0010
,
0100
1000
0001
1000
0010
0100
0001
0100
0010
1000
0001
0010
0100
1000
0001
1000
,
0010
0100
0001
1000
0100
1000
0010
0100
0001
1000
0010
1000
0100
0010
0001
1000
,
0010
1000
0001
1000
0100
0010
0001
0100
0001
1000
0010
0100
0001
1000
0001
0010
,
0100
1000
0001
1000
0010
0100
0001
1000
0010
1000
0001
0010
0100
1000
0001
0100
,
0010
1000
0010
0100
0001
0010
0100
1000
0001
1000
0010
0100
0001
1000
0010
1000
,
0001
0010
0100
1000
0010
1000
0001
0010
0100
0010
0001
1000
0001
0100
0010
1000
,
0001
1000
0100
0010
0001
0100
0001
1000
0010
0100
0001
0010
0100
1000
0001
1000
,
0010
0100
0010
1000
0100
0010
0001
1000
0001
0100
0010
1000
0001
0010
0001
0100
,
0010
1000
0001
1000
0100
0010
0001
1000
0010
0100
0001
1000
0001
0010
0100
1000
,
0010
1000
0001
0100
0010
0100
0001
1000
0100
1000
0010
0100
0001
1000
0001
0010
,
0100
1000
0001
0100
0001
0010
0001
1000
0010
0100
0010
1000
0001
0010
0100
1000
,
0001
0100
0010
1000
0010
0100
0001
1000
0100
0010
0100
1000
0001
1000
0010
0100
,
0001
1000
0001
0010
0100
1000
0010
1000
0001
0100
0010
1000
0010
0100
0001
1000
,
0100
0010
0001
1000
0010
1000
0001
0100
0010
0100
0001
1000
0001
0010
0100
1000
,
0001
0100
0010
1000
0100
0010
0001
1000
0001
0100
0010
0100
0001
1000
0001
0010
,
0100
1000
0001
1000
0010
0100
0010
1000
0001
0100
0010
1000
0100
0010
0001
1000
,
0010
1000
0001
0100
0010
1000
0010
0100
0001
1000
0001
0010
0100
1000
0010
1000
,
0001
0100
0010
0100
0001
1000
0001
0010
0001
1000
0010
0100
0001
1000
0001
0010
,
0100
1000
0001
0010
0001
0100
0010
0100
0001
1000
0001
0010
0100
1000
0001
1000
,
0010
0100
0010
1000
0001
1000
0100
0010
0001
1000
0010
1000
0001
0100
0010
1000
,
0010
0100
0001
1000
0001
0010
0100
1000
0001
0100
0001
1000
0100
0010
0001
1000
,
0001
0100
0010
1000
0010
0100
0001
1000
0100
1000
0010
0100
0001
0100
0010
1000
,
0100
0010
0001
1000
0002
0000
0000
0000
0000
0000
0000
0000
0000
0000
0000
0000
,
0000
0000
0003
0000
1000
0010
1000
0001
0010
0001
1000
0010
0100
0001
1000
0001
,
0010
0100
1000
0001
0100
0010
1000
0001
1000
0010
0100
0001
1000
0100
0010
0001
,
1000
0001
0100
0010
1000
0001
0010
0001
0100
0010
1000
0001
1000
0100
0010
0001
,
0100
0010
1000
0001
1000
0100
0010
0001
1000
0010
1000
0100
0010
0001
1000
0001
,
0100
0010
1000
0001
0010
0001
0100
0010
1000
0001
1000
0100
0010
0001
0100
0010
,
1000
0001
1000
0010
0100
0001
0010
0100
1000
0001
1000
0010
0100
0010
1000
0001
,
0010
0100
1000
0010
1000
0001
0100
0010
1000
0001
1000
0100
0010
0001
1000
0001
,
0100
0010
1000
0001
0010
0100
0010
0001
0100
0010
1000
0001
0010
0001
0100
0010
,
1000
0001
0010
0100
1000
0010
1000
0001
0100
0010
1000
0001
1000
0100
0010
0001
,
0100
0010
1000
0001
0010
0001
0100
0010
1000
0001
1000
0100
0010
0001
0100
0010
,
1000
0001
0010
0100
1000
0010
1000
0001
0010
0001
0100
0010
1000
0001
1000
0100
,
0010
0001
0100
0010
1000
0010
0100
0001
1000
0100
0010
0001
1000
0010
1000
0001
,
0010
0001
0100
0010
1000
0001
1000
0100
0010
0100
1000
0010
0100
0001
1000
0100
,
0010
0001
0100
0001
1000
0010
0100
0001
0010
0001
1000
0010
0100
0010
1000
0001
,
0010
0100
1000
0010
1000
0001
0010
0001
1000
0010
0100
0010
1000
0100
0010
0001
,
1000
0010
1000
0001
0100
0010
1000
0001
1000
0100
0010
0001
1000
0010
1000
0001
,
0100
0001
0010
0100
1000
0010
1000
0001
0010
0001
0100
0010
1000
0001
0100
0010
,
1000
0100
1000
0001
0100
0001
0010
0100
1000
0001
0010
0001
0100
0010
1000
0001
,
0100
0010
1000
0100
0010
0001
1000
0010
1000
0001
0010
0001
0100
0010
1000
0001
,
1000
0100
0010
0001
0100
0010
1000
0001
0100
0001
0010
0100
1000
0010
1000
0001
,
0010
0001
0100
0010
1000
0001
1000
0010
0100
0010
1000
0100
0010
0001
1000
0010
,
0100
0001
0010
0001
1000
0010
0100
0010
1000
0100
0010
0001
0100
0010
1000
0001
,
0010
0001
0100
0010
1000
0001
0010
0100
1000
0010
1000
0001
0010
0001
0100
0010
,
1000
0001
0010
0100
0010
0001
0100
0010
1000
0001
1000
0100
0010
0001
0100
0010
,
1000
0001
0010
0001
0100
0010
1000
0001
0010
0100
1000
0010
1000
0001
0010
0001
,
0100
0010
1000
0001
1000
0100
0010
0001
0100
0010
1000
0001
0010
0001
0100
0010
,
1000
0001
1000
0100
0010
0100
1000
0010
0100
0001
1000
0001
0010
0100
1000
0010
,
1000
0001
0010
0001
0100
0010
1000
0001
1000
0010
0100
0001
0010
0001
1000
0010
,
0100
0001
1000
0100
1000
0010
0100
0010
1000
0001
1000
0100
0010
0001
0100
0010
,
1000
0001
0010
0001
0100
0010
1000
0001
0010
0100
1000
0010
1000
0001
0010
0001
,
0100
0010
1000
0001
1000
0100
0010
0001
0100
0010
0100
0001
1000
0001
0010
0100
,
1000
0010
1000
0001
0010
0001
0100
0010
1000
0001
1000
0100
0010
0001
0100
0001
,
0010
0100
1000
0010
1000
0000
0010
0000
1000
0000
0001
0000
1000
0000
0100
0000
,
0010
0001
1000
0010
0100
0010
1000
0001
,
0010
0100
1000
0001
0010
0001
0100
0010
,
0100
0001
1000
0001
0010
0100
1000
0010
,
1000
0001
1000
0100
0010
0001
1000
0001
,
0010
0001
0100
0010
1000
0001
1000
0100
,
0010
0001
1000
0001
0100
0010
1000
0100
,
0010
0001
0000
0000
0000
0000
0000
0000
;
