#TITLE:To The People;
#SUBTITLE:;
#ARTIST:Dj Mangoo;
#TITLETRANSLIT:;
#SUBTITLETRANSLIT:;
#ARTISTTRANSLIT:;
#CREDIT:;
#BANNER:ttpbn.png;
#BACKGROUND:ttpbg.png;
#LYRICSPATH:;
#CDTITLE:;
#MUSIC:To The People.ogg;
#OFFSET:-2.395;
#SAMPLESTART:32.695;
#SAMPLELENGTH:12.000;
#SELECTABLE:YES;
#BPMS:0.000=140.000,144.000=70.000,146.000=140.000,210.000=70.000,212.000=140.000,404.000=70.000;
#STOPS:;
#BGCHANGES:;
// cache tags:
#FIRSTBEAT:3.500;
#LASTBEAT:406.000;
#SONGFILENAME:Songs/SSSC PACK/[Wej and Monst3rjoe] - To The People/To the People.sm;
#HASMUSIC:1;
#HASBANNER:1;
#MUSICLENGTH:185.770;
// end cache tags

//---------------dance-single - ----------------
#NOTES:
     dance-single:
     :
     Challenge:
     12:
     1.000,1.000,0.253,1.000,1.000,1130.000,47.000,204.000,70.000,2.000:

0000
0000
0000
0000
0000
0000
0000
0100
,
1020
0000
0000
0000
0000
0030
0201
0000
0000
0000
0000
0000
0000
0000
0310
1000
,
0002
0000
0000
0000
0000
0000
0000
0000
0003
0001
0000
0000
0010
0000
0000
0000
0000
0000
1200
0000
0000
0000
0000
0000
0000
0000
0000
0000
0000
0000
1300
0000
0000
0000
0000
0000
0010
0000
0000
0000
0000
0000
0100
0000
0000
0000
0000
0000
,
0001
0000
0010
0000
0100
0000
1000
0020
0000
0000
0130
0000
0001
0000
0010
0000
,
1200
0000
0000
0000
0000
0000
0000
0000
0300
0100
0000
0000
1000
0000
0000
0000
0000
0000
0200
0000
0000
0000
0000
0000
0000
0000
0000
0000
0000
0000
0000
0000
0000
0000
0000
0000
1300
0000
0000
0000
0000
0000
0001
0000
0000
0000
0000
0000
,
0010
0000
0100
0000
1000
0000
0010
0200
0000
0000
0301
0000
1000
0000
0100
0000
,
0020
0000
0000
0000
0031
0000
0200
0000
0000
0000
0301
0000
1000
0000
0100
1000
,
0010
0000
0100
0000
0100
0000
0001
0020
0000
0000
0130
0000
1000
0000
0100
0000
,
0210
0000
0000
0310
0001
0000
0200
0000
0000
0000
0310
0000
1000
0000
0100
0000
,
0020
0000
0030
0000
0000
0000
0002
0000
0203
0000
0300
0100
0000
0000
0010
0000
,
0110
0000
0100
0001
0000
0000
4000
0000
0000
0000
0000
0000
0000
0000
0000
0000
,
0000
0000
0000
0000
0000
0000
0000
3000
,
0201
0300
0001
0020
0030
0010
0001
0100
0020
0030
1000
0002
0003
0010
0100
1000
,
0002
0003
0002
0003
0020
0030
0020
0030
0001
0000
1000
0200
0300
1000
0001
0100
,
0020
0030
1000
0100
0000
1000
0010
1000
0020
0030
0100
0001
0000
0010
0001
0100
,
0020
0030
1000
0020
0030
0100
0010
0100
0002
0003
0200
0300
0200
0300
0020
0030
,
1010
0000
1000
0010
0000
0100
0010
1000
0200
0300
0010
0002
0003
0100
0010
1000
,
0200
0300
0010
0002
0003
0100
0010
1000
0200
0300
1000
0020
0030
1000
0100
0010
,
0002
0003
1000
0200
0300
0010
0001
0100
0020
0030
2000
3000
2000
3000
1200
0000
,
0310
0000
0001
0100
0000
0001
0010
0001
0020
0030
0001
0020
0M3M
0000
1001
0000
,
0002
0013
0001
0200
0310
1000
0200
0310
0002
0103
0010
2000
3100
0010
0002
0103
,
0020
1030
0002
0013
0200
1300
0002
0013
0200
0310
0001
0200
0310
1000
0002
0013
,
0002
0103
0010
0200
0310
1000
0020
1030
0200
0310
0001
2000
3010
0100
0002
2003
,
3020
0130
0001
1000
0200
0310
0002
0103
0020
1030
0002
0013
0200
1300
0002
1003
,
0020
1030
0100
2000
3010
1000
0200
0310
0002
0103
0001
0020
0031
0100
0002
2003
,
3020
1030
0100
0020
0031
1000
0200
0320
0032
1003
0010
0200
0301
1000
0200
0310
,
0002
1003
0010
0200
0310
1000
0200
0310
0002
1003
0020
0130
0002
1003
0200
0310
,
0002
0103
0010
2000
3100
0010
0002
0103
0020
1030
0100
0020
0031
0100
0020
1030
,
1MM2
0003
1000
0001
0000
0001
0010
0100
1000
0000
M010
0100
0000
0100
0010
1000
,
0001
0000
001M
0000
01M0
0000
1M00
0000
M100
0000
0010
0001
0000
0100
0001
0010
,
0001
0100
0010
0100
0010
1000
0010
1000
0100
0010
0001
1000
0010
0100
0001
1000
,
0010
0100
0001
1000
0100
0010
0001
0100
0010
1000
0001
0010
0100
1000
0001
1000
,
0020
1030
0100
2000
3010
1000
0200
0310
0002
0103
0001
0020
0031
0100
0002
2003
,
3020
1030
0100
0020
0031
1000
0200
0320
0032
1003
0020
0230
0301
2000
3200
0320
,
0031
1000
001M
0200
0310
1000
0200
0310
0002
1003
0020
0130
0002
1003
0200
1300
,
1001
0000
0000
MMMM
0000
0000
0000
0000
1011
0000
0000
0000
1101
0000
0000
0000
,
M1M1
0000
00M0
M000
000M
0000
M11M
0000
1MM1
0000
1000
0000
0100
0000
0010
0000
,
0001
0100
0010
1000
0100
1000
0010
0100
,
0001
0000
0010
0000
0100
0000
1000
1000
0001
0000
0010
0000
0100
0000
0010
0000
,
0001
0100
0001
0010
0001
0100
0001
0010
,
0100
1000
0100
0000
0010
0000
0001
0000
0101
0000
0100
0000
0001
0000
0010
0100
,
0010
0000
0100
0000
1100
0000
0100
1000
0100
1000
0010
0000
0101
0000
0100
0010
,
0100
0000
0001
0000
0101
0000
0001
0001
0100
0010
1000
0000
1010
0000
1000
0100
,
1000
0000
0001
0000
0011
0000
0010
0100
1000
0100
0010
0000
0011
0000
0001
0100
,
0010
1000
0000
0000
0020
0230
0302
0003
0110
0000
0100
0000
0002
0023
0230
0300
,
1000
0001
0010
0100
1100
1000
0010
1000
,
0100
0000
1000
0000
0010
0000
0100
0100
0001
0000
0100
0000
0001
0000
0010
0000
,
0100
1000
0010
0100
0001
0010
0100
1000
,
0001
0001
0010
0000
0100
0000
1000
0000
0011
0000
1000
0000
0020
0230
0302
0003
,
0200
0300
0010
0000
1000
0000
0001
0010
0001
0010
0100
0000
1000
0000
0010
0100
,
0010
0000
1000
0000
0001
0000
0010
0100
M01M
0100
1000
0000
0001
0000
0100
0010
,
0100
0000
0010
0000
0110
0000
0100
0001
MM10
0001
0010
0000
1100
0000
1MM0
0001
,
1000
0001
0001
0000
MM11
0000
0000
0000
4400
0000
0000
0000
0000
0000
0000
3300
,
0002
0000
0000
0000
0000
0000
0203
0000
0000
0000
0000
0000
0000
0000
0310
1000
,
0002
0000
0000
0000
0000
0000
0000
0000
0003
0001
0000
0000
0010
0000
0000
0000
0000
0000
0200
0000
0000
0000
0000
0000
0000
0000
0000
0000
0000
0000
1300
0000
0000
0000
0000
0000
0010
0000
0000
0000
0000
0000
0100
0000
0000
0001
0000
0000
,
0010
0000
0100
0000
1000
0000
1000
0200
0000
0000
1000
0000
1300
0000
0010
0000
,
0200
0000
0000
0301
1000
0000
2000
0000
0000
3000
0000
0000
1000
0000
0001
0000
,
0010
0000
0100
0000
1000
0000
0010
0200
0000
0000
0301
0000
1000
0000
0100
0000
,
0020
0000
0000
0030
0100
0000
0200
0000
0000
0000
1300
0000
0001
0000
0010
0001
,
0100
0000
0010
0000
1000
0000
0001
0200
0000
0000
0310
0000
1000
0000
0001
0000
,
0201
0000
0000
0310
1000
0000
0200
0000
0000
0000
0310
0000
0002
0000
0000
0003
,
1000
0010
0100
0001
0100
0010
0000
10M0
0100
0010
0001
0010
0000
01M0
1000
0001
,
0010
0100
1000
0000
0010
0100
0001
0100
0010
1000
0000
0001
0010
0001
0100
0010
,
1000
0010
0100
0001
0100
0010
0000
10M0
0100
0010
0001
1000
M000
1000
0010
0100
,
0001
0010
0000
01M0
1000
0010
0100
0001
1000
0000
M001
0100
0001
0010
0001
0100
,
0010
0100
0001
1000
0010
0100
0000
0M01
0010
0100
1000
0100
0000
0M10
0001
1000
,
0100
0010
0001
0000
0100
0010
1000
0010
0100
0001
0000
1000
0100
1000
0010
0100
,
0001
0100
0010
1000
0010
0100
0000
0M01
0010
0100
1000
0001
000M
0001
0100
0010
,
1000
0100
0000
0M10
0001
0100
0010
1000
0001
0000
100M
0010
1000
0100
0010
0000
,
0011
0000
0001
0100
0001
0010
0001
0100
0010
1000
0100
1000
0010
0100
0001
0010
,
0001
0100
0010
1000
0100
1000
0010
0100
0001
0010
0001
0010
0001
0100
0001
0100
,
0010
1000
0100
1000
0010
0100
0001
0010
0001
0100
0010
1000
0100
1000
0010
0100
,
0001
0100
0001
0100
0001
0010
0100
0010
0100
0010
0100
1000
0100
1000
0010
0100
,
0001
0010
0001
0100
0010
1000
0100
1000
0010
0100
0010
0100
0001
0100
0001
0010
,
0001
1000
0010
1000
0100
1000
0010
0100
0001
0010
0001
0010
0001
0100
0010
1000
,
0100
0010
0001
0010
0100
1000
0010
0100
0001
0100
0010
1000
0100
0010
0100
1000
,
0100
1000
0001
0010
0001
0010
0100
1000
0001
0010
0001
0000
0010
0000
0010
0000
,
0010
0000
0000
M011
0000
0000
0001
0000
0010
0000
0000
0M11
0000
0000
0010
0000
,
0001
0000
0000
M011
0000
0000
0001
0000
0010
0000
0000
0011
0000
0000
0010
0000
,
0100
0000
0000
M11M
0000
0000
0100
0000
1000
0000
0000
11MM
0000
0000
1000
0000
,
0100
0000
0000
11MM
0000
0000
0100
0000
1000
0000
0000
1100
0000
0000
2000
0000
,
3100
0000
0000
M11M
0000
0000
0010
0000
0001
0000
0000
M1M1
0000
0000
0100
0000
,
0010
0000
0000
1M1M
0000
0000
1000
0000
0100
0000
0000
M11M
0000
0000
0010
0000
,
MM01
0000
0000
0100
0000
0000
0100
0000
0100
0000
0010
0000
0010
0000
1000
0000
,
01MM
0000
0000
0100
0000
0000
0010
0000
0001
0000
0100
0000
0110
0000
0000
0000
,
2000
3100
1000
0020
0130
0001
0010
0100
2000
3010
0100
0002
0013
0100
2000
3010
,
0200
0301
2000
3100
0020
0031
2000
3100
0020
0130
1000
0020
0130
0001
1000
0100
,
2000
3010
0100
0020
0130
0001
0200
0301
0020
0130
1000
0002
0103
0010
2000
3002
,
0203
0310
1000
0002
0013
0100
2000
3010
0200
0301
2000
3100
0020
0031
2000
3001
,
0200
0301
0010
0002
0103
0001
0010
0100
2000
3010
1000
0200
1300
0010
2000
3002
,
0203
0301
0010
0200
1300
0001
0020
0230
2300
3001
0100
0010
2000
3001
0010
0100
,
2000
3001
0100
0020
0130
0001
0020
0130
0020
0031
0200
0310
2000
3001
0020
0130
,
2000
3010
0100
0002
0013
0100
2000
3010
0200
0301
0020
0130
1000
0100
0020
0031
,
1001
0000
0001
0100
0001
0100
0010
1000
0100
0010
0001
0100
0010
1000
0001
1000
,
0100
1000
0020
0030
0020
0030
0200
0300
0200
0300
0001
0010
0000
0010
0001
0010
,
0001
0100
0010
0100
0010
1000
0010
1000
0100
0010
0001
1000
0010
0100
0001
1000
,
0010
0100
0001
1000
0100
0010
0001
0010
0100
1000
0001
0010
0100
1000
0001
1000
,
0010
1000
0100
1000
0010
1000
0100
0010
0001
0100
0001
0010
0001
0100
0001
1000
,
0010
1000
0100
0010
0001
1000
0100
0010
0001
1000
0010
0100
0001
1000
0100
0010
,
0001
1000
0010
0100
0001
1000
0100
0010
0001
0010
0100
1000
0001
1000
0100
0010
,
0001
0100
0010
1000
0100
0010
0001
0100
0010
1000
0100
0010
0001
0100
0010
1000
,
0000
0000
0MM0
0000
0000
M00M
0MM0
0000
0000
0000
0000
0000
;
