#TITLE:Moonlight Rave;
#SUBTITLE:;
#ARTIST:Dm Ashura;
#TITLETRANSLIT:;
#SUBTITLETRANSLIT:;
#ARTISTTRANSLIT:;
#CREDIT:Steps by Diegomaneira;
#BANNER:;
#BACKGROUND:title.png;
#LYRICSPATH:;
#CDTITLE:;
#MUSIC:DDR - DM Ashura - Moonlight Rave.mp3;
#OFFSET:0.000;
#SAMPLESTART:100.000;
#SAMPLELENGTH:12.000;
#SELECTABLE:YES;
#BPMS:0.000=180.001;
#STOPS:;
#BGCHANGES:;
// cache tags:
#FIRSTBEAT:0.000;
#LASTBEAT:336.000;
#SONGFILENAME:Songs/new/DDR - DM Ashura - Moonlight Rave/DDR - DM Ashura - Moonlight Rave.sm;
#HASMUSIC:1;
#HASBANNER:0;
#MUSICLENGTH:114.317;
// end cache tags

//---------------pump-single - ----------------
#NOTES:
     pump-single:
     :
     Hard:
     13:
     1.000,1.000,0.586,0.105,1.000,769.000,67.000,12.000,0.000,24.000:
01000
00100
01000
00100
01000
00100
01000
00100
01000
00100
01000
00100
,
01000
00000
00100
00000
01000
00000
00100
00000
01000
00000
00100
00000
01000
00000
00100
00000
01000
00000
00100
00000
00000
01100
00000
00000
,
01100
00100
10000
00100
00010
00100
10000
00100
00010
00100
10000
00100
,
00010
00100
10000
00100
00010
00100
10000
00100
00010
00100
10000
10010
,
00000
10010
00010
00100
00001
00100
10000
00100
01000
00100
00010
00100
,
00001
00100
10000
00100
01000
00100
00010
00100
00001
00100
10000
00100
,
01000
01010
00000
01010
00100
00010
00100
10000
01000
00100
00010
00100
,
00001
01010
00000
10001
00001
00010
00100
01000
10000
01000
00100
00010
,
00001
10010
00000
10010
00100
00100
00010
00100
01000
10000
01000
00100
,
00100
01000
00100
10000
01000
00100
01010
00100
00010
00100
00010
00100
,
00001
00100
10000
01000
00100
00010
00100
01000
10000
00100
00110
10000
,
01000
10000
01000
00100
00010
00100
01000
00100
01000
00010
00001
10000
,
01000
00000
10000
00000
01000
00000
00100
00000
00010
00000
00100
00000
00001
00000
00100
00000
00000
01000
00100
00010
00000
00000
00000
00000
,
00010
00100
01000
00000
00000
00000
01000
00100
00010
00000
00000
00000
00010
00100
01000
00000
00000
00000
00000
00010
00100
01000
00100
00000
,
00020
00000
00000
00000
00000
00000
00000
00000
00000
00000
00000
01030
,
10000
01000
00100
00010
00001
00010
00100
01000
10000
01000
00100
00010
,
00001
00010
00100
01000
10000
01000
00100
00010
00001
00000
00001
00000
,
00001
00010
00100
01000
10000
01000
00100
00010
00001
00010
00100
01000
,
10000
01000
00100
00010
00001
00010
00100
01000
10000
01000
00100
00000
,
00100
00010
00001
00010
00100
01000
10000
01000
00100
00010
00001
00010
,
00100
01000
10000
01000
00100
00010
00001
00010
00100
01000
10000
01000
,
00100
20002
00000
00000
00000
00000
00000
00000
30003
00000
00010
00100
,
01000
10000
01000
00000
00000
01000
10000
01000
00100
00010
00000
00000
,
01000
00100
00010
00100
10000
00100
01010
00000
00100
00010
00100
01000
,
00100
10000
01000
00100
00001
00000
00000
00000
00000
10001
00000
01000
,
00000
00010
00000
00000
00100
00000
10000
00000
00000
10000
00000
00000
,
10000
00010
00100
00001
00100
00010
00100
00001
,
01000
00010
01000
00010
01000
01000
00100
00010
,
00100
00010
00001
00001
00100
01000
00100
01000
,
00010
01000
00100
00010
10000
00100
00010
01000
,
10000
00000
00100
00000
10000
00000
00000
00000
00001
00000
01000
00000
00001
00010
00100
01000
,
10000
01000
00100
00010
00001
00000
00000
00000
00000
00000
00000
00000
00000
00000
00000
10001
,
00000
00000
00000
00000
00000
00000
00000
01010
00000
00000
00000
00000
00001
00010
00100
01000
,
10000
00000
00000
01000
00000
00000
00100
00000
00000
00010
00000
00000
00001
00000
00000
00000
00000
00000
00000
00000
00100
00000
00000
00000
00000
00000
00000
00000
00000
00000
00000
00000
00100
00000
00000
00000
00000
00000
00000
00000
00000
00000
00000
00000
00000
00000
00000
00000
,
10010
00000
00000
00000
00001
00000
00000
00000
00010
00000
00000
00000
00100
00000
00000
00000
01000
00000
00000
00000
10000
00000
00000
00000
01000
00000
00000
00000
00100
00000
00000
00000
00010
00000
00000
00000
00001
00000
00000
00001
00000
00000
00010
00000
00000
00001
00000
00000
,
00010
00001
00100
10000
00001
00010
00001
00010
00001
00100
10000
00010
00001
00010
00001
00010
,
00100
10000
00001
00010
00001
00010
00001
00010
01000
00010
01000
00010
01000
00010
01000
00010
,
10000
00001
10000
00001
10000
00001
10000
00001
10000
00001
00010
01000
00010
01000
00010
01000
,
00010
01000
00010
00000
00000
01110
00000
00000
00000
00000
00000
10000
01000
00100
00010
00001
,
00000
00000
00000
00000
10000
01000
00100
00010
00001
00000
00000
00000
00000
00000
10000
01000
,
00100
00010
00001
00000
00000
00000
00000
10000
01000
00100
00010
00001
00000
00000
00000
00000
,
10000
01000
00100
00010
00001
00000
00000
00000
00000
00001
00010
00100
01000
10000
01000
00100
,
00010
00100
01000
00100
00110
00000
00000
00000
00000
00000
00000
00000
00000
00000
01010
00000
,
00000
00000
00000
00000
00000
00000
00000
00000
00011
00000
00000
00000
00000
00000
00000
00000
00000
00000
00000
00000
00000
01100
00000
00000
,
01010
00100
00100
00100
00000
00100
00100
10100
00100
00000
00100
00100
,
00000
00101
00100
00000
00100
00100
00000
00100
01100
00100
00100
00000
,
00100
00000
00100
00110
00100
00000
00100
00000
00100
01110
00100
00100
,
00000
00100
00000
00100
10101
00100
00000
00100
00100
00000
00100
10110
,
00100
00100
00000
00100
00000
00100
01010
00100
00100
00000
00100
00000
,
00100
00000
00000
00000
10001
00000
00000
00000
00000
00000
00000
00000
00100
00000
00000
00000
00000
00000
00000
00000
00100
00000
00000
00000
00000
00000
00000
00001
00000
00000
00000
00000
00000
00000
00000
00000
00100
00000
00000
00000
00000
00000
00000
00000
00100
00000
00000
00000
,
00000
10000
00000
00100
00000
00100
00010
00000
00100
00000
00100
01000
,
00001
00000
00000
10000
00000
00000
00001
00000
00000
10000
00000
00000
00001
00000
00000
10000
00000
00000
00001
00000
00000
00000
00100
00000
,
01000
00000
00000
00010
00000
00000
01000
00000
00000
00010
00000
00000
01000
00000
00000
00010
00000
00000
01000
00000
00000
00000
00100
00000
,
10000
00010
10000
00010
10000
00010
10000
00010
,
00100
01000
00001
01000
00001
01000
00001
01000
,
00100
00000
00000
01001
01001
00000
01101
00000
00000
10010
10010
00000
,
10110
00000
00000
00000
01010
01010
00000
01110
00000
00000
10001
10001
,
00000
10101
00000
00000
00100
00100
00000
01100
00000
00000
00100
00100
,
00100
00000
00110
00000
00000
00100
00100
00100
00000
10100
00000
00000
,
00100
00100
00100
00000
00101
00000
00000
00000
00000
00000
00000
00000
,
01000
00000
00000
00000
00100
00000
00000
00000
10000
00000
00000
00000
00000
00000
00000
00000
00000
00000
00000
00000
00000
00000
00000
00000
10000
00000
00000
00000
00000
00000
00000
00000
00000
10000
00000
00000
00000
00000
00000
00000
00000
00000
00000
00000
10000
00000
00000
00000
,
00000
00000
00000
10000
00000
10000
01000
00100
00010
00001
00000
00000
,
00010
00000
00000
00100
00000
00000
00010
00000
00000
00100
00000
00010
,
00000
00010
00000
00000
00100
01000
00100
10000
00000
00000
00100
00010
,
00100
00001
00000
00000
00100
10000
00100
01000
00000
00000
00100
00001
,
00100
00010
00000
00000
00000
00000
00000
10000
00001
10000
00001
10000
,
00001
10000
00001
10000
00001
10000
00001
10000
00001
00100
00001
00100
,
00001
00100
00001
00100
00001
00100
00001
00100
00001
00100
00000
00111
,
00000
00001
00010
00100
01000
10000
01000
00100
00010
00001
00010
00100
,
01000
00000
00000
00000
10000
00000
00000
00000
01000
00000
00000
00000
00100
00000
00000
00000
00010
00000
00000
00000
00001
00000
00000
00000
00000
00000
00000
00000
11100
00000
00000
00000
00000
00000
00000
00000
11100
00000
00000
00000
00000
00000
00000
00000
00000
11100
00000
00000
,
00000
00000
10000
01000
00100
00010
00001
00010
00100
01000
10000
01000
,
00100
00010
00001
00010
00100
01000
10000
11100
00000
11100
00000
00000
,
00111
00001
00010
00100
01000
10000
01000
00100
00010
00001
01110
01110
,
01110
10000
01000
00100
00010
00001
00010
00100
01000
10000
10101
10101
,
10101
00000
01000
00010
01000
00010
00100
10000
00001
10000
00001
10000
,
00001
10000
00001
10000
00001
10000
00001
00100
01000
00010
00100
00001
,
10000
00100
00010
01000
00100
00010
00001
10000
00100
00010
00100
00000
,
10000
00010
00100
00000
00001
00010
00100
01000
00100
10000
00010
00001
,
01000
00100
10000
01000
00100
00001
00100
00100
10000
01000
00100
01000
,
00010
00000
00100
00000
00001
00000
10000
00000
00100
00000
10000
00000
00100
00000
01000
00000
00010
00000
01100
00000
00000
00110
00000
00000
,
00100
10000
00100
10000
00100
10000
00100
00010
00100
10000
01000
00100
,
00010
00100
01000
00100
00010
00100
00001
10000
00100
00010
00100
10000
,
02220
00000
00000
00000
00000
03330
00000
00000
20202
00000
00000
00000
00000
30303
00000
00000
,
20220
00000
00000
00000
,
30330
00000
00000
00000
;
