#TITLE:COCONUT;
#SUBTITLE:;
#ARTIST:SMILE.dk;
#TITLETRANSLIT:;
#SUBTITLETRANSLIT:;
#ARTISTTRANSLIT:;
#CREDIT:KEITARO + MANTIS;
#BANNER:banner.png;
#BACKGROUND:background.png;
#LYRICSPATH:lyrics.lrc;
#CDTITLE:!title.png;
#MUSIC:music.mp3;
#OFFSET:0.464;
#SAMPLESTART:9.553;
#SAMPLELENGTH:12.000;
#SELECTABLE:YES;
#BPMS:0.000=112.022;
#STOPS:;
#BGCHANGES:;
// cache tags:
#FIRSTBEAT:1.000;
#LASTBEAT:198.000;
#SONGFILENAME:Songs/Bemani.se Megapack/(Kasu) Coconut/steps.sm;
#HASMUSIC:1;
#HASBANNER:1;
#MUSICLENGTH:106.535;
// end cache tags

//---------------dance-single - KASU----------------
#NOTES:
     dance-single:
     KASU:
     Challenge:
     9:
     0.609,0.604,0.338,0.141,0.587,399.000,36.000,15.000,70.000,0.000:

0000
0000
0000
0000
0000
0000
0000
0000
1000
0000
0000
0000
0001
1000
0001
0000
0001
0000
0001
0000
1000
0000
1000
0000
1001
0000
0000
0000
0001
0000
1000
0000
,
0000
1000
0100
0000
M040
0M04
0000
0000
0030
0003
0000
0000
0000
0000
MM1M
0000
,
MM01
00M0
1M0M
0000
MM1M
0000
M0MM
0100
M0M0
0000
MMM1
0000
1MM0
000M
0000
M1M0
,
000M
M000
0M10
0000
0M04
40M0
0000
0000
0003
3000
0000
0000
0M00
000M
1000
0M00
,
00M1
0000
M000
0000
01M0
0000
M00M
0000
0M10
0000
1000
0010
1000
0000
0001
0000
0001
0000
0000
0000
1000
0000
0000
0000
0010
0000
0100
0000
0010
0000
1000
0000
,
0100
0000
1000
0001
1000
0100
1000
0000
1M1M
0000
M11M
0000
0010
0000
1000
0100
,
0000
1000
0010
1000
0001
0000
1M1M
0000
MM11
0000
11MM
0000
0100
1000
0100
1000
,
0010
0000
0100
0001
0100
0000
0001
0000
0010
0000
0000
0000
0001
0000
1000
0010
,
0000
1000
0100
0000
11MM
0000
0000
0000
1M1M
0000
0000
0000
0010
0100
0010
1000
,
0100
0000
1000
0001
1000
0001
0010
0000
1MM1
0000
1M1M
0000
0010
0000
1000
0100
,
0000
1000
0010
1000
0001
0000
MM11
0000
1M1M
0000
M11M
0000
0010
1000
0100
1000
,
0001
0000
0100
0001
0010
0000
0001
0000
1000
0000
0000
0000
0100
0000
0000
0000
,
1000
0000
0000
0000
0001
0000
0000
0000
0010
0000
0001
1000
0001
0000
0010
0000
0011
0000
0000
0000
0000
0000
0000
0000
1100
0000
0000
0000
0100
0000
1000
0000
,
0001
0000
1000
0001
1000
0100
1000
0100
0010
0000
0010
0000
0001
0000
0100
0001
,
0000
1000
0010
1000
0100
0000
1000
0000
0001
0000
0100
0000
0001
0010
0001
0100
,
0001
0000
0100
0010
1000
0001
0100
0000
0020
0000
0030
0000
0010
0000
0100
0010
,
0000
0010
1000
0000
0200
0000
0000
0300
2000
0000
0000
3000
0100
0000
1000
0010
,
1000
0000
0001
1000
0010
1000
0001
0100
0001
0000
0100
0000
0001
0000
0010
0001
,
0000
0100
0001
1000
0001
0000
1M1M
0000
M11M
0000
M1M1
0000
0001
1000
0001
1000
,
0100
0000
0010
0001
0010
0000
0001
0000
2000
0000
0000
0000
3020
0030
0000
0200
,
0300
0000
0000
0000
0002
0000
0003
0000
2000
0000
3000
0000
1000
0001
1000
0000
0001
0000
0001
0000
1000
0000
1000
0000
1001
0000
0000
0000
0000
0000
0002
0000
,
0000
0003
0020
0000
0030
0002
0003
0010
0001
0000
0100
0000
0010
0000
1000
0000
,
0001
0000
0100
0000
0001
0000
0000
0100
0000
0000
0000
0000
0010
0000
0000
1000
,
0000
0000
0010
0000
0000
0100
0000
0001
0010
0000
0100
0000
1000
0000
0001
0000
,
0100
0000
0010
0000
1000
0000
0000
0100
0000
0000
0000
0000
1000
0000
0000
0010
,
0000
0000
0100
0000
0000
0001
0000
0010
0100
0000
1000
0000
0000
0000
1000
0000
,
0100
0001
0100
1000
0010
0100
0000
0000
,
0100
0000
0001
0000
0000
0000
0000
0000
1000
0000
0200
0000
0000
0300
0010
0000
,
0001
0000
0100
0000
1000
0000
0100
0000
0000
0000
0000
0000
0010
0000
1000
0100
,
0000
0000
0100
0000
1000
0000
0000
0000
0100
1000
0100
1000
0100
1000
0100
1000
0100
0000
0000
0000
0000
0000
0000
0000
0000
0000
0000
0000
1000
0000
0000
0000
,
0001
0000
0100
0000
0001
0000
0000
0010
0000
0000
0100
0000
1000
0000
0000
0010
,
0000
0000
0000
0000
0100
0000
0000
0000
0001
0100
0001
0100
0001
0100
0001
0100
0001
0000
0000
0000
0000
0000
0000
0000
0000
0000
0000
0000
1000
0000
0000
0000
,
0010
0000
0000
0000
1000
0000
0000
0000
1000
0000
0001
0100
0001
0000
1000
0000
0010
0000
0000
0000
0000
0000
0000
0000
1000
0000
0000
0000
0000
0000
0010
0000
,
0000
0000
0100
0000
0000
0001
0000
0100
0001
0000
0010
0000
0100
0000
1000
0000
,
0010
0000
0100
0000
0001
0000
0000
0010
0000
0000
0000
0000
0100
0000
0000
1000
,
0000
0000
0001
0000
0000
0100
0000
0010
1000
0000
0100
0000
1000
0000
0001
0000
,
0100
0000
0001
0000
0010
0000
0000
0100
0000
0000
0000
0000
1000
0000
0000
0010
,
0000
0000
0100
0000
0000
0001
0000
1000
0010
0000
0100
0000
0000
0000
0001
0000
,
1000
0100
0010
0001
0100
0010
0000
0000
,
0100
0001
0000
0000
1000
0100
0000
0010
,
0001
0000
0000
0000
0100
0000
0000
0000
0010
0000
0100
0001
1000
0000
0100
0000
0010
0000
0001
0000
0010
0000
0000
0000
0001
0000
0000
0000
0100
0000
0000
0000
,
1000
0100
0110
0110
0110
0110
0000
0001
,
0000
1000
0100
0010
0001
1000
0000
0001
,
0100
0010
1010
0101
1010
0101
0000
0000
,
0001
0000
1000
0000
0000
0000
1000
0000
0010
1000
0100
0010
0000
0000
0010
0000
,
0100
1000
1100
0011
1100
0011
0000
1000
,
0000
0001
0010
0001
1000
0002
0003
1000
,
0010
0100
1001
1001
1001
1001
0000
0000
,
0001
0100
0000
0010
0100
0001
2002
0000
,
0000
0000
0000
0000
3003
0000
0000
0000
0000
0000
0001
1000
0001
0000
1000
0000
0001
0000
0000
0000
0000
0000
0000
0000
0000
0000
0000
0000
0000
0000
0000
0000
;

//---------------dance-single - KASU----------------
#NOTES:
     dance-single:
     KASU:
     Hard:
     8:
     0.578,0.534,0.225,0.066,0.479,400.000,24.000,7.000,0.000,0.000:

0000
0000
0000
0000
1000
0000
1000
0001
1000
0100
0010
0001
1000
0000
0100
0010
,
0000
0001
0010
0000
0001
0010
0001
0010
0001
0000
0000
0000
0000
0000
1000
0000
,
0010
0000
0100
0000
0001
0000
0000
1000
0000
0000
0100
0000
0010
0000
0000
0001
,
0000
0000
1000
0000
0010
1000
0010
1000
0010
0000
0000
0000
0000
0000
1000
0000
,
0100
0000
0010
0000
0001
0010
0001
0010
0100
0000
1000
0000
0010
0100
0010
0100
,
0010
0000
1000
0100
1000
0100
0010
0000
0001
0000
0010
0000
0100
0000
1000
0010
,
0000
1000
0001
0010
0001
0000
1000
0000
0001
0000
1001
0000
1000
0010
1000
0100
,
0010
0000
0001
1000
0001
0000
0100
0000
0010
0000
0000
0000
1000
0000
0100
0010
,
0000
0001
1000
0000
1100
0000
0000
0000
1010
0000
0000
0000
0100
0001
0010
0001
,
0010
0000
0100
1000
0100
1000
0010
0000
0100
0000
0001
0000
0010
0000
0100
0010
,
0000
0100
1000
0100
1000
0000
0010
0000
0100
0000
1001
0000
1000
0100
1000
0001
,
0010
0000
0001
0100
0010
0000
1000
0000
0100
0000
0000
0000
1000
0000
0000
0000
,
0010
0000
0100
0000
0001
0000
0010
0001
0010
0100
1000
0000
0010
0000
0100
0001
,
0100
0000
0010
1000
0010
1000
0100
0010
0001
0000
0010
0000
0100
0000
1000
0010
,
0000
1000
0010
0100
0001
0000
0100
0000
0010
0000
1000
0000
0100
1000
0010
1000
,
0010
0000
0100
0001
0100
0001
0010
0000
0100
0000
0000
0000
1000
0000
0001
1000
,
0000
0010
0100
0000
0010
0000
0000
0000
1000
0000
0000
0000
0100
0000
0010
0001
,
0010
0000
0100
1000
0100
1000
0010
0100
0001
0000
0010
0000
0100
0000
1000
0001
,
0000
1000
0010
0100
0010
0000
0100
0000
0010
0000
1000
0000
0100
0010
0001
0010
,
0100
0000
1000
0001
1000
0010
0100
0000
0001
0000
0000
0000
1000
0000
0000
0000
,
0100
0000
0010
0000
0001
0000
1000
0100
1000
0001
1000
0001
0100
0000
0000
0001
,
0000
0000
0010
0000
0000
0100
0000
1000
0010
0000
1000
0000
0001
0000
0100
0000
,
0010
0000
0100
0000
1000
0000
0000
0100
0000
0000
0000
0000
0010
0000
0000
1000
,
0000
0000
0100
0000
0000
0001
0000
0100
0010
0000
0001
0000
1000
0000
0010
0000
,
0100
0000
0001
0000
2000
0000
0000
3020
0000
0000
0000
0030
0200
0000
0000
0301
,
0000
0000
0020
0000
0030
0100
0000
1000
0010
0000
1000
0000
0000
0000
0001
0000
,
0100
0010
1000
0100
0010
0001
0010
0000
,
0001
0000
2000
0000
0000
0000
3000
0000
0010
0000
0200
0000
0000
0300
0001
0000
,
0010
0000
0001
0000
0010
0000
0011
0000
1000
0000
0001
0000
1000
0000
0010
0100
,
0000
0010
1000
0000
0100
1000
0100
1000
0100
0000
0000
0000
0000
0000
0010
0000
,
0001
0000
1000
0000
0010
0000
0000
0100
0000
0000
0001
0000
1000
0000
0000
0100
,
0000
0000
0010
0000
0001
0010
0001
0010
0001
0000
0000
0000
0000
0000
1000
0000
,
0010
0000
0100
0000
0001
1000
0100
1000
0010
0000
0000
0000
1010
0000
0000
1000
,
0000
0000
0100
0000
0000
0010
0000
0001
1000
0000
0001
0000
0100
0000
0001
0000
,
1000
0000
0100
0000
0010
0000
0000
0001
0000
0000
0000
0000
0100
0000
0000
0010
,
0000
0000
1000
0000
0000
0100
0000
0010
0001
0000
1000
0000
0010
0000
0100
0000
,
0001
0000
1000
0000
0100
0000
0000
1000
0000
0000
0000
0000
0010
0000
0000
0100
,
0000
0000
0001
0000
0000
0010
0000
0100
1000
0000
0001
0000
0000
0000
0100
0000
,
0010
1000
0010
0100
0010
1000
0100
0000
,
0010
0001
0000
0000
1000
0002
0000
0103
,
0010
0000
1000
0000
0010
0000
1010
0000
1000
0100
0010
0001
0010
0000
0100
0000
,
1000
0010
0110
0110
0110
0110
0000
1000
,
0000
0100
0010
0001
0010
0011
0000
0010
,
0100
1000
1001
1001
1001
1001
0000
0000
,
1000
0000
0010
0000
0000
0000
0100
0000
0001
0010
0100
1000
0010
0000
0100
0000
,
0010
0100
1010
1100
0110
1001
0000
1000
,
0000
0010
0100
0001
0010
0100
0000
1000
,
0001
0100
0110
0110
0110
0110
0000
0000
,
1000
0001
0000
0010
0100
1000
0001
0000
,
0000
0000
0000
0000
0000
0010
0001
1000
0100
0000
0000
0000
0000
0000
0000
0000
;

//---------------dance-single - KASU----------------
#NOTES:
     dance-single:
     KASU:
     Medium:
     7:
     0.532,0.462,0.150,0.638,0.192,313.000,16.000,68.000,0.000,0.000:

0000
0000
0000
0000
0000
0000
0000
0000
0000
0000
0000
0000
1000
0000
0001
1000
,
0000
0100
1000
0000
0020
0000
0000
0000
0000
0000
0000
0000
0000
0030
0100
0000
,
0001
0000
1000
0000
0100
0000
0000
0010
0000
0000
0001
0000
1000
0000
0000
0010
,
0000
0100
0002
0000
0000
0000
0003
0010
,
0100
1000
0002
0000
0000
0003
0100
0010
,
1000
0000
0100
0000
0010
0000
0001
0000
0200
0000
0000
0300
0001
0000
1000
0100
,
0000
1000
0010
0000
0100
0000
0001
0000
0010
0000
0100
0000
1000
0000
0010
0000
,
0100
0000
0001
0000
0010
0000
0100
0000
2000
0000
0000
3000
0001
0000
0100
0010
,
0000
1000
0100
0000
0020
0000
0000
0030
0001
0000
0000
0000
0001
0000
1000
0000
,
0100
0000
0010
0000
0001
0000
0100
0000
0020
0000
0000
0030
1000
0000
0100
0010
,
0000
0001
0010
0000
0100
0000
1000
0000
0010
0000
0100
0000
0001
0000
0010
0000
,
0100
0000
1000
0000
0010
0000
0010
0000
0200
0000
0000
0300
0002
0000
0000
0000
,
1003
0000
0100
0000
0020
0000
0000
0030
0002
0000
0000
0000
1003
0000
0010
0000
,
0100
0000
0001
0000
0010
0000
0100
0000
1000
0000
0001
0000
0100
0000
0010
1000
,
0000
0010
1000
0000
0100
0000
0010
0000
0001
0000
0100
0000
0010
0000
1000
0000
,
0100
0000
1000
0000
0010
0000
0100
0000
0002
0000
0000
0000
0013
0000
0001
0010
,
0000
0100
1000
0000
0010
0000
0100
0000
0002
0000
0000
0003
1000
0000
0100
0000
,
0010
0000
0001
0000
0100
0000
0010
0000
1000
0000
0010
0000
0100
0000
0001
0010
,
0000
0001
0010
0000
0100
0000
1000
0000
0010
0000
0100
0000
0001
0000
1000
0000
,
0100
0000
0010
0000
0100
0000
1000
0000
0002
0000
0000
0003
0200
0000
0000
0010
,
0300
0000
1000
0000
0200
0000
0000
0000
0320
0000
0030
0000
0002
0000
0000
2003
,
0000
3000
0020
0000
0030
0100
0000
0001
1000
0000
0100
0000
0010
0000
0001
0000
,
0100
0000
0010
0000
2000
0000
0000
3200
0000
0000
0000
0300
0020
0000
0000
0032
,
0000
0003
0200
0000
0000
0310
0000
1000
0100
0000
1000
0000
0010
0000
0100
0000
,
0001
0000
0010
0000
0002
0000
0000
2003
0000
0000
0000
0000
3020
0000
0000
0230
,
0000
0300
0002
0000
0000
1003
0000
0100
0010
0000
0002
0000
0000
0000
1003
0000
,
0001
0000
0100
0000
0010
0000
1000
0000
0010
0000
0200
0000
0000
0000
0000
0300
,
0001
0000
0020
0000
0000
0000
0000
0030
0100
0000
2000
0000
0000
0000
3001
0000
,
0100
0010
1000
0200
0000
0000
0300
0010
,
0001
0000
1000
0000
0010
0000
0100
0000
0002
0000
0000
0000
0000
0003
0010
0000
,
0100
0000
1000
0000
0002
0000
0000
0203
0000
0300
0010
0000
2000
0000
3000
0200
,
0000
1300
0010
0100
0002
0000
0000
0013
,
0100
0000
1000
0000
0001
0000
0100
0000
0020
0000
0000
0000
2030
0000
0000
3100
,
0000
0000
0020
0000
0000
0031
0000
1000
0001
0000
0100
0000
0010
0000
1000
0000
,
0010
0000
0100
0000
0002
0000
0000
0023
0000
0000
0000
0030
0002
0000
0000
1003
,
0000
0000
0020
0000
0000
0130
0000
0001
1000
0000
0100
0000
0010
0000
0001
0000
,
1000
0000
0001
0000
0200
0000
0300
0020
0000
0000
0000
0000
2030
0000
0000
3200
,
0000
0300
0020
0000
0030
0001
0000
1000
0001
0000
0200
0000
0000
0300
0010
0000
,
1000
0010
0100
0001
0010
0100
2000
0000
,
3001
0000
0200
0000
0000
0000
0000
0300
0010
0000
2000
0000
0000
3000
0010
0000
,
0100
0001
0010
0002
0000
0000
0003
1000
,
0010
0100
1001
1001
1001
1001
0000
2000
,
0000
3100
1000
0001
0100
0020
0000
1030
,
0010
0000
0100
0000
0101
0000
0101
0000
0101
0000
0102
0000
0000
0003
0000
0000
,
0010
0000
0200
0000
0000
0000
1300
0000
0010
0000
0200
0000
0000
0300
0001
0000
,
1000
0100
0110
0110
0110
0110
0000
0020
,
0030
0001
0100
0010
1000
0020
0030
0100
,
0001
0010
0011
0011
0011
0021
0000
0030
,
0010
0200
0000
1300
0010
0100
0002
0000
,
0000
0003
0000
0000
;

//---------------dance-single - KASU----------------
#NOTES:
     dance-single:
     KASU:
     Easy:
     5:
     0.346,0.322,0.000,0.009,0.000,257.000,0.000,1.000,0.000,0.000:

0000
0000
0000
0001
,
1000
0000
0010
0000
0000
0000
0000
0100
,
0001
1000
0100
0000
0010
0000
0001
0000
,
1000
0000
0010
0000
0000
0000
0000
0100
,
0001
1000
0100
0000
0000
0000
0010
0000
,
0001
0000
1000
0010
0100
0000
0001
0000
,
1000
0000
0100
0010
0001
1000
0010
0000
,
0100
0001
1000
0100
,
0010
0001
1000
0000
0010
0000
0100
0001
,
1000
0100
0010
0000
0001
0000
1000
0000
,
0010
0100
0001
1000
0100
0000
0010
0000
,
0001
0000
1000
0010
0100
0000
0001
0000
,
1000
0001
0100
0000
0010
0000
1000
0001
,
0100
0001
1000
0001
0100
0000
0001
0000
,
1000
0000
0100
0010
0001
1000
0001
0100
,
0001
1000
0001
0100
0001
0000
1000
0000
,
0010
0100
0001
0000
1000
0000
0010
1000
,
0100
1000
0010
1000
0100
0000
0010
0000
,
0001
0000
1000
0010
0100
0001
1000
0000
,
0001
0000
0010
0100
1000
0000
0001
0000
,
0100
0010
1000
0000
0001
0000
1000
0000
,
0001
0000
0100
0010
1000
0000
0001
0000
,
0010
0000
0100
1000
0001
0000
0100
0000
,
0010
0000
1000
0010
0100
0000
0001
0000
,
0010
0000
0100
1000
0001
0000
0100
0000
,
0010
0000
1000
0010
0100
0000
0001
0000
,
0010
0000
0100
1000
0001
0100
0001
0000
,
1000
0100
0010
0000
0001
1000
0010
0100
,
0001
1000
0100
1000
0001
0000
0100
0000
,
0001
0000
1000
0001
1000
0000
0100
0000
,
0010
0000
0100
0010
0100
0000
0010
0000
,
0001
0000
0010
0001
0010
0000
0001
0000
,
1000
0000
0001
1000
0001
0000
1000
0000
,
0010
0000
0100
0001
1000
0000
0100
0000
,
0010
0000
0001
1000
0010
0000
0100
0000
,
0001
0000
1000
0100
0010
0000
0001
0000
,
1000
0000
0010
0100
0001
0000
1000
0000
,
0100
0000
0010
0001
1000
0000
0010
0000
,
0100
0000
0001
1000
0010
0100
0001
0000
,
1000
0100
1000
0000
0010
0100
0001
1000
,
0100
1000
0010
1000
0001
0000
1000
0000
,
0010
0000
1000
0001
1000
0001
0000
1000
,
0000
0100
0010
0001
1000
0001
0000
1000
,
0000
0001
0000
1000
0010
0100
0000
0001
,
0000
1000
0100
0010
0001
1000
0000
0000
,
0010
0000
0100
0001
1000
0100
0000
0010
,
0000
0001
1000
0000
0010
0000
0100
0001
,
1000
0000
0100
0010
0001
1000
0000
0000
,
0010
0100
0000
0001
1000
0200
0000
0000
,
0300
0000
0000
0000
;
