#TITLE:Dragon Roost Island;
#SUBTITLE:(From LOZ The Wind Waker);
#ARTIST:近藤浩治;
#TITLETRANSLIT:;
#SUBTITLETRANSLIT:;
#ARTISTTRANSLIT:Koji Kondo;
#CREDIT:Nintendo;
#BANNER:Dragon Roost-banner.bmp;
#BACKGROUND:Dragon Roost-bg.JPG;
#LYRICSPATH:;
#CDTITLE:PhoenixW-cdtitle.JPG;
#MUSIC:08 Track 8.mp3;
#OFFSET:-0.609;
#SAMPLESTART:38.979;
#SAMPLELENGTH:12.000;
#SELECTABLE:YES;
#BPMS:0.000=168.880;
#STOPS:;
#BGCHANGES:12.000=Wind Waker-sb1.jpg=1.000=0=0=1,
28.000=wind waker-sb2.PNG=1.000=0=0=1,
36.000=Wind waker-sb3.JPG=1.000=0=0=1,
44.000=Wind waker-sb4.JPG=1.000=0=0=1,
52.000=Wind Waker-sb5.JPG=1.000=0=0=1,
60.000=Dragon Roost-sb1.JPG=1.000=0=0=1,
68.000=Dragon Roost-sb2.JPG=1.000=0=0=1,
76.000=Dragon Roost-sb3.jpg=1.000=0=0=1,
84.000=Dragon Roost-sb4.jpg=1.000=0=0=1,
92.000=Dragon Roost-sb5.jpg=1.000=0=0=1,
100.000=Dragon Roost-sb6.jpg=1.000=0=0=1,
108.000=Dragon Roost-sb7.jpg=1.000=0=0=1,
116.000=Dragon Roost-sb8.jpg=1.000=0=0=1,
124.000=Dragon Roost-sb10.jpg=1.000=0=0=1,
132.000=Dragon Roost-sb9.jpg=1.000=0=0=1,
140.000=Dragon Roost-sb10.jpg=1.000=0=0=1,
148.000=Dragon Roost-sb11.jpg=1.000=0=0=1,
156.000=Dragon Roost-sb13.jpg=1.000=0=0=1,
164.000=Dragon Roost-sb14.jpg=1.000=0=0=1,
172.000=Dragon Roost-sb15.jpg=1.000=0=0=1,
180.000=Dragon Roost-sb16.JPG=1.000=0=0=1,
188.000=Dragon Roost-sb17.JPG=1.000=0=0=1,
196.000=Dragon Roost-sb18.jpg=1.000=0=0=1,
204.000=Dragon Roost-sb19.jpg=1.000=0=0=1,
212.000=Completion-sb1.jpg=1.000=0=0=1,
228.000=Dragon Roost-sb1.JPG=1.000=0=0=1,
236.000=Dragon Roost-bg.JPG=1.000=0=0=1,
99999=-nosongbg-=1.000=0=0=0 // don't automatically add -songbackground-
;
// cache tags:
#FIRSTBEAT:1.500;
#LASTBEAT:250.000;
#SONGFILENAME:Songs/dragon force/Dragon Roost Island(From LOZ The Wind Waker)/08 Track 8.sm;
#HASMUSIC:1;
#HASBANNER:1;
#MUSICLENGTH:97.102;
// end cache tags

//---------------dance-single - ----------------
#NOTES:
     dance-single:
     :
     Challenge:
     9:
     0.558,0.805,0.113,0.587,0.639,311.000,11.000,57.000,0.000,3.000:
0000
0000
0000
0000
,
0000
0000
0000
0000
,
0000
0000
0000
0000
0000
0000
0000
0000
0000
0000
0000
0000
0000
0000
1000
0100
,
1000
0010
0000
0100
0001
0000
0010
0000
0010
0000
0001
1000
0001
1000
0000
0010
,
0000
0100
0000
0000
0001
0100
0001
0010
0000
0100
1000
0100
0010
0100
0000
0000
,
0000
1000
0010
1000
0010
0000
0000
0100
0000
0010
0000
0001
0200
0000
0000
0000
,
0000
0300
0001
2000
0000
0000
0000
0000
3020
0000
0000
0000
0000
0000
2030
0000
,
0000
3002
0000
0000
,
0203
0000
0000
0000
0000
0000
0000
0000
0300
0010
0100
0000
0220
0000
0000
0000
,
0000
0330
0000
1000
0020
0000
0000
0000
0000
0230
0000
0000
0000
0000
0302
0000
,
0000
1203
0000
0000
,
0000
0000
0000
0000
0000
0000
0000
0000
0300
1000
0010
0000
0200
0000
0000
0000
,
0000
0020
0300
0000
0000
0000
0000
0000
,
0030
1000
0001
0000
0020
0000
0000
0000
0000
0000
0200
0000
0030
0000
0000
0000
,
0000
0000
0000
0000
0000
0000
0000
0000
0300
0010
0001
0000
2000
0000
0000
0000
,
0000
0020
3000
0000
0000
0000
0000
0000
,
0000
1030
0200
0000
0000
0000
0000
0000
,
0010
1000
0010
0001
,
0010
0000
1301
1100
,
0101
0000
0000
0000
1001
0000
0000
0000
1000
0100
0000
0000
0010
0000
0001
0000
,
1000
0000
1000
0100
1000
0001
0010
0001
1000
0000
0000
0000
1001
1000
0100
0010
,
0001
1000
0001
0100
0010
0000
1000
0010
0000
0000
1000
0000
0100
0000
0010
0001
,
0010
0100
0000
1000
0020
0000
0000
0000
0000
0030
0100
0002
0000
0000
0000
0000
,
0203
0000
0000
0302
0000
0000
0023
0000
,
0000
0000
2030
0000
,
3000
0010
0100
0000
0202
0000
0000
0000
0000
0303
0000
0010
2000
0000
0000
0000
,
0000
3002
0000
0000
0000
0000
0203
0000
0000
0000
0000
0000
1320
0000
0000
0000
,
0000
0000
0000
0000
,
0030
1000
0001
0000
0020
0000
0000
0000
0000
0000
0200
0000
0030
0000
0000
0000
,
0000
0000
0000
0000
0000
0000
0000
0000
0300
0010
0001
0000
2000
0000
0000
0000
,
0000
0200
3000
0000
0000
0000
0000
0000
,
0300
0010
1000
0000
0002
0000
0000
0000
0000
0000
2000
0000
0003
0000
0000
0000
,
0000
0000
0000
0000
0000
3100
0020
0000
,
0000
0000
0100
0000
0000
1000
0000
0000
0000
0000
0000
0000
1000
0000
0000
0100
,
0000
0000
0000
0000
0000
0000
0000
0000
0000
0000
0001
0000
0000
0100
0000
0000
,
0000
0000
0000
0000
0100
0000
0000
0001
0000
0000
0130
0000
0001
0010
0001
1000
,
0100
0010
0001
0010
0100
0000
0000
0000
0010
1000
0010
0100
0001
0010
0100
1000
,
0001
0000
0000
0000
0000
0000
0001
0010
0001
0100
0000
0010
1000
0000
0100
0000
,
0100
0000
1000
0001
1000
0001
0000
0100
0000
0010
0000
0000
1000
0010
1000
0100
,
0000
0010
0001
0010
0100
0010
0000
0000
0000
0001
0100
0001
0100
0000
0010
1000
,
0010
0100
0000
0000
1001
0000
0000
0000
0001
0010
0000
0000
0100
0000
1000
0000
,
0001
0000
0001
0010
0001
1000
0100
1000
0001
0000
0000
0000
1001
0001
0010
0100
,
1000
0001
1000
0010
0100
0000
0001
0100
0000
0000
0001
0000
0010
0000
0100
1000
,
0100
0000
0010
0001
0000
0200
0000
0000
0000
0000
0320
0000
0000
0000
0000
0000
,
0230
0000
0000
0000
0000
0320
0000
0000
0000
0000
0000
0000
2030
0000
0000
0000
,
0000
0000
0000
0000
0000
0000
0000
0000
0000
0000
0000
0000
0000
0000
3000
0001
,
0100
0010
2000
0000
0000
0000
0000
0000
,
0000
0000
0000
0000
0000
3100
0020
0000
,
0000
0000
0000
0000
,
0030
0000
0100
0010
0000
0002
0000
0000
0000
0000
2003
0000
0000
0000
0000
0000
,
3002
0000
0000
0000
0000
2003
0000
0000
0000
0000
0000
0000
3200
0000
0000
0000
,
0000
0000
0000
0000
0000
0000
0000
0000
0000
0000
0000
0000
0000
0000
0300
0010
,
0001
1000
0200
0000
0000
0000
0000
0000
,
0000
0000
0000
0000
0000
0000
0000
0000
0000
0000
0301
0000
1000
0100
1000
0001
,
0010
0100
1000
0100
0010
0000
0000
0000
0100
0001
0100
0010
1000
0100
0010
0001
,
1000
0000
0000
1000
0100
0000
0010
0000
0001
1000
0000
0100
0000
0000
0000
1000
,
0000
0010
0100
0010
0100
0001
1000
0001
0100
0001
0010
0000
0000
0000
0100
0010
,
0100
1000
0000
0010
0001
0000
1000
0000
1000
0000
0001
0100
0001
0100
0000
1000
,
0000
0010
0000
0000
0001
0010
0001
1000
0000
0010
0100
0010
1000
0010
0000
0000
,
0000
0100
1000
0100
1000
0000
0000
0010
0000
1000
0000
0001
0020
0000
0000
0000
,
0000
0030
0001
0200
0000
0000
0000
0000
2300
0000
0000
0000
0000
0000
3200
0000
,
0000
0302
0000
0000
,
0023
0000
0030
0000
;

//---------------dance-single - Copied from----------------
#NOTES:
     dance-single:
     Copied from:
     Hard:
     9:
     0.558,0.805,0.113,0.587,0.633,311.000,11.000,57.000,0.000,3.000:
0000
0000
0000
0000
,
0000
0000
0000
0000
,
0000
0000
0000
0000
0000
0000
0000
0000
0000
0000
0000
0000
0000
0000
1000
0100
,
1000
0100
0000
0010
0001
0000
0010
0000
0010
0000
0001
1000
0001
1000
0000
0010
,
0000
0100
0000
0000
0001
0100
0001
0100
0000
0010
0001
0010
0100
0010
0000
0000
,
0000
1000
0010
1000
0010
0000
0000
0100
0000
0010
0000
0001
0200
0000
0000
0000
,
0000
0300
0001
2000
0000
0000
0000
0000
3020
0000
0000
0000
0000
0000
2030
0000
,
0000
3002
0000
0000
,
0203
0000
0000
0000
0000
0000
0000
0000
0300
0010
0100
0000
0220
0000
0000
0000
,
0000
0330
0000
1000
0020
0000
0000
0000
0000
0230
0000
0000
0000
0000
0302
0000
,
0000
1203
0000
0000
,
0000
0000
0000
0000
0000
0000
0000
0000
0300
1000
0010
0000
0200
0000
0000
0000
,
0000
0020
0300
0000
0000
0000
0000
0000
,
0030
1000
0001
0000
0020
0000
0000
0000
0000
0000
0200
0000
0030
0000
0000
0000
,
0000
0000
0000
0000
0000
0000
0000
0000
0300
0010
0001
0000
2000
0000
0000
0000
,
0000
0020
3000
0000
0000
0000
0000
0000
,
0000
1030
0200
0000
0000
0000
0000
0000
,
0010
1000
0010
0001
,
0010
0000
1301
1100
,
0101
0000
0000
0000
1001
0000
0000
0000
1000
0100
0000
0000
0010
0000
0001
0000
,
1000
0000
1000
0100
1000
0001
0010
0001
1000
0000
0000
0000
1001
1000
0100
1000
,
0001
1000
0001
0100
0010
0000
1000
0010
0000
0000
1000
0000
0100
0000
0010
0001
,
0010
0001
0000
1000
0020
0000
0000
0000
0000
0030
0100
0002
0000
0000
0000
0000
,
0203
0000
0000
0302
0000
0000
0023
0000
,
0000
0000
2030
0000
,
3000
0010
0100
0000
0202
0000
0000
0000
0000
0303
0000
0010
2000
0000
0000
0000
,
0000
3002
0000
0000
0000
0000
0203
0000
0000
0000
0000
0000
1320
0000
0000
0000
,
0000
0000
0000
0000
,
0030
1000
0001
0000
0020
0000
0000
0000
0000
0000
0200
0000
0030
0000
0000
0000
,
0000
0000
0000
0000
0000
0000
0000
0000
0300
0010
0001
0000
2000
0000
0000
0000
,
0000
0200
3000
0000
0000
0000
0000
0000
,
0300
0010
1000
0000
0002
0000
0000
0000
0000
0000
2000
0000
0003
0000
0000
0000
,
0000
0000
0000
0000
0000
3100
0020
0000
,
0000
0000
0100
0000
0000
1000
0000
0000
0000
0000
0000
0000
1000
0000
0000
0100
,
0000
0000
0000
0000
0000
0000
0000
0000
0000
0000
0001
0000
0000
0100
0000
0000
,
0000
0000
0000
0000
0100
0000
0000
0001
0000
0000
0130
0000
0001
0010
0001
1000
,
0100
0010
0001
0010
0001
0000
0000
0000
0010
0001
0010
0100
1000
0100
1000
0100
,
0010
0000
0000
0000
0000
0000
0001
0010
0001
0010
0000
0100
1000
0000
0100
0000
,
0100
0000
1000
0001
1000
0001
0000
0100
0000
0010
0000
0000
1000
0010
1000
0010
,
0000
0100
0010
0100
0001
0100
0000
0000
0000
0001
0100
0001
0100
0000
0010
1000
,
0010
1000
0000
0000
1001
0000
0000
0000
0001
0010
0000
0000
0100
0000
1000
0000
,
0001
0000
0001
0010
0001
1000
0100
1000
0001
0000
0000
0000
1001
0001
0010
0001
,
1000
0001
1000
0010
0100
0000
0001
0100
0000
0000
0001
0000
0010
0000
0100
1000
,
0100
0000
0010
0001
0000
0200
0000
0000
0000
0000
0320
0000
0000
0000
0000
0000
,
0230
0000
0000
0000
0000
0320
0000
0000
0000
0000
0000
0000
2030
0000
0000
0000
,
0000
0000
0000
0000
0000
0000
0000
0000
0000
0000
0000
0000
0000
0000
3000
0001
,
0100
0010
2000
0000
0000
0000
0000
0000
,
0000
0000
0000
0000
0000
3100
0020
0000
,
0000
0000
0000
0000
,
0030
0000
0100
0010
0000
0002
0000
0000
0000
0000
2003
0000
0000
0000
0000
0000
,
3002
0000
0000
0000
0000
2003
0000
0000
0000
0000
0000
0000
3200
0000
0000
0000
,
0000
0000
0000
0000
0000
0000
0000
0000
0000
0000
0000
0000
0000
0000
0300
0010
,
0001
1000
0200
0000
0000
0000
0000
0000
,
0000
0000
0000
0000
0000
0000
0000
0000
0000
0000
0301
0000
1000
0100
1000
0001
,
0010
0100
1000
0100
1000
0000
0000
0000
0100
1000
0100
0010
0001
0010
0001
0010
,
0100
0000
0000
1000
0100
0000
0010
0000
0001
1000
0000
0100
0000
0000
0000
1000
,
0000
0010
0100
0010
0100
0001
1000
0001
0100
0001
0100
0000
0000
0000
0010
0100
,
0010
1000
0001
0000
0010
0000
1000
0000
1000
0000
0001
0100
0001
0100
0000
1000
,
0000
0010
0000
0000
0001
0010
0001
1000
0000
0010
0100
0010
1000
0010
0000
0000
,
0000
0100
1000
0100
1000
0000
0000
0010
0000
1000
0000
0001
0020
0000
0000
0000
,
0000
0030
0001
0200
0000
0000
0000
0000
2300
0000
0000
0000
0000
0000
3200
0000
,
0000
0302
0000
0000
,
0023
0000
0030
0000
;

//---------------dance-single - ----------------
#NOTES:
     dance-single:
     :
     Medium:
     7:
     0.458,0.579,0.165,0.587,0.165,238.000,16.000,57.000,0.000,3.000:
0000
0000
0000
0000
,
0000
0000
0000
0000
,
0000
0000
0000
0000
0000
0000
1000
1000
,
0100
0010
0000
0001
0010
0010
0001
0000
,
1001
0000
1000
0100
1000
0010
0010
0000
,
0100
0000
0001
0000
1000
0000
0100
0000
0010
0000
0000
0001
0200
0000
0000
0000
,
0000
0300
0001
2000
0000
0000
0000
0000
3020
0000
0000
0000
0000
0000
2030
0000
,
0000
3002
0000
0000
,
0203
0000
0000
0000
0000
0000
0000
0000
0300
0010
0100
0000
0220
0000
0000
0000
,
0000
0330
0000
1000
0020
0000
0000
0000
0000
0230
0000
0000
0000
0000
0302
0000
,
0000
1203
0000
0000
,
0000
0000
0000
0000
0000
0000
0000
0000
0300
1000
0010
0000
0200
0000
0000
0000
,
0000
0020
0300
0000
0000
0000
0000
0000
,
0030
1000
0001
0000
0020
0000
0000
0000
0000
0000
0200
0000
0030
0000
0000
0000
,
0000
0000
0000
0000
0000
0000
0000
0000
0300
0010
0001
0000
2000
0000
0000
0000
,
0000
0020
3000
0000
0000
0000
0000
0000
,
0000
1030
0200
0000
0000
0000
0000
0000
,
0010
1000
0010
0001
,
0010
0000
1301
1100
,
0101
0000
1001
0000
1000
0000
0100
0001
,
0100
0100
1000
0001
1001
0000
0001
0001
,
0100
0010
0010
1000
0100
0000
0010
0000
,
0001
0000
0000
1000
0020
0000
0000
0000
0000
0030
0100
0002
0000
0000
0000
0000
,
0203
0000
0000
0302
0000
0000
0023
0000
,
0000
0000
2030
0000
,
3000
0010
0100
0000
0202
0000
0000
0000
0000
0303
0000
0010
2000
0000
0000
0000
,
0000
3002
0000
0000
0000
0000
0203
0000
0000
0000
0000
0000
1320
0000
0000
0000
,
0000
0000
0000
0000
,
0030
1000
0001
0000
0020
0000
0000
0000
0000
0000
0200
0000
0030
0000
0000
0000
,
0000
0000
0000
0000
0000
0000
0000
0000
0300
0010
0001
0000
2000
0000
0000
0000
,
0000
0200
3000
0000
0000
0000
0000
0000
,
0300
0010
1000
0000
0002
0000
0000
0000
0000
0000
2000
0000
0003
0000
0000
0000
,
0000
0000
0000
0000
0000
3100
0020
0000
,
0000
0000
0100
0000
0000
1000
0000
0000
0000
0000
0000
0000
1000
0000
0000
0100
,
0000
0000
0000
0000
0000
0000
0000
0000
0000
0000
0001
0000
0000
0100
0000
0000
,
0000
0000
0000
0000
0100
0000
0000
0001
0000
0000
0130
0000
0001
0000
0001
0000
,
0001
1000
1000
0000
0010
0010
0010
0100
,
0100
0000
0101
0000
0010
1000
0010
0100
,
0100
0000
0001
1000
0100
0010
1001
0000
,
1000
0010
0010
0100
0001
0000
1000
0010
,
0010
0100
1001
0000
0001
0000
0100
1000
,
0100
0001
0010
0010
0010
0000
1001
0100
,
0100
0100
1000
0000
1000
0100
0010
0010
,
0001
0000
0000
0001
0000
0200
0000
0000
0000
0000
0320
0000
0000
0000
0000
0000
,
0230
0000
0000
0000
0000
0320
0000
0000
0000
0000
0000
0000
2030
0000
0000
0000
,
0000
0000
0000
0000
0000
0000
0000
0000
0000
0000
0000
0000
0000
0000
3000
0001
,
0100
0010
2000
0000
0000
0000
0000
0000
,
0000
0000
0000
0000
0000
3100
0020
0000
,
0000
0000
0000
0000
,
0030
0000
0100
0010
0000
0002
0000
0000
0000
0000
2003
0000
0000
0000
0000
0000
,
3002
0000
0000
0000
0000
2003
0000
0000
0000
0000
0000
0000
3200
0000
0000
0000
,
0000
0000
0000
0000
0000
0000
0000
0000
0000
0000
0000
0000
0000
0000
0300
0010
,
0001
1000
0200
0000
0000
0000
0000
0000
,
0000
0000
0000
0000
0000
0301
0010
0010
,
0010
1000
1000
0000
0100
0100
0100
0010
,
0010
0000
0101
0000
1000
0010
1000
0001
,
0001
0000
1000
0100
1000
0100
1000
0000
0010
0000
0000
0000
1001
0000
0000
0000
,
1000
0010
0100
0100
0001
0010
0010
0010
,
0001
1000
0010
0010
0010
0100
0001
1000
,
0000
0000
0010
0000
0010
0000
0100
0000
0001
0000
0000
0001
0020
0000
0000
0000
,
0000
0030
0001
0200
0000
0000
0000
0000
2300
0000
0000
0000
0000
0000
3200
0000
,
0000
0302
0000
0000
,
0023
0000
0030
0000
;

//---------------dance-single - Copied from----------------
#NOTES:
     dance-single:
     Copied from:
     Easy:
     5:
     0.427,0.483,0.443,0.587,0.154,190.000,43.000,57.000,0.000,3.000:
0000
0000
0000
1000
0000
1000
0000
1001
,
0000
0110
0000
1001
0000
0010
0000
0001
,
0000
0101
0000
0010
0000
1010
0100
0000
,
0010
0100
0011
0011
,
1001
0010
1000
1000
,
0110
0000
0000
0000
1010
0000
0000
0000
1010
0000
0000
0001
0200
0000
0000
0000
,
0000
0300
0001
2000
0000
0000
0000
0000
3020
0000
0000
0000
0000
0000
2030
0000
,
0000
3002
0000
0000
,
0203
0000
0000
0000
0000
0000
0000
0000
0300
0010
0100
0000
0220
0000
0000
0000
,
0000
0330
0000
1000
0020
0000
0000
0000
0000
0230
0000
0000
0000
0000
0302
0000
,
0000
1203
0000
0000
,
0000
0000
0000
0000
0000
0000
0000
0000
0300
1000
0010
0000
0200
0000
0000
0000
,
0000
0020
0300
0000
0000
0000
0000
0000
,
0030
1000
0001
0000
0020
0000
0000
0000
0000
0000
0200
0000
0030
0000
0000
0000
,
0000
0000
0000
0000
0000
0000
0000
0000
0300
0010
0001
0000
2000
0000
0000
0000
,
0000
0020
3000
0000
0000
0000
0000
0000
,
0000
1030
0200
0000
0000
0000
0000
0000
,
0000
0000
0000
0000
,
0000
0000
1301
1100
,
0101
1001
1000
0001
,
1010
1001
0101
0010
,
0100
0110
0010
1001
,
0001
0000
0000
1000
0020
0000
0000
0000
0000
0030
0100
0002
0000
0000
0000
0000
,
0203
0000
0000
0302
0000
0000
0023
0000
,
0000
0000
2030
0000
,
3000
0010
0100
0000
0202
0000
0000
0000
0000
0303
0000
0010
2000
0000
0000
0000
,
0000
3002
0000
0000
0000
0000
0203
0000
0000
0000
0000
0000
1320
0000
0000
0000
,
0000
0000
0000
0000
,
0030
1000
0001
0000
0020
0000
0000
0000
0000
0000
0200
0000
0030
0000
0000
0000
,
0000
0000
0000
0000
0000
0000
0000
0000
0300
0010
0001
0000
2000
0000
0000
0000
,
0000
0200
3000
0000
0000
0000
0000
0000
,
0300
0010
1000
0000
0002
0000
0000
0000
0000
0000
2000
0000
0003
0000
0000
0000
,
0000
0000
0000
0000
0000
3100
0020
0000
,
0000
0000
0100
0000
0000
1000
0000
0000
0000
0000
0000
0000
1000
0000
0000
0100
,
0000
0000
0000
0000
0000
0000
0000
0000
0000
0000
0001
0000
0000
0100
0000
0000
,
0000
0000
0000
0000
0100
0000
0000
0001
0000
0000
0030
0000
1000
0000
0000
0000
,
0001
1000
0010
0100
,
0010
1000
0001
0100
,
1100
0110
0101
0010
,
0001
0001
1000
1001
,
0110
1000
0010
0010
,
0011
1001
1010
0001
,
1000
1000
0110
1001
,
0100
0000
0000
0001
0000
0200
0000
0000
0000
0000
0320
0000
0000
0000
0000
0000
,
0230
0000
0000
0000
0000
0320
0000
0000
0000
0000
0000
0000
2030
0000
0000
0000
,
0000
0000
0000
0000
0000
0000
0000
0000
0000
0000
0000
0000
0000
0000
3000
0001
,
0100
0010
2000
0000
0000
0000
0000
0000
,
0000
0000
0000
0000
0000
3100
0020
0000
,
0000
0000
0000
0000
,
0030
0000
0100
0010
0000
0002
0000
0000
0000
0000
2003
0000
0000
0000
0000
0000
,
3002
0000
0000
0000
0000
2003
0000
0000
0000
0000
0000
0000
3200
0000
0000
0000
,
0000
0000
0000
0000
0000
0000
0000
0000
0000
0000
0000
0000
0000
0000
0300
0010
,
0001
1000
0200
0000
0000
0000
0000
0000
,
0000
0000
0000
0000
0000
0300
0001
0000
,
1000
0001
0100
0010
,
0100
0010
0010
1000
,
1100
1100
1010
0100
,
0010
1001
0110
0011
,
1000
0010
0010
0100
,
1010
0000
0000
0000
0110
0000
0000
0000
1001
0000
0000
0001
0020
0000
0000
0000
,
0000
0030
0001
0200
0000
0000
0000
0000
2300
0000
0000
0000
0000
0000
3200
0000
,
0000
0302
0000
0000
,
0023
0000
0030
0000
;
