#TITLE:Panic Puppet Zone;
#SUBTITLE:- Sonic 3D Blast (Saturn) - Act 1;
#ARTIST:Richard Jaques;
#TITLETRANSLIT:;
#SUBTITLETRANSLIT:;
#ARTISTTRANSLIT:;
#CREDIT:;
#BANNER:Panic Puppet - Banner.PNG;
#BACKGROUND:Panic Puppet - Background.PNG;
#LYRICSPATH:;
#CDTITLE:;
#MUSIC:Panic Puppet Zone - Act 1.mp3;
#OFFSET:-0.080;
#SAMPLESTART:42.851;
#SAMPLELENGTH:12.000;
#SELECTABLE:YES;
#BPMS:0.000=140.020;
#STOPS:;
#BGCHANGES:;
// cache tags:
#FIRSTBEAT:16.000;
#LASTBEAT:388.000;
#SONGFILENAME:Songs/dragon force/Sonic 3D Blast (Saturn) - Panic Puppet Zone - Act 1 (Crazylegz Edit)/Panic Puppet Zone.sm;
#HASMUSIC:1;
#HASBANNER:1;
#MUSICLENGTH:173.800;
// end cache tags

//---------------dance-single - ----------------
#NOTES:
     dance-single:
     :
     Easy:
     5:
     0.330,0.335,0.224,0.293,0.000,312.000,39.000,51.000,0.000,0.000:
0000
0000
0000
0000
,
0000
0000
0000
0000
,
0000
0000
0000
0000
,
0000
0000
0000
0000
,
1001
1000
0001
1000
,
0001
0100
0001
1000
,
1001
1000
0001
0010
,
0001
0100
0001
1000
,
2002
0000
0000
3003
,
0220
0000
0000
0330
,
2200
0000
0000
3300
,
0022
0000
0000
0033
,
0001
0010
0100
1000
,
0100
0010
0001
1000
,
0001
1000
0001
1000
,
0010
1000
0010
1000
,
0100
1000
0100
1000
,
0100
1000
0001
0100
,
0101
1000
0100
1000
,
1100
0001
0100
0001
,
1001
1000
0001
1000
,
0110
1000
0010
1000
,
0110
0010
0100
0010
,
1010
0000
1000
0000
0100
0000
0010
0100
,
2000
0000
0001
0000
,
3002
0000
1000
0000
,
2003
0000
0010
0000
,
3020
0000
0100
0000
,
0130
0001
1000
0001
,
1001
1000
0010
0100
,
0110
0010
0100
0010
,
0110
1000
0001
1000
,
0002
1000
0000
2003
,
0010
0010
0000
3010
,
0200
0001
0000
0301
,
0020
0100
0000
0130
,
2000
0001
0000
3001
,
0100
0001
1000
0100
,
0220
0000
0000
0330
,
2002
0000
0000
3003
,
1001
0001
1000
0001
,
1000
0010
0100
0010
,
1010
1000
0001
1000
,
0100
0010
0001
0010
,
0011
0001
1000
0010
,
0100
0100
0001
0100
,
0101
0001
0100
0010
,
1000
0010
0100
0010
,
0110
1000
0010
1000
,
1010
1000
0001
1000
,
1001
1000
0100
1000
,
1100
0100
0010
0001
,
0011
0001
0100
0001
,
0101
0001
1000
0001
,
1001
1000
0001
0010
,
0210
0000
0000
0000
0301
0000
0100
0010
,
0002
0000
0010
0013
,
0020
0000
0100
0130
,
0200
0000
1000
1300
,
2000
0000
0001
3001
,
1001
1000
0010
0100
,
0010
1000
0001
1000
,
1001
0001
0010
0001
,
1000
0010
0100
0001
,
2000
0000
0010
3010
,
0020
0000
0100
0130
,
0200
0000
0001
0301
,
0002
0000
0010
0013
,
0020
0000
0001
0030
,
0002
0000
1000
0003
,
1001
1000
0001
1000
,
1001
0001
1000
0001
,
2000
0000
3020
0000
,
0230
0000
0302
0000
,
0023
0000
0230
0000
,
2300
0000
3001
0001
,
1002
0000
2003
0000
,
3020
0000
0230
0000
,
0310
1000
0001
0100
,
0001
1000
0010
0100
,
0010
1000
1000
0001
,
0001
0010
0010
0001
,
0001
0010
0010
0100
,
0100
1000
1000
0010
,
0110
0000
1001
0000
,
0110
0000
1001
0000
,
1000
0010
0100
0010
,
0100
0001
1000
0010
,
0200
0001
0001
0301
,
0020
0100
0100
0130
,
2000
0010
0010
3010
,
0002
1000
1000
1003
,
0200
0010
0010
0310
,
0002
0010
0010
0013
,
0100
1000
0010
0100
,
0010
1000
0001
1000
,
2002
0000
0000
0000
,
3003
0000
0000
0000
;

//---------------dance-single - ----------------
#NOTES:
     dance-single:
     :
     Medium:
     8:
     0.464,0.502,0.242,0.242,0.000,480.000,42.000,42.000,0.000,0.000:
0000
0000
0000
0000
,
0000
0000
0000
0000
,
0000
0000
0000
0000
,
0000
0000
0000
0000
,
1000
0001
1000
0010
1000
0000
1000
0010
,
1000
0001
0100
0000
0001
1000
0001
1000
,
0001
0100
0001
0100
0001
0000
1000
0100
,
1000
0100
1000
0000
1000
0010
1000
0100
,
0010
0001
0010
0000
1000
0100
1000
0000
,
0001
0010
0001
0000
1000
0010
0100
0001
,
1000
0010
1000
0000
0001
1000
0100
0000
,
1000
0001
0100
0000
0001
0010
0001
0100
,
0020
1000
1030
0000
0200
0010
0310
0000
,
0002
0100
0103
0000
0010
1000
0010
0100
,
0110
1000
0101
0010
,
1100
0000
0001
0000
1000
0001
1000
0001
,
0100
0010
1000
0100
,
0010
0000
0100
0000
1000
0001
0100
0001
,
0100
0001
0010
0100
,
0010
0000
0001
0000
1000
0010
0100
0010
,
1000
0001
1000
0010
,
0100
0000
0010
0000
1000
0100
0010
0001
,
0011
1100
1010
0101
,
1001
0000
0101
0000
0001
0010
0001
0100
,
0010
1000
0001
2000
0000
0000
0100
0000
,
3010
0000
0001
1000
0100
0000
0010
0000
,
0001
0010
0001
2000
0000
0000
0001
0000
,
3001
0000
0010
0100
1000
0000
0001
0000
,
1000
0010
1000
0200
0000
0000
0010
0000
,
0310
0000
0001
1000
0010
0000
0100
0000
,
0001
1000
0001
0200
0000
0000
0001
0000
,
0301
0000
1000
0010
0100
0000
0010
0000
,
1000
0001
0100
0002
0000
0000
1003
0000
,
0010
0000
0100
0001
0010
0000
0100
0000
,
0010
0001
1000
0200
0000
0000
0310
0000
,
0001
0000
1000
0010
1000
0000
0001
0000
,
1000
0001
1000
0002
0000
0000
1000
0000
,
1003
0000
0010
0100
0010
0000
0100
0000
,
0010
1000
0010
0200
0000
0000
0001
0000
,
0301
0000
0010
0100
1000
0000
0001
0000
,
1001
0010
0101
0010
,
1100
0000
1001
0000
1000
0001
1000
0001
,
1000
1010
0001
0011
,
1000
0000
1100
0000
0010
0001
0010
0001
,
0100
0110
1000
0110
,
0001
0000
0110
0000
0010
1000
0100
0010
,
0001
1100
0001
0101
,
0010
0000
1001
0000
0010
0100
0010
0100
,
0020
2030
3200
0320
,
0032
0023
0230
2300
,
3002
2003
3020
0230
,
0302
0023
0230
0320
,
0032
2003
3020
0230
,
0320
2030
3002
2003
,
3001
0100
0001
0100
0001
0100
0001
1000
,
0001
0100
0001
0100
0001
1000
0001
0100
,
0002
0000
0100
0103
0010
0000
1000
0000
,
0001
0000
1000
0010
0100
0000
0010
0000
,
1000
0001
0100
0002
0000
0000
1000
0000
,
1003
0000
0010
0100
0001
0000
1000
0000
,
0001
1000
0001
2000
0000
0000
0010
0000
,
3001
0000
0010
0100
1000
0000
0001
0000
,
1000
0010
0100
0010
0000
0000
1010
0000
,
1001
0000
1000
0001
0200
0000
0310
0000
,
1000
0010
0100
0001
1000
0000
0010
0000
,
0100
0000
0001
1000
0100
0000
0010
0000
,
0001
0010
0100
1000
0100
0000
0010
0000
,
0001
0000
1000
0010
1000
0000
0100
0000
,
0010
0001
0010
0100
0010
0000
0001
0000
,
1000
0000
0010
0100
0010
0000
1000
0000
,
0001
0100
0001
0100
0000
0000
0101
0000
,
1001
0000
1000
0010
1000
0000
0200
0000
,
0310
0001
0010
0001
0000
0000
1000
0000
,
0010
0100
0001
1000
,
1001
1000
0001
1000
,
0010
0100
0010
1000
,
1010
0001
0010
0001
,
1000
0100
0010
0100
,
1100
1000
0001
0100
,
0010
0100
0001
1000
,
1001
0000
0100
0000
0001
1000
0100
0000
,
1000
0001
0100
0000
0010
0000
0010
0000
,
0110
0000
1000
0000
0001
0100
0001
0000
,
1000
0100
1000
0000
0100
0000
0100
0000
,
0011
0000
0001
0000
1000
0010
0100
0000
,
0001
0010
0100
0000
1000
0000
1000
0000
,
1100
0000
0010
0000
0100
0001
0100
0000
,
0010
1000
0010
0000
0001
0000
0001
0000
,
1001
0010
1001
0100
,
1001
1000
1100
0001
,
0101
0010
1100
0100
,
0110
0001
0011
1000
,
1000
0010
1000
0010
1000
0001
1000
0010
,
1000
0010
1000
0000
0001
0100
0001
0100
,
0001
1000
0001
0100
0001
0100
0001
1000
,
0001
0100
0001
0000
1000
0100
1000
0100
,
2200
0000
0000
0000
,
3300
0000
0000
0000
;

//---------------dance-single - ----------------
#NOTES:
     dance-single:
     :
     Hard:
     10:
     0.665,0.726,0.409,0.161,0.178,710.000,71.000,28.000,0.000,0.000:
0000
0000
0000
0000
,
0000
0000
0000
0000
,
0000
0000
0000
0000
,
0000
0000
0000
0000
,
1001
0000
0000
0000
1000
0000
0000
0000
0001
0100
0001
0100
0001
0000
1000
0000
,
0001
0000
1001
0000
0010
0100
0010
0100
,
0110
0000
0000
0000
0001
0000
0000
0000
1000
0100
1000
0100
1000
0000
0001
0000
,
1000
0000
1001
0000
0001
0010
0001
0100
,
0101
1000
1100
0010
1010
0001
0011
1000
,
1100
0000
0001
0000
0101
0000
0000
0000
1000
0100
1000
0010
1000
0000
0001
0000
,
1000
0001
0101
1000
0110
0001
0110
1000
,
0101
0000
0010
0000
0101
0000
0000
0000
1000
0010
1000
0010
1000
0000
0100
0000
,
0010
0001
0010
0100
1000
0001
0100
0010
,
1000
0000
0010
0000
0100
0000
0000
0000
0001
0100
0001
1000
0001
0000
0001
0000
,
1000
0010
0100
0010
1000
0001
0010
0001
,
0010
0000
0001
0000
1000
0000
0000
0000
0010
0100
0010
0100
0010
0000
0100
0000
,
0010
1000
0100
0010
0001
0010
0100
1000
,
0010
0000
0100
0000
0010
0000
1000
0000
0100
0010
0100
0000
0010
0000
0001
0000
,
0100
0010
1000
0010
1000
0001
0100
0001
,
0100
0000
0010
0000
1000
0000
0001
0000
1000
0001
1000
0000
0010
0000
1000
0000
,
0001
0010
0001
1000
0100
1000
0010
0100
,
0010
0000
0100
0000
0001
0000
0010
0000
0001
0010
0001
0000
1000
0000
0001
0000
,
1001
0010
1001
0100
1001
1000
0101
0010
,
0101
0000
0001
0000
0101
0000
1000
0000
0100
1000
0100
0000
1000
0000
0010
0000
,
1000
0100
1000
0020
0000
0000
0130
0000
,
0001
0100
0001
0000
1000
0000
0100
0000
1000
0000
0010
0000
0100
0000
0000
0000
,
0010
1000
0010
0200
0000
0000
0301
0000
,
0010
0100
1000
0000
0001
0000
1000
0000
0001
0000
1000
0000
0001
0000
0000
0000
,
1000
0010
0100
0002
0000
0000
1003
0000
,
0010
1000
0010
0000
1000
0000
0001
0000
0010
0000
0001
0000
0010
0000
0000
0000
,
0100
0010
0100
2000
0000
0000
3001
0000
,
1000
0001
1000
0000
0001
0000
0100
0000
0001
0000
0010
0000
0001
0000
0000
0000
,
2000
0010
3010
0100
0001
0001
0010
0100
,
1000
0001
1000
0010
0100
0010
1000
0100
,
1100
0100
1000
0001
0100
0001
0010
0001
,
1000
0010
1000
0100
0010
0001
0010
0100
,
1001
1000
0001
1000
0010
0100
0010
1000
,
0001
0010
0001
0010
0001
1000
0010
0100
,
0110
0000
1000
0001
1000
0000
0001
1000
0001
0000
1000
0001
1000
0000
0001
1000
,
0001
0000
1000
0100
1000
0000
0001
0100
0001
0000
0010
1000
0010
0000
0100
0001
,
0100
0010
1000
0001
0100
0010
0100
0001
,
1000
0000
0100
0000
0010
0000
0001
0000
0010
0100
0010
0000
0001
0000
1000
0000
,
0010
0100
0001
1000
0010
0100
0001
0100
,
0010
0000
1000
0000
0001
0000
0010
0000
0001
0010
0001
0000
1000
0000
0010
0000
,
0100
0000
0010
1000
0010
0000
0100
0000
0001
0010
0001
0000
0100
0000
0010
0000
,
0100
0000
0001
0000
0010
0000
0100
0000
1000
0100
1000
0000
0001
0000
0100
0000
,
0001
0000
1000
0100
1000
0000
0010
0000
0100
0001
0100
0000
0001
0000
0010
0000
,
0001
0000
0010
0000
0001
0000
1000
0000
0010
0100
0010
0000
1000
0000
0010
0000
,
1000
0000
0001
0100
0001
0000
1000
0000
0010
1000
0010
0000
0100
0000
0010
0000
,
1000
0000
0100
0000
0010
0000
0001
0000
0010
0001
0010
0000
0100
0000
1000
0000
,
0100
0010
0001
1000
0010
0100
0010
1000
,
0001
0000
0010
0000
0100
0000
0010
0000
0001
1000
0001
0000
1000
0000
0010
0000
,
0100
0001
0100
0010
1000
0010
1000
0100
,
0010
0000
0001
0000
0010
0000
0001
0000
1000
0010
1000
0000
0100
0000
0010
0000
,
0011
0001
0100
0001
0010
0001
1000
0010
,
1000
0000
0010
0000
1000
0000
0100
0000
1000
0001
1000
0000
0001
0000
0100
0000
,
0001
1000
0001
0020
0000
0000
0130
0000
,
1000
0001
1000
0000
0001
0000
1000
0000
0001
0000
0100
0000
0001
0000
0000
0000
,
0001
0010
0001
0200
0000
0000
0310
0000
,
1000
0010
1000
0000
0001
0000
0010
0000
0001
0000
1000
0000
0001
0000
0000
0000
,
1000
0010
1000
0002
0000
0000
1003
0000
,
0001
0010
0001
0000
1000
0000
0100
0000
1000
0000
0100
0000
1000
0000
0000
0000
,
0001
0100
0001
0200
0000
0000
0301
0000
,
0010
0100
1000
0000
0001
0000
1000
0000
0001
0000
1000
0000
0001
0000
0000
0000
,
1000
0010
1000
0010
1000
0010
0100
0001
,
0100
0000
0001
0000
0100
0000
0001
0000
0010
0001
0010
0000
0001
0000
1000
0000
,
0001
1000
0001
1000
0010
0100
0010
0100
,
0010
0000
1000
0000
0010
0000
1000
0000
0010
1000
0010
0000
0100
0000
0001
0000
,
1000
0001
0010
0001
1000
0100
1000
0010
,
0100
0000
0001
0000
0010
0000
0100
0000
1000
0100
1000
0000
0100
0000
0010
0000
,
0011
1001
0101
1001
,
1010
1001
0011
0110
,
0012
0000
1000
0000
1003
0000
1000
0100
0000
1000
0100
0000
1001
0000
0100
0000
,
0001
0000
0010
0000
0001
0000
0010
0001
0000
0010
0001
0000
0010
0000
0100
0000
,
1000
0000
0100
0000
0010
0000
0001
0100
0000
0001
0010
0000
0001
0000
1000
0000
,
0010
0000
0100
0000
0010
0000
1000
0010
0000
1000
0100
0000
1100
0000
1001
0000
,
0100
0001
0100
0001
0100
0001
0100
0010
,
1000
0000
0010
0000
1000
0000
0010
1000
0000
0010
1000
0000
0001
0000
0001
0000
,
0010
0100
1000
0100
0010
0100
1000
0010
,
0100
0000
0001
0000
0100
0000
0001
0000
0100
0010
1000
0000
0001
0000
1000
0000
,
1001
0101
1001
1100
,
1010
0101
1010
1001
,
0011
1100
1010
1100
,
0011
0110
0011
1001
,
0020
0230
0302
2003
,
3020
0230
0320
2030
,
3200
0320
0032
0023
,
0032
0000
2003
0000
3200
0000
2300
3000
,
1001
1000
1100
0100
0110
0010
0011
0001
,
0101
0100
0110
0010
1010
1000
1001
1001
,
1000
0001
1000
0010
1000
0001
1000
0010
,
1000
0000
0001
0000
1000
0000
0001
0000
1000
0001
1000
0000
0001
0000
0100
0000
,
0001
0010
0001
0100
0001
0010
0001
1000
,
0100
0000
1000
0000
0010
0000
1000
0000
0100
1000
0001
0000
0100
0000
0001
0000
,
0101
0100
0110
0010
1010
1000
1100
0100
,
0110
0010
0011
0001
1001
0010
1001
0100
,
2002
0000
0000
0000
,
3003
0000
0000
0000
;

//---------------dance-single - ----------------
#NOTES:
     dance-single:
     :
     Challenge:
     12:
     0.881,0.949,0.587,0.155,0.716,943.000,102.000,27.000,0.000,0.000:
0000
0000
0000
0000
,
0000
0000
0000
0000
,
0000
0000
0000
0000
,
0000
0000
0000
0000
,
1000
0001
0100
0001
0010
0001
0100
0010
,
1000
0010
0100
0010
1000
0100
1000
1100
,
1000
0001
0100
0010
0100
0001
0100
0010
,
0100
0001
0010
0100
1000
0100
0010
0011
,
1001
0000
0001
1000
0001
0000
0100
0001
0000
0100
0001
0000
0200
0000
0320
0000
,
1030
0000
0010
0100
0010
0000
1000
0001
0000
1000
0001
0000
2000
0000
3200
0000
,
0310
0000
0001
0010
0001
0000
0010
0001
0000
0010
0001
0000
0020
0000
0230
0000
,
0310
0000
0100
1000
0001
0000
0100
0010
0000
0100
0010
0000
0200
0000
0302
0000
,
1003
0000
0100
1000
0100
0000
1000
0010
0000
1000
0100
0000
0020
0000
0032
0000
,
1003
0000
0010
0100
0001
0000
1000
0010
0000
1000
0001
0000
0101
0000
1001
0000
,
1000
0000
0010
0100
0010
0000
0100
0010
0000
0100
0010
0000
0200
0000
0302
0000
,
1003
0000
1000
0001
1000
0000
0001
0100
0000
0001
1000
0000
1100
0000
1001
0000
,
1001
0010
1001
0100
1001
0001
1100
0010
,
1100
1000
0110
0001
0110
1000
0101
0010
,
0101
1000
0010
0100
0010
1000
0100
0010
,
0001
0010
0100
1000
0100
1000
0100
1000
,
0100
0010
0001
0010
0100
0010
0001
0010
,
0100
0000
1000
0000
0001
0000
0100
0000
0010
1000
0010
0000
0200
0000
0301
0000
,
0001
0011
1000
1010
0001
0101
1000
1100
,
0010
0110
1000
0110
0001
0010
0110
0110
,
0010
0000
0001
0000
1000
0000
0200
0000
0000
0000
0010
0000
0310
0000
0001
0010
,
0001
1000
0001
0100
0001
0000
0010
0000
0001
0000
0100
0000
0101
0000
1000
0000
,
0010
0000
0100
0000
0010
0000
2000
0000
0000
0000
0001
0000
3001
0000
0001
1000
,
0010
0100
0001
0010
0001
0000
1000
0000
0001
0000
1000
0000
0010
0000
0000
0000
,
1010
0000
1000
0000
0001
0000
0102
0000
0000
0000
0100
0000
0103
0000
0100
0010
,
1000
0001
0100
0001
0100
0000
0010
0000
1000
0000
0001
0000
1000
0000
0000
0000
,
1001
0000
0001
0000
1000
0000
2001
0000
0000
0000
0001
0000
3001
0000
0010
0100
,
1000
0001
0010
0100
1000
0000
0001
0000
0100
0000
0001
0000
1001
0000
1000
0000
,
1001
1000
1100
0100
0110
0010
0011
0001
,
0101
0100
0110
0010
1010
1000
1001
1000
,
1010
0010
0110
0100
0101
0100
0110
0100
,
0101
0001
1001
1000
1100
0100
0110
0100
,
1100
1000
1010
0010
0110
0100
0101
0001
,
0011
0001
1001
1000
1010
1000
1001
0010
,
1000
0100
0010
0001
0010
0100
1000
0100
0010
0100
0010
0001
0010
0001
0010
0100
,
1000
0100
1000
0010
0100
0010
0100
0001
0010
0001
0010
0001
0100
0010
0100
0001
,
0100
0010
1000
0001
0100
0010
1000
0001
,
0100
0010
1000
0010
1000
0001
1000
0100
,
1000
0001
0010
0001
0100
0001
0010
0100
,
1000
0010
1000
0100
0010
0001
1000
0001
,
1001
0001
1000
0010
0100
0010
0100
0001
,
0100
0001
0010
0100
1000
0100
0010
0100
,
1000
0100
0010
0001
0010
0100
0010
0001
0010
0100
1000
0100
1000
0100
1000
0001
,
0100
0001
0100
0001
0100
0001
0010
0001
0010
0001
1000
0100
1000
0100
1000
0100
,
1000
0010
0100
0010
0100
0001
0010
0001
0100
0010
0100
0001
0100
0001
1000
0100
,
1000
0001
1000
0001
1000
0001
1000
0001
0100
0001
0100
0001
0100
0001
0100
0000
,
0010
1000
0001
0100
0010
1000
0001
0100
,
0010
1000
0001
0100
0010
1000
1100
1100
,
0100
0000
0010
0001
0010
0000
0001
0000
1000
0001
2000
0000
0000
0000
3001
0000
,
1000
0000
0010
0100
0010
0000
1000
0000
0001
0010
0001
0000
1000
0000
1100
0000
,
0100
0000
0010
0001
1000
0000
0001
0000
0100
0010
2000
0000
0000
0000
3010
0000
,
0100
0000
0001
0100
0001
0000
1000
0000
0010
0100
0010
0000
1000
0000
1001
0000
,
1000
0000
0001
0000
1000
0000
0020
0000
0000
0000
0100
0000
0130
0000
0100
0010
,
0100
0001
0100
0010
0100
0000
0001
0000
0010
0000
0001
0000
0100
0000
0000
0000
,
0010
0000
1000
0000
0100
0000
0020
0000
0000
0000
0001
0000
0031
0000
1000
0010
,
1000
0001
0010
0001
1000
0000
0010
0000
0100
0000
0001
0000
1000
0000
0000
0000
,
1001
0000
0001
0000
0100
0000
0002
0000
0000
0000
1000
0000
1003
0000
0100
0010
,
1000
0100
0010
0001
0010
0000
0100
0000
0010
0000
0001
0000
1000
0000
0000
0000
,
1001
0000
1000
0000
0001
0000
2001
0000
0000
0000
0010
0000
3010
0000
0010
0100
,
0010
1000
0010
0100
0010
0000
1000
0000
0001
0000
1000
0000
2002
0000
3003
0000
,
0001
0000
1000
0100
1000
0000
0010
0000
0100
0001
0100
0000
0001
0000
0010
0001
,
0010
0000
0001
0000
1000
0010
1000
0000
0100
0000
0110
0000
0001
0000
0110
0000
,
0010
0000
0001
0100
0010
0000
1000
0000
0100
1000
0100
0000
1000
0000
0001
0100
,
0001
0000
0010
0000
0100
1000
0001
0000
0010
0000
1001
0000
0100
0000
1001
0000
,
1000
0000
0010
0100
0001
0000
0010
0000
0100
1000
0001
0000
1000
0000
0010
0100
,
0001
0000
1000
0000
0001
1000
0100
0000
1000
0000
0101
0000
0010
0000
0101
0000
,
1000
0000
0001
0100
0001
0000
0010
0000
0100
1000
0100
0000
1000
0000
0010
0100
,
0010
0000
1000
0000
0001
0010
0001
0000
1000
0000
0010
0000
1000
0000
1001
0000
,
0100
0000
0001
1000
0001
0000
1000
0010
0000
1000
0010
0000
1010
0000
1000
0000
,
0100
0000
1000
0100
1000
0000
0100
1000
0000
0100
1000
0000
1001
0000
0100
0000
,
0001
0000
0000
1000
0001
0000
0000
1000
0000
0000
0001
0000
0100
0000
0001
0000
,
1001
0000
0000
0001
0100
0000
0000
0000
0001
0100
0001
0000
1000
0000
0010
0000
,
1010
0000
0000
1000
0100
0000
0000
1100
0000
0000
0110
0000
1100
0000
1001
0000
,
1100
0000
0000
0001
0010
0000
0000
0011
0000
0000
1001
0000
0101
0000
1001
0000
,
0011
0000
0000
1000
0001
0000
0000
1001
0000
0000
0110
0000
0101
0000
0110
0000
,
1100
0000
0000
0100
0010
0000
0000
0110
0000
0000
0101
0000
1001
0000
1100
0000
,
0001
1000
0001
1000
0001
1000
0001
0100
0001
0100
0001
0100
0001
0010
0001
1000
,
0100
1000
0100
1000
0010
0100
0010
0100
0001
0010
0001
0100
0010
0100
0010
1000
,
0100
1000
0100
1000
0100
0010
0001
0010
0100
1000
0100
0010
0001
0010
0100
1000
,
0100
0010
0001
1000
0001
0100
0001
0100
0001
1000
0010
1000
0010
1000
0010
0000
,
1000
0001
1000
0001
1000
0001
1000
0100
1000
0100
1000
0100
1000
0010
1000
0010
,
1000
0010
0100
0010
0100
0010
0100
0001
0100
0001
0100
0001
0010
0100
1000
0100
,
0010
0100
1000
0100
0010
0100
0010
0100
0010
0001
1000
0001
1000
0001
1000
0010
,
0100
0001
1000
0010
0100
0001
1000
0100
0010
0001
0010
0001
0010
0001
0010
0100
,
1000
0100
1000
0100
1000
0001
0100
0001
0100
0001
0010
0001
0010
0001
0010
0100
,
0010
0100
0010
0100
1000
0100
1000
0100
1000
0010
0100
0010
0100
0010
0100
0001
,
0010
0001
0010
0001
0100
0010
0100
0010
0100
0010
1000
0100
0010
0001
0010
0100
,
1000
0001
1000
0001
1000
0001
0100
0001
0100
0001
0010
0100
1000
0100
0010
0100
,
1000
0100
1000
0100
0010
0100
0010
0100
0010
0001
0010
0001
0010
0001
1000
0010
,
0100
0001
1000
0010
0100
0001
0010
0100
1000
0001
1000
0001
1000
0001
1000
0001
,
1001
0010
0110
1000
1001
0010
1010
1000
,
1100
0100
0011
0010
0110
0001
1001
1000
,
2002
0000
0000
0000
,
3003
0000
0000
0000
;
