#TITLE:Rusty Bucket Bay;
#SUBTITLE:Banjo-Kazooie;
#ARTIST:Rareware;
#TITLETRANSLIT:;
#SUBTITLETRANSLIT:;
#ARTISTTRANSLIT:;
#CREDIT:;
#BANNER:rbb-bn.PNG;
#BACKGROUND:rbb-bg.png;
#LYRICSPATH:;
#CDTITLE:kyka06.png;
#MUSIC:RustyBucketBay.mp3;
#OFFSET:-1.200;
#SAMPLESTART:59.647;
#SAMPLELENGTH:12.500;
#SELECTABLE:YES;
#BPMS:0.000=120.070,112.000=118.070,116.000=120.070,164.000=118.070,168.000=120.070,196.000=118.070,200.000=120.070;
#STOPS:;
#BGCHANGES:;
// cache tags:
#FIRSTBEAT:0.000;
#LASTBEAT:224.000;
#SONGFILENAME:Songs/new/BK - Rusty Bucket Bay/rbb.sm;
#HASMUSIC:1;
#HASBANNER:1;
#MUSICLENGTH:113.475;
// end cache tags

//---------------dance-single - ----------------
#NOTES:
     dance-single:
     :
     Hard:
     10:
     0.784,0.938,0.159,0.079,1.000,596.000,18.000,9.000,0.000,0.000:
0001
0000
0010
0100
1000
0000
0010
0000
0100
0000
0001
0010
0100
0000
1000
0000
,
0010
0000
1000
0100
1000
0000
0010
0000
0100
0000
0001
0010
0100
0000
1000
0000
,
0010
0000
0100
0001
0010
0000
0100
0000
1000
0000
0010
1000
0100
0000
1000
0000
,
0010
0000
0100
0001
0010
0000
0001
0000
0100
0000
0010
1000
0100
0000
1000
0000
,
0001
0010
0100
1000
0010
0100
0001
0010
0100
1000
0010
1000
0100
1000
0010
0000
,
0100
0001
0010
0100
1000
0010
0100
0001
0010
0100
1000
0010
0100
0000
0001
0000
,
0010
0100
1000
0010
1000
0100
1000
0010
0100
0001
0010
0100
1000
0010
1000
0000
,
0001
0000
0010
0100
1000
0000
0010
0000
0100
0000
0001
0000
0011
0000
0001
0000
,
0100
1000
0010
1000
0001
0100
0010
0100
0001
1000
0010
1000
0001
0010
0100
0000
,
0100
1000
0010
1000
0100
1000
0001
0010
1000
0010
0001
0010
0001
0000
0100
0000
,
0001
1010
0100
0110
,
0001
0010
0001
0100
0001
0100
0001
1000
0100
1000
0010
1000
,
1000
0100
0010
0001
0100
0010
1000
0100
0010
0001
0100
0001
0010
0001
0100
0000
,
0010
1000
0100
0010
0001
0100
0010
1000
0100
0010
0001
0100
0010
0000
1000
0000
,
0100
0010
0001
0100
0001
0010
0001
0100
0010
1000
0100
0010
0001
0100
0001
0000
,
1000
0000
0100
0010
0001
0000
0100
0000
0010
0000
1000
0000
1100
0000
1000
0000
,
0010
0001
0100
0001
1000
0010
0100
0010
1000
0001
0100
0001
1000
0100
0010
0000
,
0010
0001
0100
0001
0010
0001
1000
0100
0001
0100
1000
0100
1000
0000
0010
0000
,
1000
0002
0013
0020
,
1030
0100
1000
0010
1000
0010
1000
0001
1000
0010
0001
0010
,
0011
0000
1000
0000
0100
0000
0010
0001
,
0100
1000
1000
0100
,
0001
0000
1000
0000
0010
0000
1000
0001
,
0100
0000
1000
0010
0100
0001
0010
0100
,
1000
0000
0100
0000
0001
0000
1000
0010
,
0100
0001
0010
0000
1000
0010
0100
0000
,
1001
0000
0000
0010
0100
0000
0001
0000
0010
0000
0000
0000
0100
0000
1000
0000
,
0001
0000
0010
0100
0001
0000
2000
0000
,
3001
0010
0100
1000
0010
0100
0010
1000
0100
1000
0010
0100
0001
0010
0100
0000
,
1000
0010
1000
0100
1000
0010
0100
0001
0010
0100
1000
0010
0100
0000
0001
0000
,
0010
0100
1000
0010
1000
0100
1000
0010
0100
0001
0010
0100
1000
0001
1000
0000
,
0010
0000
0100
0001
0010
0000
1000
0000
0001
0000
0100
0000
1000
0000
0010
0000
,
0100
0001
0010
1000
0010
0001
0100
0010
0100
0001
1000
0010
0100
0001
1000
0000
,
0010
0100
0001
0100
1000
0100
0001
0010
0100
1000
0010
1000
0001
0000
0010
0000
,
1000
0002
0013
0020
,
0031
0100
0010
1000
0100
0010
0001
0100
0010
1000
0100
0010
,
0001
0020
0130
0200
,
0310
0001
0100
0010
1000
0100
0010
0001
1000
0010
1000
0100
,
1000
0000
0010
0100
1000
0000
0010
0100
,
0001
0000
0100
1000
0100
0000
0001
0010
,
0100
0000
0010
0100
0001
0000
0100
0000
,
0010
0001
1000
0100
1000
0000
0000
0000
,
0001
0000
0010
1000
0010
0000
0001
0100
,
0010
0000
0001
1000
0010
0000
0001
1000
,
0001
1100
0110
1001
,
0201
0000
0000
0000
0302
0000
0000
0003
0110
0000
0001
0000
1000
0000
0001
0000
,
0100
0000
0000
0000
0000
0000
0000
0000
0000
1000
0000
0000
0010
0000
0000
0000
0000
0000
0100
0000
0000
0000
0000
0000
0001
0000
0010
0000
0001
0000
0010
0000
0001
0000
0010
0000
0001
0000
0010
0000
0001
0000
0010
0000
0001
0000
0010
0000
,
0001
0000
0000
0000
0000
0000
0000
0000
0000
0001
0000
0000
0100
0000
0000
0000
0000
0000
0010
0000
0000
0000
0000
0000
1000
0000
0100
0000
1000
0000
0100
0000
1000
0000
0100
0000
1000
0000
0100
0000
1000
0000
0100
0000
1000
0000
0100
0000
,
1000
0000
0000
0000
0000
0000
0000
0000
0000
0001
0000
0000
0100
0000
0000
0000
0000
0000
0010
0000
0000
0000
0000
0000
1000
0000
0100
0000
1000
0000
0100
0000
1000
0000
0100
0000
1000
0000
0100
0000
1000
0000
0100
0000
1000
0000
0100
0000
,
1000
0000
0000
0000
0000
0000
0001
0000
0000
0100
0000
0000
0010
0000
0000
0000
0000
0000
1000
0000
0000
0000
0000
0000
0001
0000
0010
0000
0001
0000
0010
0000
0001
0000
0010
0000
0001
0000
0010
0000
0001
0000
0010
0000
0001
0000
0010
0000
,
0001
0000
0000
0000
0000
0000
0000
0000
0000
0001
0000
0000
0100
0000
0000
0000
0000
0000
0010
0000
0000
0000
0000
0000
1000
0000
0100
0000
1000
0000
0100
0000
1000
0000
0100
0000
1000
0000
0100
0000
1000
0000
0100
0000
1000
0000
0100
0000
,
1000
0000
0000
0000
0000
0000
0000
0000
0000
1000
0000
0000
0010
0000
0000
0000
0000
0000
0100
0000
0000
0000
0000
0000
0001
0000
0010
0000
0001
0000
0010
0000
0001
0000
0010
0000
0001
0000
0010
0000
0001
0000
0010
0000
0001
0000
0010
0000
,
0001
1100
0010
0011
,
0001
0010
0001
0010
0001
0010
0001
0010
0001
0010
0001
0010
0001
1000
0010
1000
0010
1000
0010
1000
0010
1000
0010
1000
,
0010
0100
0010
0100
0010
0100
0010
0100
0010
0100
0010
0100
0010
1000
0001
1000
0001
1000
0001
1000
0001
1000
0001
1000
,
1001
0100
0011
0100
0110
1000
0011
0100
,
1001
0000
0000
0000
;

//---------------dance-single - ----------------
#NOTES:
     dance-single:
     :
     Medium:
     8:
     0.540,0.543,0.097,0.088,0.348,408.000,11.000,10.000,0.000,0.000:
1000
0100
0010
0000
0001
0100
0010
0000
,
1000
0100
0010
0000
0001
0100
0010
0000
,
1000
0100
0010
0000
0001
0100
0010
0000
,
1000
0100
0010
0000
0001
0100
0010
0000
,
1000
1000
0100
0100
0010
0010
0001
0000
,
1000
1000
0010
0010
0100
0100
0001
0001
,
1000
1000
0100
0100
1000
1000
0010
0000
,
0100
0100
0001
0001
1000
1000
1000
1000
,
0001
0001
0010
0010
0100
0100
1000
1000
,
0010
0010
0100
0100
0001
0001
0010
0010
,
0001
1001
1000
1100
,
1000
0100
0010
0001
0010
0100
1000
0100
0010
0001
0010
0100
,
1000
0001
0100
0001
0010
0001
1000
0001
,
0100
0010
1000
0100
0010
0001
0100
0010
,
1000
0100
0010
0001
0100
0001
0010
0001
,
0100
0010
1000
0100
0010
0001
0100
0010
,
1000
0100
0001
1000
0010
0001
0100
0001
,
1000
0010
0100
0001
1000
0100
0010
0001
,
1000
2000
3100
0020
,
0031
0010
0100
1000
0100
0010
0001
0010
0100
1000
0100
0010
,
0001
0000
1000
0000
0100
0000
0010
0001
,
0100
0010
0010
0010
,
0100
0000
1000
0000
0001
0000
0010
0100
,
1000
0000
0001
0100
0010
1000
0100
0010
,
1000
0000
0010
0000
0001
0000
0100
0010
,
1000
0100
0010
0000
0001
0100
0001
0000
,
0010
0000
0000
0001
1000
0000
0010
0000
0100
0000
0000
0000
0001
0000
1000
0000
,
0100
0000
0010
0001
0200
0300
0010
0000
,
1000
0100
0010
0001
0100
0010
1000
0000
,
0100
0010
0001
0100
0010
1000
0100
0000
,
0010
0001
0100
0001
0010
0001
0100
0000
,
0010
1000
0100
0010
0001
1000
0010
0100
,
0001
0010
0100
1000
0010
0100
0001
0000
,
0010
0100
1000
0010
0100
0001
1000
0100
,
0010
0002
1003
0020
,
1030
0100
0010
0001
0010
0100
1000
0100
0010
0001
0010
0100
,
1000
0020
1030
0200
,
0301
0010
0100
1000
0100
0010
0001
0010
0100
1000
0100
0010
,
0001
0000
0001
0100
0010
0000
1000
0100
,
0010
0000
0001
1000
0010
0000
0100
0001
,
1000
0000
0010
0001
0100
0000
0010
0000
,
1000
1000
0001
0001
2002
0000
0000
3003
,
0010
0000
0100
1000
0010
0000
0100
0001
,
0010
0000
0100
1000
0010
0000
0100
0001
,
0010
1001
0100
1010
,
2000
0000
3100
0000
0010
0001
0100
0010
,
1000
0000
0000
0000
0000
0000
0000
0000
0000
0100
0000
0000
0010
0000
0000
0000
0000
0000
0001
0000
0000
0000
0000
0000
0100
0000
0000
0000
0010
0000
0000
0000
1000
0000
0000
0000
0010
0000
0000
0000
1000
0000
0000
0000
0010
0000
0000
0000
,
1000
0000
0000
0000
0000
0000
0000
0000
0000
1000
0000
0000
0100
0000
0000
0000
0000
0000
0010
0000
0000
0000
0000
0000
0001
0000
0000
0000
0010
0000
0000
0000
0100
0000
0000
0000
1000
0000
0000
0000
0010
0000
0000
0000
1000
0000
0000
0000
,
0100
0000
0000
0000
0000
0000
0000
0000
0000
0010
0000
0000
1000
0000
0000
0000
0000
0000
0100
0000
0000
0000
0000
0000
0010
0000
0000
0000
0001
0000
0000
0000
1000
0000
0000
0000
0001
0000
0000
0000
0100
0000
0000
0000
0010
0000
0000
0000
,
1000
0000
0000
0000
0000
0000
1000
0000
0000
0100
0000
0000
0010
0000
0000
0000
0000
0000
0001
0000
0000
0000
0000
0000
0100
0000
0000
0000
0010
0000
0000
0000
1000
0000
0000
0000
0010
0000
0000
0000
0100
0000
0000
0000
0010
0000
0000
0000
,
1000
0000
0000
0000
0000
0000
0000
0000
0000
1000
0000
0000
0100
0000
0000
0000
0000
0000
0010
0000
0000
0000
0000
0000
0001
0000
0000
0000
0010
0000
0000
0000
0100
0000
0000
0000
1000
0000
0000
0000
0100
0000
0000
0000
0010
0000
0000
0000
,
0100
0000
0000
0000
0000
0000
0000
0000
0000
0010
0000
0000
1000
0000
0000
0000
0000
0000
0100
0000
0000
0000
0000
0000
0010
0000
0000
0000
1000
0000
0000
0000
0100
0000
0000
0000
0010
0000
0000
0000
0001
0000
0000
0000
0100
0000
0000
0000
,
0001
1100
0010
0101
,
1000
0100
0010
0001
0010
0100
1000
0100
0010
0001
0010
0100
,
1000
0100
0010
0001
0010
0100
1000
0100
0010
0001
0010
0100
,
1000
0110
1010
0101
,
1001
0000
0000
0000
;

//---------------dance-single - ----------------
#NOTES:
     dance-single:
     :
     Challenge:
     12:
     0.828,0.938,0.520,0.026,1.000,596.000,59.000,3.000,0.000,1.000:
1000
0000
0100
0010
0001
0000
0100
0000
0010
0000
1000
0100
0010
0000
0001
0000
,
0100
0000
0001
0010
0001
0000
0100
0000
0010
0000
1000
0100
0010
0000
0001
0000
,
0100
0000
0010
1000
0100
0000
0010
0000
0001
0000
0100
0001
0010
0000
0001
0000
,
0100
0000
0010
1000
0100
0000
1000
0000
0010
0000
0100
0001
0010
0000
0001
0000
,
1000
0100
0010
0001
0100
0010
1000
0100
0010
0001
0100
0001
0010
0001
0100
0000
,
0010
1000
0100
0010
0001
0100
0010
1000
0100
0010
0001
0100
0010
0000
1000
0000
,
0100
0010
0001
0100
0001
0010
0001
0100
0010
1000
0100
0010
0001
0100
0001
0000
,
1000
0000
0100
0010
0001
0000
0100
0000
0010
0000
1000
0000
1100
0000
1000
0000
,
0010
0001
0100
0001
1000
0010
0100
0010
1000
0001
0100
0001
1000
0100
0010
0000
,
0010
0001
0100
0001
0010
0001
1000
0100
0001
0100
1000
0100
1000
0000
0010
0000
,
1000
0101
0010
0110
,
1000
0100
0001
0010
1000
0010
0001
1000
0010
1000
0100
0010
,
0001
0010
0100
1000
0010
0100
0001
0010
0100
1000
0010
1000
0100
1000
0010
0000
,
0100
0001
0010
0100
1000
0010
0100
0001
0010
0100
1000
0010
0100
0000
0001
0000
,
0010
0100
1000
0010
1000
0100
1000
0010
0100
0001
0010
0100
1000
0010
1000
0000
,
0001
0000
0010
0100
1000
0000
0010
0000
0100
0000
0001
0000
0011
0000
0001
0000
,
0100
1000
0010
1000
0001
0100
0010
0100
0001
1000
0010
1000
0001
0010
0100
0000
,
0100
1000
0010
1000
0100
1000
0001
0010
1000
0010
0001
0010
0001
0000
0100
0000
,
0001
1010
0100
0110
,
0001
0010
1000
0100
0001
0100
1000
0001
0100
0001
0010
0100
,
1100
0000
0001
0000
0010
0000
0100
1000
,
0010
0101
0011
0110
,
1100
0000
0011
0000
0101
0000
0101
1000
,
0110
0000
1001
0100
0110
1000
1100
0010
,
0011
0000
0110
0000
1100
0000
0011
0100
,
0110
1000
1100
0000
0011
0100
0110
0000
,
1001
0000
0000
0100
0010
0000
1000
0000
0100
0000
0000
0000
0010
0000
0001
0000
,
1001
0000
0100
0010
1100
0000
0011
0000
,
1000
0100
0010
0001
0100
0010
0100
0001
0010
0001
0100
0010
1000
0100
0010
0000
,
0001
0100
0001
0010
0001
0100
0010
1000
0100
0010
0001
0100
0010
0000
1000
0000
,
0100
0010
0001
0100
0001
0010
0001
0100
0010
1000
0100
0010
0001
1000
0001
0000
,
0100
0000
0010
1000
0100
0000
0001
0000
1000
0000
0010
0000
0001
0000
0100
0000
,
0010
1000
0100
0001
0100
1000
0010
0100
0010
1000
0001
0100
0010
1000
0001
0000
,
0100
0010
1000
0010
0001
0010
1000
0100
0010
0001
0100
0001
1000
0000
0100
0000
,
0011
1001
0100
1010
,
1000
0010
0100
0001
0010
0100
1000
0010
0100
0001
0010
0100
,
1000
1100
0010
0011
,
0100
1000
0010
0100
0001
0010
0100
1000
0001
0100
1000
0010
,
1000
0000
0100
0010
0001
0000
0100
0010
,
1100
0000
0010
0001
0110
0000
1000
0100
,
0011
0000
0100
0010
1001
0000
0110
0000
,
1100
1000
0011
0010
0101
0000
0000
0000
,
1010
0000
0100
0001
0110
0000
1000
0010
,
0110
0000
1000
0001
0110
0000
1000
0001
,
1100
0011
0110
1001
,
1020
0000
2000
0000
3230
1000
0001
1000
,
1300
0000
0000
0000
0000
0000
0000
0000
0000
0001
0000
0000
0100
0000
0000
0000
0000
0000
0010
0000
0000
0000
0000
0000
1000
0000
0100
0000
0010
0000
0001
0000
0100
0000
0010
0000
1000
0000
0100
0000
0010
0000
0100
0000
1000
0000
0001
0000
,
1000
0000
0000
0000
0000
0000
0000
0000
0000
1000
0000
0000
0010
0000
0000
0000
0000
0000
0100
0000
0000
0000
0000
0000
0001
0000
0010
0000
0100
0000
1000
0000
0010
0000
0100
0000
0001
0000
0010
0000
0100
0000
0010
0000
0001
0000
0100
0000
,
0001
0000
0000
0000
0000
0000
0000
0000
0000
1000
0000
0000
0010
0000
0000
0000
0000
0000
0100
0000
0000
0000
0000
0000
0001
0000
0010
0000
0100
0000
1000
0000
0010
0000
0100
0000
0001
0000
0010
0000
0100
0000
0010
0000
0001
0000
1000
0000
,
0010
0000
0000
0000
0000
0000
1000
0000
0000
0010
0000
0000
0100
0000
0000
0000
0000
0000
0001
0000
0000
0000
0000
0000
1000
0000
0100
0000
1000
0000
0100
0000
0010
0000
1000
0000
0010
0000
1000
0000
0001
0000
0100
0000
0001
0000
0100
0000
,
0001
0000
0000
0000
0000
0000
0000
0000
0000
1000
0000
0000
0010
0000
0000
0000
0000
0000
0100
0000
0000
0000
0000
0000
0001
0000
0010
0000
0100
0000
1000
0000
0010
0000
0100
0000
0001
0000
0010
0000
0100
0000
0010
0000
0001
0000
1000
0000
,
0001
0000
0000
0000
0000
0000
0000
0000
0000
0001
0000
0000
0100
0000
0000
0000
0000
0000
0010
0000
0000
0000
0000
0000
1000
0000
0100
0000
0010
0000
0001
0000
0100
0000
0010
0000
1000
0000
0100
0000
0010
0000
0100
0000
1000
0000
0010
0000
,
1000
0011
0100
1100
,
1000
0100
0010
0001
0100
0001
0100
0010
1000
0100
0010
0001
0100
0001
0100
0010
1000
0100
0010
0001
0100
0010
1000
0010
,
1000
0100
0010
0001
0100
0001
0100
0010
1000
0100
0010
0001
0100
0001
0100
0010
1000
0100
0010
0001
0100
0010
1000
0010
,
0101
0010
1100
0010
0110
0001
1100
0010
,
1001
0000
0000
0000
;

//---------------dance-single - ----------------
#NOTES:
     dance-single:
     :
     Easy:
     6:
     0.322,0.345,0.115,0.000,0.000,243.000,13.000,0.000,0.000,0.000:
1000
0100
0010
0001
,
0100
0010
1000
0100
,
0010
0001
0010
0100
,
1000
0010
1000
0100
,
1000
0001
0010
0000
,
0100
0010
1000
0000
,
0001
0010
0100
0000
,
1000
0000
0010
0000
0100
0001
0100
0001
,
0100
0010
1000
0000
,
0100
0010
0001
0000
,
0000
1001
0000
1100
,
1000
0100
0010
0001
0100
0010
1000
0100
,
0010
0001
0100
0010
,
1000
0100
1000
0010
,
0100
0001
0010
0100
,
1000
0000
0010
0000
1000
0001
1000
0001
,
0010
0100
1000
0001
,
0010
0100
1000
0000
,
0000
0101
0000
1010
,
1000
0100
0010
0001
0100
0010
1000
0100
,
0010
0001
1000
0000
,
1000
1000
0001
0001
,
0010
0100
1000
0000
,
0001
0000
0010
0000
0100
0000
1000
0010
,
0100
0001
0010
0000
,
1000
0000
0001
0000
,
1000
0000
0100
0010
0001
0000
0100
0000
,
0010
1000
0100
0000
,
1000
0100
0010
0000
,
0001
0100
0010
0000
,
0010
1000
0100
0000
,
0001
0000
1000
0000
0010
0100
0010
1000
,
0100
0010
0001
0000
,
0100
0010
1000
0000
,
0000
1001
0000
1100
,
1000
0010
1000
0100
1000
0010
1000
0100
,
1000
0101
0000
0110
,
1000
0010
0100
0001
0010
0100
1000
0001
,
0100
0001
0000
1000
0000
1000
0000
0001
,
0000
1000
0000
0100
0000
0010
0000
0001
,
0000
0100
0000
0010
0000
1000
0000
0010
,
0000
1000
0000
0100
0000
0010
0000
0001
,
0000
0010
0000
0001
0000
0100
0000
0010
,
0000
1000
0000
0100
0000
0010
0000
0001
,
1000
1001
0000
0110
,
1000
0100
0010
0001
0100
0010
1000
0100
,
0010
0000
0001
0000
1000
0001
1000
0001
,
1000
0000
0000
0000
0010
0100
0010
0100
,
0010
0000
0000
0000
1000
0100
1000
0100
,
1000
0000
0000
0000
0001
0010
0100
1000
,
0010
0000
0000
0000
0100
0001
0010
0100
,
1000
0000
0000
0000
0010
0100
0001
1000
,
0100
1100
0000
0011
,
1000
0100
0010
0001
0100
0001
0010
0001
,
0100
0010
1000
0100
0001
1000
0010
0001
,
0100
1000
0100
0010
,
1001
0000
0000
0000
;
