#TITLE:Satya;
#SUBTITLE:;
#ARTIST:Aghora;
#TITLETRANSLIT:;
#SUBTITLETRANSLIT:;
#ARTISTTRANSLIT:;
#CREDIT:Arch0wl;
#BANNER:satya-bn.png;
#BACKGROUND:satya-bg.png;
#LYRICSPATH:;
#CDTITLE:!Arch0wlTitle.png;
#MUSIC:satya.ogg;
#OFFSET:-0.386;
#SAMPLESTART:78.766;
#SAMPLELENGTH:25.600;
#SELECTABLE:YES;
#BPMS:0.000=150.000;
#STOPS:;
#BGCHANGES:0.000=satya-bg.png=1.000=0=0=1,
99999=-nosongbg-=1.000=0=0=0 // don't automatically add -songbackground-
;
// cache tags:
#FIRSTBEAT:0.000;
#LASTBEAT:324.000;
#SONGFILENAME:Songs/Archmage and Dark0wl Hammer of Thor UltraHyperMegaPack/Satya/satya.sm;
#HASMUSIC:1;
#HASBANNER:1;
#MUSICLENGTH:105.000;
// end cache tags

//---------------dance-single - Arch0wl----------------
#NOTES:
     dance-single:
     Arch0wl:
     Hard:
     12:
     1.000,1.000,1.000,0.571,1.000,648.000,154.000,60.000,0.000,17.000:
1000
0100
0010
0001
0100
0001
1000
0100
,
0010
0001
0100
0001
1000
0010
0100
0001
,
1000
0100
0010
0001
0100
0001
1000
0100
,
0010
0001
0100
0001
1000
0010
0100
0001
,
1000
0100
0010
0001
0100
0001
1000
0100
,
0010
0001
0100
0001
1000
0010
0100
0001
,
1000
0100
0010
0001
0100
0001
1000
0100
,
0010
0001
0100
0001
1000
0010
0100
0001
,
2010
0000
0000
0001
0000
0001
3200
0001
0010
0000
0000
0000
0000
0000
0000
0000
,
0001
0000
0000
0001
0000
0000
0000
0001
2310
0000
0000
0001
3200
0001
0010
0000
,
1320
0000
0000
1000
0030
0000
0200
0001
0010
0000
0000
0000
2300
0000
0000
0000
,
0100
0000
0000
0100
0000
0000
0000
0100
3001
0000
0000
0000
0000
0000
0100
0010
,
0021
0000
0000
0001
0000
0000
0001
0230
1000
0000
0000
0000
0000
0000
0000
0000
,
0010
0000
0000
0010
0000
0000
0000
0010
1302
0000
0000
0000
0203
0000
0000
0000
,
2310
0000
0000
0010
0000
0000
3200
0010
0001
0000
0000
0001
0320
0000
0000
0100
,
0001
0100
0000
0000
1030
0000
0010
0100
0001
0010
0001
0010
0100
1000
0100
1000
,
0021
0000
0000
0001
0000
0000
0000
0001
2130
0000
0000
0000
0000
0000
0000
0000
,
3001
0000
0000
0001
0000
0000
0000
0001
0120
0000
0000
0001
0000
0001
0100
0000
,
0231
0000
0000
0001
0000
0000
2300
0001
0010
0000
0000
0010
0000
0000
3100
0000
,
0001
0000
0000
0001
0000
0000
0000
0001
0010
0000
0000
0000
0200
0000
1000
0310
,
0012
0000
0000
0010
0000
0000
0000
0010
2103
0000
0000
0000
0000
0000
0000
0000
,
3010
0000
0000
0010
0000
0000
0000
0010
2001
0000
0000
0010
0000
0000
0000
0000
,
3210
0000
0000
0000
0000
0000
0000
0000
2300
0010
0000
0000
0000
0000
0000
0000
3200
0000
0000
0000
0000
0000
0000
0000
0301
0000
0000
0000
2000
0000
0000
0000
0000
0001
0000
0000
3000
0000
0000
0000
0000
0000
0000
0000
0000
0000
0000
0000
,
1001
0000
0000
0010
0100
0010
0000
0000
1000
0100
1000
0100
1000
0100
1000
0000
,
0011
0010
0100
1000
0010
1000
0001
0010
,
0100
1000
0010
1000
0001
0100
0010
1000
,
0001
0010
0100
1000
0010
1000
0001
0010
,
0100
1000
0010
1000
0001
0100
0010
1000
,
0001
0010
0100
1000
0010
1000
0001
0010
,
0100
1000
0010
1000
0001
0100
0010
1000
,
0001
0010
0100
1000
0010
1000
0001
0010
,
0100
1000
0010
1000
0001
0100
0010
1000
,
0201
0000
0000
0001
0000
0001
2300
0001
0010
0000
0000
0000
0000
0000
0000
0000
,
0001
0000
0000
0001
0000
0000
3000
0001
0120
0000
0000
0001
0230
0001
0010
0000
,
1302
0000
0000
1000
0000
0000
0023
1000
0100
0000
0000
0000
0032
0000
0000
0000
,
1000
0000
0000
1000
0000
0000
0000
1000
0100
0000
0000
1000
0000
1000
0100
0000
,
2013
0000
0000
0010
0000
0000
3201
0010
0001
0000
0000
0000
0000
0000
0000
0000
,
0310
0000
0000
0010
0000
0000
0000
0010
2100
0000
0000
0010
3200
0000
0000
0000
,
0312
0000
0000
0010
0000
0000
2003
0000
0010
0000
0000
0010
3100
0000
0001
0100
,
0001
0010
0000
0000
0100
1000
0100
1000
0001
0100
0001
0100
1000
0100
0001
0010
,
2100
0000
0000
0100
0000
0000
0000
0100
3012
0000
0000
0000
0000
0000
0000
0000
,
0010
0000
0000
0010
0000
0000
0003
0010
2100
0000
0000
0010
3200
0010
0010
0000
,
0321
0000
0000
0001
0000
0000
2030
0010
0001
0000
0000
0000
0000
0000
3200
0000
,
0010
0000
0000
0010
0000
0000
0000
0010
0001
0000
0000
0001
2310
0000
3010
0100
,
0102
0000
0000
0100
0000
0000
0000
0100
1023
0000
0000
1000
0000
0000
0000
0000
,
0031
0000
0000
0001
0000
0000
0000
0000
0021
0000
0000
0001
0230
0001
0010
0000
,
1320
0000
0000
1000
0000
0000
0230
0000
0010
0000
0302
0000
0000
0000
0103
0000
,
1000
0000
0000
1000
0000
1000
0000
1000
0110
0000
0000
0000
0000
0000
1000
0001
,
0110
0000
0000
0000
,
0101
0000
0000
0101
0000
0101
0000
0101
0110
0000
0000
0000
0100
0001
0100
0001
,
0101
0000
0000
0101
0000
0101
0000
0101
0110
0000
0000
0101
0110
0000
0000
0000
,
1100
0000
0000
1100
0000
1100
0000
1100
0110
0000
0000
1000
0100
1000
0100
1000
,
1100
0000
0000
1100
0000
1100
0000
1100
0110
0000
0000
1000
0010
0100
0010
0100
,
1001
0000
0000
1001
0000
1001
0000
1001
0110
0000
0000
0000
1000
0001
1000
0001
,
1001
0000
0000
1001
0000
1001
0000
1001
0110
0000
0000
1001
0110
0000
0100
0000
,
1010
0000
0000
1010
0000
1010
0000
1010
0101
0000
0000
0000
0010
1000
0010
1000
,
1010
0000
0000
1010
0000
1010
0000
1010
0101
0000
0000
0000
1000
0100
1000
0100
,
1100
0000
0000
0011
0000
1100
0000
0011
1100
0000
0000
0000
1000
0010
1000
0010
,
0101
0000
0000
1010
0000
0101
0000
1010
0101
0000
0000
1010
0101
0000
0100
0000
,
1010
0000
0000
0011
0000
1010
0000
0011
1010
0000
0000
0000
0010
1000
0010
1000
,
0101
0000
0000
1100
0000
0101
0000
1100
0101
0000
0000
1100
0101
0000
0010
0000
,
1001
0000
0000
0110
0000
1001
0000
0110
1001
0000
0000
0000
0001
1000
0001
1000
,
0110
0000
0000
1001
0000
0110
0000
1001
0110
0000
0000
1001
0110
0000
0010
0000
,
1100
0000
0000
0011
0000
0101
0000
1010
1100
0000
0000
0000
0010
0001
0010
0001
,
1001
0000
0000
0110
0000
0000
1000
0100
0010
0001
0100
0010
1000
0100
1000
0010
,
1001
0000
1000
0100
1000
0000
0001
0100
0201
0000
0001
0000
1000
0000
0301
0000
,
0011
0000
0010
1000
0010
0000
0010
0001
2100
0000
0010
0001
3010
0000
1100
0000
,
0110
0000
0100
0010
0100
0000
0100
0010
0012
0000
0100
0000
1000
0000
0103
0000
,
1010
0000
0010
0001
0010
0000
0010
1000
0201
0000
0010
0000
1300
0000
0001
0010
,
1001
0000
1000
0010
1000
0000
1000
0001
0110
0000
0010
0000
0001
0000
0010
1000
,
0110
0000
0100
0010
0100
0000
0100
0001
2100
0000
0010
0000
0001
0000
3010
0000
,
1100
0000
0010
0100
1000
0100
0010
0000
1001
0000
1010
0000
0011
0000
1000
0100
,
0010
0001
0010
0000
0100
1000
0100
1000
0001
0010
0001
0010
0100
1000
0100
1000
,
0011
0000
0000
0100
0010
0000
0000
0100
0011
0000
0000
0000
1000
0000
0000
0000
,
0011
0000
0000
0100
0010
0000
0000
0100
0011
0000
0000
0100
0010
0001
0010
0000
,
1001
0000
0000
0100
0010
0000
0000
0100
1001
0000
0000
0000
0001
0000
0000
0100
,
1001
0000
0000
0100
0010
0000
0000
0100
1001
0000
0000
0000
1001
0000
0001
0000
,
1100
0000
0000
0010
0100
0000
0000
0010
1100
0000
0000
0000
0100
0000
0000
0010
,
1100
0000
0000
0010
0100
0000
0000
0010
1100
0000
0000
0100
0010
0000
0000
0000
,
1100
0000
0000
0010
0001
0010
0000
0000
1100
0000
0010
0000
0010
0000
0010
0001
,
1000
0000
0010
0001
1000
0100
1000
0100
0001
0010
0001
0010
0100
1000
0100
0000
,
1001
0000
0000
0000
;
