#TITLE:Sonne;
#SUBTITLE:;
#ARTIST:RAMMSTEIN;
#TITLETRANSLIT:Sun;
#SUBTITLETRANSLIT:;
#ARTISTTRANSLIT:;
#CREDIT:Shado;
#BANNER:Banner.PNG;
#BACKGROUND:Sonne-bg.png;
#LYRICSPATH:Sonne.lrc;
#CDTITLE:Shado 2x2.png;
#MUSIC:Sonne.mp3;
#OFFSET:-4.360;
#SAMPLESTART:42.600;
#SAMPLELENGTH:13.500;
#SELECTABLE:YES;
#BPMS:0.000=150.120;
#STOPS:;
#BGCHANGES:-15.760=_black.PNG=1.000=0=0=1,
-4.360=SONNE INTRO=1.000=0=0=1,
32.000=SONNE=1.000=1=0=1,
48.000=EARTH=1.000=0=0=1,
88.000=SONNE REACTOR=1.000=0=0=1,
96.000=PEOPLE=1.000=0=0=1,
128.000=SONNE REACTOR=1.000=0=0=1,
144.000=CYTIES DESTROYED=1.000=0=0=1,
160.000=EARTH DESTROY=1.000=0=0=1,
208.000=SONNE=1.000=0=0=1,
224.000=PEOPLE=1.000=0=0=1,
256.000=SONNE OUTRO=1.000=0=0=1,
99999=-nosongbg-=1.000=0=0=0 // don't automatically add -songbackground-
;
// cache tags:
#FIRSTBEAT:0.000;
#LASTBEAT:292.000;
#SONGFILENAME:Songs/other/Sonne/Sonne.sm;
#HASMUSIC:1;
#HASBANNER:1;
#MUSICLENGTH:121.346;
// end cache tags

//---------------pump-single - Crazy----------------
#NOTES:
     pump-single:
     Crazy:
     Hard:
     8:
     0.639,0.899,1.000,0.552,0.004,313.000,138.000,67.000,0.000,28.000:
01010
01010
01010
01010
01010
01110
00100
00000
,
10001
10001
10001
10001
10001
10101
00100
00000
,
01001
01001
01001
01001
01001
01101
00100
00000
,
10010
10010
10010
10010
10110
00100
00100
00100
,
01010
01001
01010
01001
01010
01110
00100
00000
,
01010
10010
01010
10010
01010
01110
00100
00000
,
00100
00100
01001
10010
01001
10110
00100
00000
,
00100
00100
01001
10010
01101
00100
00100
00100
,
01110
00000
01000
00100
00101
00000
10100
00000
,
00201
10000
00301
00000
,
00110
00100
00010
10000
00010
00100
00110
00000
,
01100
00100
01000
00001
01000
01100
00000
00000
,
10101
00000
01100
00001
01100
00000
00000
00000
,
00110
00000
00000
10000
00110
00000
00000
00000
11100
00000
00000
00000
00000
00000
00000
00000
,
01100
01100
01001
00110
00110
10010
01001
00000
,
00101
00101
01001
10100
10010
00100
00000
00000
,
00000
01000
00001
00100
00010
00000
01000
00000
,
01001
10010
10110
01101
,
00100
00100
10000
10000
00001
00001
10001
00000
,
01000
01000
00010
00010
01010
01110
00000
00000
,
01101
10000
10000
00001
00001
00000
01010
00000
,
00100
01001
10010
00000
,
01210
00000
00000
00000
,
01000
00000
00010
00000
10000
00010
01000
00001
,
10301
00000
01101
00010
,
00110
00000
01100
00000
,
00101
00000
00000
00001
01000
00000
00100
00000
,
10000
00000
00001
00000
01000
01000
00100
10000
,
00111
00000
00000
00100
01000
00000
00001
00000
,
10000
00000
00110
00000
,
01100
00000
00000
00100
00001
00000
10000
00000
,
00100
00000
01000
00000
00110
00010
00100
00001
,
11100
01100
00110
10100
,
00202
00303
10100
00101
,
00011
00100
01100
01000
,
00110
00000
00100
00000
01001
00001
00100
00100
,
10010
00000
00100
00010
01000
00000
00100
00000
,
02020
00000
03130
00000
,
01001
00000
00000
00100
10000
00000
00010
00000
,
10000
00001
01000
00100
01001
01001
10010
10010
,
01110
00000
01000
00010
00200
00000
00000
00000
,
00002
00000
00000
00300
02000
00000
00000
00000
,
03203
00000
00000
00310
02000
00000
03100
00000
,
10000
00001
00100
00010
01010
01010
01100
01001
,
01101
00000
00001
20000
00200
00000
00000
00300
,
00020
00000
00000
30000
02000
00000
00030
00000
,
00002
00000
03003
00100
00020
00000
02030
00000
,
00100
00000
03001
00100
00101
10100
00110
01100
,
01110
00000
00100
10000
00020
00000
00130
00000
,
02002
00000
00000
03003
02200
00000
03300
00000
,
00220
00000
00330
00100
02000
00000
03001
00000
,
00100
00000
00010
00000
01010
01010
10001
10001
,
11011
00000
00100
00010
02000
00000
03100
00000
,
02002
00000
00000
03003
00220
00000
00330
00000
,
02100
00000
03000
00001
00200
00000
00310
00000
,
00100
00110
01100
01001
10010
11000
00011
01110
,
10002
00000
00203
00320
02030
00000
00000
00000
,
03002
00203
00000
00000
,
00302
00000
20003
00000
30200
02300
03020
20030
,
00000
00000
00000
00000
,
30002
00000
01000
00100
20003
00000
00000
00000
,
30020
00230
00000
00000
,
00302
02003
03200
20300
,
30020
00230
00000
00000
,
00302
00000
00000
00000
00000
20003
00000
00000
,
00000
30002
00000
00000
00000
00000
00000
00000
,
02003
00000
00000
00000
00000
00000
00000
03020
,
00000
20030
00000
00000
00000
00000
00000
00000
,
00000
32000
00000
00000
00000
03200
00000
00000
,
00000
20300
00000
00000
00000
00000
00000
00000
,
30020
00000
00000
02030
,
00000
03200
00000
00000
00000
00000
00000
00000
,
00000
00000
00000
10301
;

//---------------pump-single - hard_1----------------
#NOTES:
     pump-single:
     hard_1:
     Medium:
     6:
     0.477,0.541,0.470,0.255,0.000,317.000,57.000,31.000,0.000,0.000:
00100
00100
01000
00100
01000
00010
00100
00000
,
00100
00100
00010
01000
00100
00100
00000
00000
,
01000
01000
00010
00100
00100
00010
01000
00000
,
00001
00001
01000
01000
00100
00100
00000
00000
,
10000
10000
00010
00010
00100
00100
00000
00000
,
00010
00010
01000
01000
00100
00100
00000
00000
,
10000
10000
00001
00001
00100
00100
00100
00000
,
00010
00010
01000
01000
00100
10000
00001
10000
,
10001
00000
00100
01000
00010
00000
00100
00000
,
01010
01010
01010
00000
,
00001
00001
10000
10000
00100
01000
00010
00000
,
00010
00100
00001
10000
00100
01000
00000
00000
,
00000
01000
00010
00100
00001
00000
00000
00000
,
10000
00100
01000
00000
01100
00000
00000
00000
,
00110
00000
00010
10000
00100
10000
00001
00000
,
00100
00001
01000
00100
10000
00001
00100
00000
,
00101
00000
10000
00100
00001
00000
01000
00000
,
00101
10100
01100
00110
,
00100
00100
01000
00001
00100
00010
00100
00000
,
00100
00100
00010
01000
00100
10000
00001
00100
,
00010
00000
00010
01000
00100
00000
10000
00000
,
00101
00010
01100
00000
,
00200
00000
00000
00000
,
00010
00000
00001
00300
10000
01000
00010
00100
,
00020
00000
00000
00000
,
10000
00030
00100
00000
01010
00000
00100
00000
,
01001
00000
00000
00100
01000
00000
00100
00000
,
00001
00000
10000
00000
00100
00100
01000
00010
,
02020
00000
00000
03030
,
01001
00100
10010
00100
,
01010
00000
00000
00100
10001
00000
00100
00000
,
00001
01000
00100
10000
00001
00001
01000
01000
,
01001
00000
00100
10000
10010
00000
10010
00000
,
00110
00000
01010
01100
,
01001
00000
00101
10001
,
00100
00000
01000
00000
00010
00010
00100
00001
,
01001
00000
00000
00100
10000
00000
00010
00000
,
10010
00000
00000
00001
00100
00000
00100
00010
,
01000
00000
00100
10000
00001
00000
00100
00000
,
00010
10000
00001
10000
00001
01000
01000
01000
,
10100
00000
00100
20000
00020
00000
30000
00000
,
20000
30000
00100
00000
,
02000
00030
00000
00100
03001
00000
00100
00000
,
00010
01000
00100
10000
00001
00100
00001
00000
,
01001
00000
00100
01000
00020
00000
00000
00000
,
00100
00000
02000
00030
00100
00000
00002
03000
,
00100
20003
00100
30020
,
00100
01030
00100
00010
00100
01000
00100
00010
,
01000
01010
00101
01001
,
10001
10100
10010
00110
,
01010
00000
01100
00101
,
01001
00000
10100
00000
00100
00100
01000
00010
,
00100
00000
00000
00100
00010
00000
01000
00000
,
01010
00100
01001
00100
,
10010
00000
00100
01000
00010
00000
00100
00000
,
00001
01000
01000
00001
00001
00001
01001
01001
,
01001
00000
00100
10000
00020
00000
00000
00030
,
02000
03000
00200
00000
00000
00000
00000
00300
,
10000
00000
00001
00000
00100
00010
00000
01000
,
00200
00000
00000
00300
,
10000
00000
00001
00100
00010
00000
00000
02000
,
00000
03000
00200
00000
00000
00300
00000
10000
,
00000
00001
00000
00000
00100
00001
00000
10000
,
00200
00000
00000
00000
00300
00000
00000
02200
,
00000
00000
00000
00000
03300
00220
00000
00000
,
00330
20200
00000
00000
00000
00000
30300
00000
,
00202
00000
00000
00000
00300
00003
01100
00000
,
00110
00000
00000
00000
,
00200
00000
00000
00000
00000
00010
00000
00000
,
00000
01000
00000
00000
,
00002
00000
00000
00000
00000
00300
00000
10003
,
00000
00200
00000
00000
00000
00000
00000
00000
,
00000
00000
00000
01000
,
00300
00000
00000
00000
;

//---------------pump-single - Easy_1----------------
#NOTES:
     pump-single:
     Easy_1:
     Easy:
     4:
     0.290,0.391,0.321,0.140,0.000,190.000,39.000,17.000,0.000,0.000:
00000
00000
00000
00000
,
01000
00010
00100
00000
,
00010
00000
00010
00000
01000
00100
00000
00000
,
10000
00000
10000
00000
00001
00100
00000
00000
,
01000
00000
01000
00000
00010
00100
00000
00000
,
10000
00000
10000
00000
00001
00100
00000
00000
,
00010
00000
00010
00000
01000
00100
00000
00000
,
00001
00000
00001
00000
10000
00100
00000
00100
,
01010
00100
00001
01000
,
00100
01000
01010
00000
,
00100
00000
00001
00000
10000
00100
00000
00000
,
00001
00000
00100
00000
00010
01000
00000
00000
,
00100
01000
00010
00000
,
00100
00001
10000
00000
,
00100
10000
00010
10010
,
00100
00010
01000
00000
,
01001
00001
00100
00010
,
01000
10000
00100
00001
,
00101
00000
00110
00000
,
01100
00000
10100
00000
,
00100
00000
00100
00000
,
00001
10000
10001
00000
,
00200
00000
00000
00300
,
01000
00010
01000
00000
,
01010
00000
00000
00000
,
10100
00000
00101
00000
,
00100
00000
01000
00010
,
00000
00100
00001
10000
,
10100
00000
00101
00000
,
01100
00000
00010
00100
,
00001
10000
00100
01000
,
00010
01000
00010
00100
,
01010
00000
10000
00010
,
10010
00000
00001
01000
,
01001
00000
00100
01000
,
11000
00100
00010
00001
,
00011
00100
01000
00010
,
00110
00000
01100
00000
,
00110
00000
00100
10000
,
00000
00001
00100
00100
,
01010
00000
00000
00100
10000
00000
00000
00000
,
00001
00000
00100
00000
,
00101
00000
10000
00000
,
00100
01000
00010
00100
,
00101
00000
10000
00000
,
00100
00000
01000
00000
,
00010
00000
00000
00100
00001
00000
00001
00000
,
10000
00100
01000
00010
,
00110
01000
00100
01000
,
01100
00000
10100
00101
,
00110
00000
00000
01100
,
00000
00110
01100
00000
,
20002
30003
00000
00000
,
02020
03030
01100
00000
,
00101
00000
00100
00010
,
10000
00010
01000
00001
,
10001
00000
00200
00000
,
01300
00000
00000
00010
00000
00000
00000
00000
,
00200
00000
00300
00001
,
10000
00000
00000
00000
,
00200
00000
00300
00000
,
01000
00010
00000
00000
,
00200
00000
00000
00000
00000
00300
00000
00010
,
01000
00000
00000
00000
,
00200
00000
00000
00000
,
00300
20000
00000
00000
00000
00000
00000
00000
,
30000
00002
00000
00000
00000
00000
00000
00000
,
00003
00200
00000
00000
00000
00000
00000
00000
,
00300
00020
00000
00000
00000
00000
00000
00000
,
00030
02000
00000
00000
00000
00000
00000
00000
,
03000
00020
00000
00000
00000
00000
00000
00030
,
00000
20000
00000
00000
00000
00000
00000
00000
,
00000
00000
00000
00010
,
30000
00000
00000
00000
;

//---------------dance-single - MEDIUM----------------
#NOTES:
     dance-single:
     MEDIUM:
     Medium:
     5:
     0.401,0.510,0.429,0.321,0.000,250.000,52.000,39.000,0.000,0.000:
0000
0000
0000
0000
,
0010
0100
0010
0100
0010
0100
0000
0000
,
1000
0001
1000
0001
1000
0001
1000
0000
,
0010
0100
0010
0100
0010
0200
0000
0000
,
0310
0100
0010
0100
0010
0100
0010
0000
,
1000
0001
1000
0001
1000
0001
0000
0000
,
0010
0001
0010
0001
0010
0001
0010
0000
,
1000
0100
1000
0100
1000
0200
0000
0300
,
1001
0000
0110
0000
,
1100
0011
1001
0000
,
0100
0010
0001
0010
0001
0010
0001
0000
,
1000
0010
1000
0010
0100
0010
0000
0000
,
2000
0000
0000
0000
0100
3000
0000
0000
,
0002
0000
0100
0000
0100
0003
0000
0000
,
0010
0100
0010
0100
0010
0100
0010
0000
,
1000
0001
1000
0001
1000
0001
0000
0000
,
2002
0000
0000
3003
,
0110
1001
0110
1010
,
0100
0001
0010
0100
1000
0010
0100
0000
,
0100
0010
1000
0010
0100
0010
0000
0000
,
1100
1000
0010
0100
0001
0000
0010
0000
,
0011
0101
1001
0000
,
0200
0000
0000
0000
,
0010
0010
0010
0300
,
1001
0000
0100
0010
,
0110
0000
0011
0000
,
1100
0000
0000
1000
0001
0000
0011
0000
,
0110
0000
1100
0000
1000
0010
0100
0001
,
0010
0000
0000
0010
0001
0000
0100
0000
,
0101
0000
1100
0000
,
0101
0000
0000
0010
0001
0000
0100
0000
,
0010
0000
1000
0000
0100
0010
0001
0100
,
0110
1010
1100
0101
,
0011
0100
1100
0100
,
0110
0100
0011
0100
,
1001
0000
0100
0000
1010
1000
0001
0100
,
0001
0000
0000
0010
0100
0000
0010
0000
,
0110
0000
1001
0000
,
0110
0000
0000
1000
0001
0000
1001
0000
,
0001
1000
0010
0100
0010
0100
0010
0100
,
0110
0000
1000
0001
0020
0000
0000
0000
,
0230
0000
2300
0000
,
3002
0000
0000
0013
0100
0000
1000
0000
,
0010
0100
0002
0023
,
0130
0000
0000
1000
0020
0000
0000
0000
,
0230
0000
0302
0000
,
0013
0000
0000
0100
0010
0000
0110
0000
,
1000
0000
0001
0000
0010
0100
0010
0100
,
1001
0000
0010
0100
0010
0000
0110
0000
,
0202
0303
2200
3300
,
0011
0000
0000
0010
0001
0000
1001
0000
,
0000
0110
1000
0001
,
2002
0000
0000
3003
,
0220
0330
2002
3003
,
0110
0000
0000
0100
0010
0000
1000
0000
,
0100
0010
0100
0001
1000
0001
1000
0001
,
2002
0000
3003
0200
0020
0000
0300
0000
,
2030
0000
0000
0000
,
3002
0000
0000
0000
,
0000
0000
0000
0000
,
2003
0000
0000
0000
,
3020
0000
0000
0000
,
0230
0000
0000
0000
,
0000
0000
0000
0000
,
0302
0000
0000
0000
,
0000
0000
0000
0000
,
0000
2003
0000
0000
0000
0000
0000
0000
,
0000
0000
0000
0000
,
3020
0000
0000
0000
,
0000
0000
0000
0000
,
0230
0000
0000
0000
,
0000
0000
0000
0000
,
0000
0000
0000
0310
;

//---------------dance-single - HARD----------------
#NOTES:
     dance-single:
     HARD:
     Hard:
     7:
     0.473,0.510,0.363,0.445,0.008,304.000,44.000,54.000,0.000,0.000:
0000
0000
0000
0000
,
1000
1000
0001
0010
0100
0100
1100
0000
,
0010
0100
0001
0010
0100
1000
1001
0000
,
0100
0010
0010
0100
1000
0001
1000
1000
,
0010
0010
0001
0001
0100
0100
1001
0000
,
0001
0001
1000
1000
0010
0010
0000
0000
,
0100
0001
1000
0010
0010
0001
0010
0000
,
0010
0100
1000
0010
0100
0010
0001
1000
,
0012
0000
1003
0100
0020
0000
0031
0000
,
1100
0011
1001
0000
,
0001
0001
0010
0100
1000
1000
0110
0000
,
0010
1000
1000
0010
0100
1001
0000
0000
,
0101
0000
0000
0000
0001
0000
0000
0010
0100
0000
0000
0000
0000
0000
0000
0000
,
1000
0000
0000
0010
0100
0000
0000
0000
0022
0000
0000
0000
0033
0000
0000
0000
,
0010
0010
1000
1000
0001
0001
0110
0000
,
0010
0010
0100
0100
0010
1001
0000
0000
,
0001
0001
0010
0100
1000
0000
0010
0000
,
0110
0001
0010
0100
,
1000
1000
0001
0001
0010
0010
0100
0000
,
1000
1000
0010
0100
0001
0010
0000
0000
,
0100
1000
0010
0100
0001
0000
0010
0000
,
0100
1000
0010
0000
,
2002
0000
3000
0000
,
0010
0000
0100
0000
1003
0100
0010
0001
,
1001
0000
0000
0010
0100
0000
0001
0000
,
0012
0000
0103
0000
,
1000
0010
0000
1000
0100
0000
0010
0000
,
0001
0000
0000
0100
0010
1000
0100
0000
,
0012
0000
0203
0000
,
0320
0000
2030
0000
,
3100
0000
0010
0010
,
0001
0100
0010
1000
0001
0010
0100
1000
,
1001
0000
0010
1000
0100
0000
0010
0000
,
0011
0000
1100
0000
,
1001
0000
0000
0010
1001
0000
0010
0000
,
0100
0000
1000
0000
0010
0010
0100
0001
,
0011
0000
1100
0110
,
0022
0000
0033
0000
2200
0000
0000
3300
,
0220
0000
0330
0001
1000
0000
0100
0000
,
0010
0001
1000
0010
1000
1000
0001
0001
,
0110
0000
0100
1000
0020
0000
0000
0000
,
0230
0000
0302
0000
,
0020
0003
0030
0100
1000
0000
0020
0000
,
0000
0000
0031
0000
0010
0100
1000
0000
,
0110
0000
0001
0010
0200
0000
0000
0000
,
2300
0000
0020
3030
,
1010
0000
0000
0100
0001
0000
0010
0000
,
0100
1000
0010
0100
0001
0001
1000
1000
,
0110
0000
0100
0010
1001
0000
0101
0000
,
0011
0000
2200
3300
,
0022
0000
0033
0000
0100
0001
0010
0000
,
0100
0000
1000
0000
1010
0101
0010
0100
,
1000
0010
0010
0100
0001
0000
0011
0000
,
1100
0000
0000
0000
0010
0100
0000
0000
,
2000
0000
0000
3001
0010
0000
0100
0000
,
1000
0010
0100
0001
1000
0010
0100
1010
,
0001
0110
0100
1000
0020
0000
0000
0000
,
0230
0000
0000
0002
0000
0000
0000
0300
,
0013
0000
0200
0300
1000
0010
0000
0100
,
0002
0000
0000
0000
,
0020
0003
0000
0100
0002
0000
0003
0000
,
0002
0030
0200
0000
0000
0000
0000
0300
,
0000
2003
0020
3000
0000
0100
2000
0030
,
3002
0020
0000
0000
0000
0000
0000
0000
,
0003
0200
0000
0030
0000
2000
0000
0000
,
0300
0002
0000
0000
,
3000
0020
0000
0000
0000
0030
0000
0100
,
0000
2000
0000
0000
0000
0000
0000
0000
,
3003
2000
0010
0000
0000
0000
0200
0000
,
0300
0000
0002
0000
0000
0000
0000
0003
,
0000
0020
0000
0000
0000
0030
0000
0100
,
0000
3020
0000
0000
,
0000
0000
0000
0130
;

//---------------dance-single - CHALLENGE----------------
#NOTES:
     dance-single:
     CHALLENGE:
     Challenge:
     8:
     0.664,0.959,0.915,0.676,0.223,371.000,111.000,82.000,0.000,0.000:
0000
0000
0000
0000
,
1001
1001
0110
0110
1001
0110
0000
0000
,
0110
0110
1001
1001
0110
2002
3003
0000
,
0110
0110
0101
0101
1010
1010
0101
1100
,
0011
1010
0001
0001
1000
1000
0101
0000
,
0010
0010
0100
0100
0010
1100
0000
0000
,
0100
0100
1000
0010
0100
0200
0300
0000
,
0010
0001
0100
0000
0010
0000
0100
0000
0010
1000
0100
0000
1001
0000
0000
0000
,
2010
0000
0001
0010
3100
0000
1100
0000
,
0110
0011
2200
3300
,
1000
0000
1000
0000
0001
0010
0001
0000
0010
0000
0010
0000
0100
0000
0100
0000
,
1000
0100
1000
0000
0010
0100
0010
0000
0110
0000
2002
0000
3003
0000
0000
0000
,
1002
0000
0100
1000
0023
0000
0030
0000
,
1001
0000
0000
0100
0010
0000
0000
0000
2002
0000
0000
0000
3003
0000
0000
0000
,
0110
0000
0110
0000
0011
0000
0011
0000
1000
0100
0001
0000
0110
0000
0000
0000
,
0110
0000
0110
0000
1100
0000
1100
0000
0010
0100
0010
0000
1001
0000
0000
0000
,
1010
1100
0100
0010
0102
0000
0103
0000
,
0110
1010
1100
0011
,
0101
0000
1000
0000
0100
0000
0010
0000
1000
0000
0010
1000
0010
0000
0000
0000
,
0011
0000
0100
0000
0010
0000
0001
0010
0001
0000
1100
0000
0000
0000
0000
0000
,
1001
0000
0010
0000
0100
0000
0001
0000
0110
0000
0000
0000
0101
0000
0000
0010
,
0011
0000
0000
1000
1100
0000
0000
0000
0020
0000
0000
0000
0000
0000
0000
0000
,
0230
0000
0001
0010
1300
0000
2002
3003
,
0022
0033
2200
3300
0110
0110
1001
1001
,
0210
0000
0000
0000
0300
0000
1000
0001
1000
0000
1001
0000
0011
0000
0110
0000
,
2200
3300
0012
1003
,
0200
0000
0300
0010
1000
0000
1010
0000
,
0101
0000
0010
0000
0000
0000
0100
1000
0010
0000
1001
0000
0100
0000
0011
0000
,
1100
0000
0110
1010
2001
0000
3100
0000
,
0102
0000
0023
0000
,
0130
0000
0000
1000
1010
0000
0100
0000
,
0001
0000
0000
0000
0110
0000
0000
0000
0010
0001
1000
0100
0010
0001
1000
0100
,
0110
1200
0320
0032
,
2003
3200
0310
0101
,
0011
0000
0000
0000
0100
1000
0010
0000
0110
0000
0000
0000
0100
0000
0000
0000
,
1010
0000
0000
0000
1000
0100
0010
0000
0001
0000
0100
0000
1010
0000
0000
0000
,
2001
0000
0000
0000
3200
0000
0320
0030
,
0022
0000
0003
0000
0000
0000
0031
0000
0200
0000
0000
0000
0010
0300
0000
0000
,
1010
0000
0010
1000
0100
0000
0010
0000
,
0001
0000
0100
0000
0010
0000
1000
0000
1000
0010
1000
0000
0001
0100
0001
0100
,
0101
0000
0100
0001
0020
0000
0000
0000
,
0100
0130
1002
0100
,
0013
0000
0010
0100
1000
0000
0010
0000
,
0100
0000
0001
0000
0010
0000
0100
0000
1000
0000
1000
0000
0001
0000
0001
0010
,
0011
0000
0010
0100
2000
0000
3001
0000
,
1002
0013
2100
3010
,
0210
0000
0300
0001
0010
0000
0010
0000
,
0100
0000
1000
0000
0001
0000
0100
0000
0010
0001
0010
0001
0100
0001
0100
0001
,
1000
0000
0000
0000
0010
0000
0100
0001
0101
0000
0000
0000
0011
0000
0000
0010
,
0110
0000
0000
0000
0000
0000
1000
0000
1100
0000
0000
0000
0100
0010
0001
0000
,
0011
0000
0000
0000
0010
0000
0100
0000
2000
0000
0000
3000
0010
0000
0000
0000
,
0100
0000
0001
0000
0010
0010
0100
1000
,
1001
0000
0000
0000
0100
0010
1000
0000
1100
0000
0000
0000
0011
0000
0000
0000
,
1001
0000
0000
0000
0110
0000
0010
0000
2000
0000
0000
0000
0000
0000
0000
3000
,
0200
0000
0000
0300
0000
0000
0010
0000
0001
0000
0000
0000
0100
0000
0000
0000
,
0010
0100
0010
1000
0100
0010
0001
1000
0010
0100
1000
0100
0010
0001
0100
0010
,
1001
0000
0100
0010
2000
0000
0000
0000
,
3200
0000
0000
0000
0000
0320
0000
0000
0000
0000
0000
0000
0000
0000
0000
0000
,
0000
0030
0002
0000
0203
0000
0000
0000
0000
0320
0000
2030
0000
0000
3200
0000
,
0320
0000
0000
0000
,
0032
0000
0000
0203
0000
0320
0000
2030
0000
0000
0000
0000
0000
0000
0000
0000
,
3200
0320
0000
0000
,
0032
0000
0000
0203
0000
0000
0000
0320
0000
0000
2030
0000
0000
3200
0000
0320
,
0000
0000
0000
0000
,
0032
0000
0000
2003
,
0000
0000
0000
3020
0000
0000
0000
0000
0000
0000
0000
0000
0000
0000
0000
0000
,
0000
0230
0000
0000
0000
0000
0000
2300
,
0000
3002
0000
0000
0000
0000
0000
0000
,
0000
0023
0000
0000
0000
0000
0230
0000
,
0000
2300
0000
0000
0000
0000
0000
0000
,
0000
3020
0000
0000
0000
0000
0000
0000
0000
0000
0000
0000
0000
0230
0000
0000
,
0000
0302
0000
0000
0000
0000
0000
0000
,
0000
0000
0000
0000
0000
0000
0000
0000
0000
0000
0000
0000
0000
0000
0000
0000
0000
0000
0000
0000
0000
0000
0000
0000
0000
0000
0000
0000
0000
0000
0000
0000
0000
0000
0000
0000
0000
0000
0000
0000
0000
0000
0000
0000
0000
0000
0000
0000
0000
0000
0000
0000
0000
0000
0000
0000
0000
0000
0000
0000
0000
0000
0000
0000
0000
0000
0000
0000
0000
0000
0000
0000
0000
0000
0000
0000
0000
0000
0000
0000
0000
0000
0000
0000
0000
0000
0000
0000
0000
0000
0000
0000
0000
0000
0000
0000
0000
0000
0000
0000
0000
0000
0000
0000
0000
0000
0000
0000
0000
0000
0000
0000
0000
0000
0000
0000
0000
0000
0000
0000
1000
0000
0000
0000
0000
0000
0000
0000
0000
0000
0000
0000
1000
0000
0000
0000
0000
0000
0000
0000
0000
0000
0000
0000
1000
0003
0000
0000
0000
0000
0000
0000
0000
0000
0000
0000
0000
0000
0000
0000
0000
0000
0000
0000
0000
0000
0000
0000
0000
0000
0000
0000
0000
0000
0000
0000
0000
0000
0000
0000
0000
0000
0000
0000
0000
0000
0000
0000
0000
0000
0000
0000
;

//---------------dance-single - EASY----------------
#NOTES:
     dance-single:
     EASY:
     Easy:
     3:
     0.244,0.390,0.330,0.165,0.000,147.000,40.000,20.000,0.000,0.000:
0000
0000
0000
0000
,
1000
1000
1001
0000
,
0010
0010
0110
0000
,
0001
0001
1001
0000
,
0100
0100
1100
0000
,
0001
0001
0101
0000
,
0010
0010
0011
0000
,
1000
0001
1001
0010
,
0110
0000
1000
0000
,
0001
1000
1001
0000
,
1100
1100
1100
0000
,
0101
0101
0101
0000
,
0020
0030
0000
0000
,
1000
0001
1001
0000
,
1010
1010
1010
0000
,
0011
0011
0011
0000
,
0200
0000
0000
0300
,
1000
0001
0010
0010
,
0100
0001
1000
0000
,
0100
0010
1000
0000
,
0200
0000
0000
0300
,
0001
1000
0001
0000
,
0110
0000
0000
0000
,
0001
1000
0002
0000
,
1003
0000
0000
0000
,
0010
0000
0001
0000
,
1000
0000
0100
0000
,
0010
0000
0001
1000
,
1100
0000
0010
0000
,
0001
0000
0100
0000
,
1000
0000
0010
0000
,
0001
0010
1000
0100
,
1010
0000
0100
0000
,
0001
0000
0010
0000
,
0001
0000
1000
0000
,
0001
0000
0010
0001
,
0011
0000
1100
0000
,
0011
0000
1100
0000
,
0011
0000
0001
0010
,
0100
1000
0001
0001
,
1001
0000
0010
0000
,
0100
0000
1000
0000
,
0001
0000
0010
0000
,
0100
1000
0010
0100
,
2020
0000
0000
3030
,
0100
0000
0001
0000
,
0010
0000
0100
0000
,
1000
0000
0100
1000
,
0022
0000
0000
0033
,
0100
0000
1000
0000
,
0001
0000
1000
0000
,
0010
0100
0001
0000
,
0110
0000
0100
1000
,
1010
0000
0011
0000
,
0100
0000
1000
0001
,
0100
0010
1000
1000
,
2002
0000
0000
0000
,
0000
0000
0000
0000
0000
3003
0000
0000
,
0220
0000
0000
0000
,
0000
0000
0330
0000
,
0022
0000
0000
0000
,
0000
0000
0033
0000
,
2200
0000
0000
0000
,
0000
0000
3300
0000
,
0020
0000
0000
0000
,
0000
0000
0030
0000
,
0002
0000
0000
0000
,
0000
0000
0000
0000
0000
0003
0000
0000
,
2000
0000
0000
0000
,
0000
0000
0000
3000
,
0020
0000
0000
0000
,
0000
0000
0000
0000
,
0000
0000
0000
0000
0000
0000
0000
0000
0000
0000
0000
0000
0000
0000
0000
0000
0000
0000
0000
0000
0000
0000
0000
0000
0000
0000
0000
0000
0000
0000
0000
0000
0000
0000
0000
0000
0000
0000
0000
0000
0000
0000
0000
0000
0000
0000
0000
0000
0000
0000
0000
0000
0000
0000
0000
0000
0000
0000
0000
0000
0000
0000
0000
0000
0000
0000
0000
0000
0000
0000
0000
0000
0000
0000
0000
0000
0000
0000
0000
0000
0000
0000
0000
0000
0000
0000
0000
0000
0000
0000
0000
0000
0000
0000
0000
0000
0000
0000
0000
0000
0000
0000
0000
0000
0000
0000
0000
0000
0000
0000
0000
0000
0000
0000
0000
0000
0000
0000
0000
0000
0000
0000
0000
0000
0000
0000
0000
0000
0000
0000
0000
0000
0000
0000
0000
0000
0000
0000
0000
0000
0000
0000
0000
0000
0100
0030
0000
0000
0000
0000
0000
0000
0000
0000
0000
0000
0000
0000
0000
0000
0000
0000
0000
0000
0000
0000
0000
0000
0000
0000
0000
0000
0000
0000
0000
0000
0000
0000
0000
0000
0000
0000
0000
0000
0000
0000
0000
0000
0000
0000
0000
0000
;
