#TITLE:Never Forgotten Heroes;
#SUBTITLE:;
#ARTIST:Rhapsody;
#TITLETRANSLIT:;
#SUBTITLETRANSLIT:;
#ARTISTTRANSLIT:;
#CREDIT:;
#BANNER:heroes.png;
#BACKGROUND:heroes-bg.png;
#LYRICSPATH:;
#CDTITLE:;
#MUSIC:Never Forgotten Heroes.mp3;
#OFFSET:1.780;
#SAMPLESTART:33.293;
#SAMPLELENGTH:11.980;
#SELECTABLE:YES;
#BPMS:0.000=180.000;
#STOPS:;
#BGCHANGES:;
// cache tags:
#FIRSTBEAT:70.000;
#LASTBEAT:792.000;
#SONGFILENAME:Songs/Ace Megapack/Never Forgotten Heroes/heroes.sm;
#HASMUSIC:1;
#HASBANNER:1;
#MUSICLENGTH:265.430;
// end cache tags

//---------------dance-single - ----------------
#NOTES:
     dance-single:
     :
     Hard:
     11:
     1.000,1.000,1.000,0.128,1.000,1843.000,367.000,34.000,0.000,0.000:
0000
0000
0000
0000
,
0000
0000
0000
0000
,
0000
0000
0000
0000
,
0000
0000
0000
0000
,
0000
0000
0000
0000
,
0000
0000
0000
0000
,
0000
0000
0000
0000
,
0000
0000
0000
0000
,
0000
0000
0000
0000
,
0000
0000
0000
0000
,
0000
0000
0000
0000
,
0000
0000
0000
0000
,
0000
0000
0000
0000
,
0000
0000
0000
0000
,
0000
0000
0000
0000
,
0000
0000
0000
0000
,
0000
0000
0000
0000
,
0000
0000
0000
0000
0000
0000
0000
0000
1000
0010
0100
0001
1000
0010
0100
0001
,
1000
0000
0110
0000
0100
0001
0011
0000
,
0100
0000
1001
0000
0010
0100
0011
0000
,
1000
0000
0101
0000
0010
1000
1100
0000
,
0010
0000
0110
0000
0001
1000
0110
0000
,
0001
0100
1010
0100
0001
0010
1100
0000
,
0010
0100
0101
0010
1000
0001
1100
0000
,
0010
0100
0011
1000
0001
0010
1100
0000
,
0010
0100
1001
0010
0100
0001
1100
0000
,
1100
1000
1010
1000
0110
0110
1001
0000
,
0011
1000
0101
1000
1010
1010
0101
0000
,
0011
0100
1010
0100
1001
1001
0110
0000
,
1100
0001
0110
1000
0110
0110
1001
0000
,
1010
0100
0011
1000
1100
1100
0011
0000
,
1001
0010
0101
1000
0011
0011
0110
0000
,
1100
0001
0110
0001
1001
1001
0110
0000
,
1010
0000
1000
0000
1100
0000
0100
0000
0110
0000
0110
0000
1001
0010
0100
1000
,
0110
1000
0101
0010
1100
0001
0110
1000
,
0101
0010
1100
0001
1010
0100
1001
0010
,
0110
1000
0011
1000
0101
1000
0110
1000
,
0011
1000
0101
1000
0011
1000
0110
1000
,
2002
0000
0000
0000
0000
0000
0000
0000
3003
0000
0000
0000
0100
0010
1000
0001
,
1100
0000
0001
0000
1010
0000
0100
0000
0001
1000
0100
0000
0011
0000
1000
0000
,
1100
0000
0010
0000
0101
0000
1000
0000
0011
0000
0100
0001
1000
0000
0100
0010
,
1001
0000
1001
0000
0110
0000
0000
0000
0100
0010
0100
0010
1000
0001
1000
0001
,
0110
0110
1001
0010
1100
1100
0011
0100
,
1010
0000
0001
0000
1100
0000
0010
0000
0100
0001
1000
0000
0011
0000
0100
0000
,
1001
0000
1000
0000
1010
0000
0100
0000
0101
0000
0100
0010
1001
0000
1000
0000
,
0110
0000
0110
0000
0011
0000
0000
0000
0001
1000
0001
1000
0010
0100
0010
0100
,
1010
0000
1010
0000
0101
0000
0000
0000
0001
0100
0010
1000
0001
0100
0010
1000
,
1100
1000
1010
0000
0100
0101
0011
0000
,
1100
0000
0001
1000
0110
0000
0000
0000
1100
0000
1100
0000
1001
0000
0000
0000
,
0110
0000
0110
0000
1001
0000
0000
0000
1100
0000
0010
0001
1010
0000
0000
0000
,
1100
0000
0001
0000
0011
0000
0000
0000
0110
0000
0001
1000
0110
0000
1001
0000
,
1100
0000
0010
0001
1000
0000
0100
1000
0010
0000
0100
0001
1000
0000
0010
1000
,
0001
0000
0010
0100
1000
0000
0001
1000
0010
0000
0100
0001
1000
0000
0100
0010
,
0001
0000
1000
0010
0100
0000
0001
1000
0001
0000
0100
0010
1000
0000
0100
0000
,
0011
0100
1000
0011
0100
1000
0011
0100
,
1001
0000
0100
0000
1010
0000
0100
0000
0010
0100
0001
0000
1001
0000
0010
0000
,
0101
0000
1000
0000
0110
0000
0100
0000
0011
0000
0100
1000
0001
0000
0010
0000
,
1100
0000
0100
0010
0001
0000
1000
0000
0001
0100
0010
1000
0100
0010
0100
0010
,
1001
1001
0110
0000
1010
1010
0101
0000
,
1100
0001
0011
1000
1100
1001
0011
0001
,
0101
0000
1000
0000
1010
0000
0001
0000
0101
0000
0100
0001
1010
0000
0100
0000
,
0110
0000
0110
0000
1001
0000
0000
0000
0100
0010
1000
0001
0100
0010
0100
0010
,
1001
0000
0000
0000
1000
0010
0100
0001
1000
0010
0100
0001
1000
0010
0100
0010
,
1001
0001
0011
0000
0100
0110
1010
0000
,
1100
0000
0001
1000
0110
0000
0000
0000
0001
0000
1010
0000
1100
0000
0000
0000
,
1100
0000
1001
0000
1010
0000
0000
0000
0101
0000
0010
1000
0110
0000
0000
0000
,
0110
0000
0001
0000
1001
0000
0000
0000
1100
0000
0010
0001
1010
0000
0101
0000
,
1001
0000
0001
1000
0010
0000
1000
0001
0100
0000
0001
1000
0010
0000
0100
0001
,
1000
0000
0010
1000
0100
0000
0010
0001
1000
0000
0001
0010
0100
0000
1000
0010
,
0100
0000
0010
1000
0001
0000
0100
0001
0010
0000
0100
1000
0001
0000
0100
0000
,
1010
0100
0001
1010
0100
0001
1010
0000
,
1000
0001
0100
0001
0010
0100
0010
0001
1000
0010
0100
0010
0100
0001
1000
0100
,
1000
0001
0010
0001
0100
0010
1000
0100
0010
0100
0010
0001
1000
0001
0100
0001
,
0010
0100
1000
0010
0100
0010
1000
0010
1000
0100
0010
0001
1000
0001
0100
0001
,
1000
0010
0100
0001
0010
0100
0010
0001
1000
0010
0100
0001
1000
0010
0100
0010
,
1000
0001
0100
0001
0010
0100
1000
0010
0100
0001
0100
0001
0010
0100
0010
0001
,
1000
0001
1000
0010
1000
0001
0100
0001
1000
0010
0100
0001
1000
0010
1000
0100
,
0010
0001
1000
0001
1000
0010
0100
0001
0010
0100
1000
0001
0100
0010
1000
0001
,
0010
0100
1000
0001
0100
0001
0010
0001
1000
0100
0010
0001
1000
0010
1000
0010
,
0100
0001
0100
0001
1000
0010
0100
0001
0010
0100
1000
0010
1000
0100
0010
0001
,
1000
0001
0100
0001
1000
0010
1000
0100
1000
0001
0100
0010
1000
0010
0100
0010
,
1000
0001
0010
0100
0010
0001
0010
0100
0010
0001
1000
0001
1000
0100
1000
0001
,
0010
0001
1000
0001
0010
0100
0010
0001
0100
0010
1000
0001
0100
0001
1000
0001
,
0010
0001
0100
0010
1000
0010
0100
0010
1000
0100
0010
0100
0010
1000
0001
0100
,
0001
1000
0010
1000
0100
0010
0001
0100
0010
1000
0100
0010
0001
0100
0010
0100
,
1001
0000
0000
1001
1001
1001
1001
0000
0000
1001
0000
0000
,
1100
0000
0011
0000
,
0110
0000
0000
0110
0110
0110
0110
0000
0000
0110
0000
0000
,
1001
0000
0000
1001
1001
1001
1001
0000
0000
1001
0000
0000
,
1001
0100
0010
0001
0100
0010
1000
0100
0010
0001
0100
0010
1000
0100
0010
0001
,
0110
0001
1000
0010
0100
0001
1000
0100
0010
0001
1000
0010
0100
0001
1000
0001
,
0110
0001
1000
0010
0100
0001
0010
0100
1000
0010
0100
0010
1000
0001
0100
0010
,
1001
0000
0000
0000
0000
0000
0000
0000
0010
0100
0001
1000
0010
0100
0001
1000
,
1100
1000
0100
0010
1100
1000
0100
0010
,
0100
1000
0100
0010
0011
1010
0110
0010
,
1100
1000
0100
0010
1100
1000
0100
0010
,
0100
1000
0100
0010
0001
0010
0001
1000
,
0011
0100
0010
0001
0011
0100
0010
0001
,
0010
0100
0010
0001
1001
0011
0101
0001
,
0011
0100
0010
0001
0011
0100
0010
0001
,
0010
0000
0100
0000
0010
0000
0001
0000
1000
0000
0100
0000
1000
0010
0100
0001
,
2000
0000
0000
0000
0000
0000
0000
0000
0000
0000
0000
0000
0000
0000
0000
0000
0000
0000
0000
0000
0000
3000
0000
0000
2000
0000
0000
0000
0000
0000
0000
0000
3020
0000
0000
0000
0000
0000
0000
0000
0032
0000
0000
0000
0000
0000
0000
0000
,
0023
0000
0000
2030
0000
0000
3200
0000
,
0320
0000
0000
0032
0000
0000
0000
0000
,
0000
0000
0000
0000
0000
0003
0002
0203
,
0320
0000
0000
0000
0000
0000
0000
0000
0000
0030
0000
0000
0020
0000
0000
0000
2030
0000
0000
0000
3200
0000
0000
0000
,
0310
0000
0000
0001
0000
0000
0200
0000
0000
0000
0000
0000
0000
0000
0000
0000
0000
0000
0300
0000
0000
0000
0000
0000
0200
0000
0000
0000
0000
0000
0000
0000
0302
0000
0000
0000
0000
0000
0000
0000
0023
0000
0000
0000
0000
0000
0000
0000
,
0032
0000
0000
0000
0000
0000
0013
0001
0020
0000
0000
0000
0000
0030
0100
0001
,
0200
0000
0000
0000
0000
0300
1000
0001
2000
0000
0000
0000
3001
0000
0100
0000
,
0010
1000
0100
1000
0010
1000
0100
1000
0010
1000
0100
1000
0001
1000
0100
1000
,
0001
0010
0100
0010
0001
0010
0100
0010
0001
0010
0100
0010
1000
0010
0100
0010
,
0001
0100
0001
1000
0001
0100
0001
1000
0010
0100
0010
1000
0010
0100
0010
1000
,
0100
0010
0001
0010
0001
1000
0010
1000
0100
0010
0001
0010
0001
0100
0010
1000
,
0200
0000
0000
0320
0000
0000
0032
0000
,
2003
0000
0000
3002
0000
0000
0023
0000
,
0031
0010
0200
0000
0000
0000
0000
0000
0000
0000
0300
0000
0200
0000
0000
0000
,
0310
0100
2000
0000
0000
0000
0000
0000
0000
0000
0000
0000
0000
0000
0000
0000
,
3001
0100
1000
0100
0001
0100
1000
0100
0001
0100
1000
0100
0001
0100
1000
0100
,
0010
1000
0100
1000
0001
0010
1000
0010
0100
1000
0001
1000
0010
0100
0001
0100
,
1010
0100
0001
0011
1100
0001
1000
0100
,
0011
0000
0100
0000
1000
0000
1010
0000
0101
0000
0001
0000
1000
0000
0100
0010
,
1100
0000
0001
0000
0010
0000
1100
0000
0011
0000
0001
0000
1000
0000
0001
1000
,
0110
0100
1100
0100
0110
0010
0011
0001
,
1001
0100
0010
1010
0101
0001
1000
0010
,
0101
0001
1000
0110
1001
0100
0010
1000
,
1100
0000
0010
0001
1100
0000
0110
0000
0101
0000
0010
0100
1001
0000
0110
0000
,
1001
0000
0100
0000
0001
0000
0010
0001
1100
0000
1000
0000
1001
0000
0001
0000
,
1100
0010
0001
0101
1010
0001
1000
0100
,
0011
0100
1000
1010
0101
0010
0001
1000
,
1100
0000
0010
0000
0001
0000
1010
0000
1001
0000
0100
0000
0010
0000
0001
1000
,
0011
0001
1100
1000
1010
0001
0101
0001
,
0110
0001
1000
1100
0011
0001
1000
0010
,
0101
0010
1000
0011
1001
0100
1010
1100
,
1001
0000
0010
0001
1100
0000
1010
0000
1001
0000
0100
1000
0011
0000
0101
0000
,
1001
0000
0100
0000
0010
0000
0010
0100
1001
0000
1010
0000
0011
0000
0110
0000
,
1001
0010
0100
1100
0011
0001
1000
0100
,
1010
0100
0001
0011
1001
0100
1000
0001
,
0101
0000
0010
0000
1000
0000
0011
0000
1100
0000
0100
0000
0010
0000
0001
1000
,
0100
0010
0100
0010
0001
1000
0001
1000
0010
0100
0010
0100
0001
0010
0001
0010
,
1100
0010
0001
0011
1100
0010
0001
0100
,
0101
0010
1000
1010
0101
0100
0101
0100
,
1010
0000
1000
0001
1100
0000
0001
0000
0011
0000
0100
1000
0110
0000
0101
0000
,
1001
0000
0110
0000
1100
0000
0010
0001
1100
0000
0110
0000
0101
0000
0011
0000
,
1001
0000
1100
0000
,
0101
0000
0011
0000
,
0110
0000
0000
0000
0000
0000
0000
0000
0000
0000
0000
0000
0001
1000
0010
0100
,
0001
0010
0001
1000
0001
0100
0001
0010
0100
1000
0010
1000
0001
1000
0100
1000
,
0010
0100
0001
0010
0100
0010
0001
1000
0010
1000
0100
0010
0001
1000
0001
0100
,
0001
0010
0100
1000
0010
0100
0010
1000
0010
0100
0001
0010
0100
0010
0100
1000
,
0001
1000
0100
1000
0010
0100
0001
0010
0100
0010
0001
1000
0100
0010
0001
0100
,
0010
0100
0001
0010
0100
1000
0010
0100
0001
0010
0100
1000
0010
0100
0001
0010
,
0001
0010
0100
1000
0010
0100
0001
1000
0001
0100
0001
0010
0100
0010
0100
1000
,
0001
1000
0100
1000
0010
0100
0010
1000
0010
0100
0001
0010
0100
1000
0010
0100
,
0010
1000
0001
0100
0001
0010
0100
1000
0010
0100
0001
1000
0100
0010
0001
1000
,
0100
1000
0010
1000
0001
1000
0010
0100
0010
0100
0001
0010
0100
1000
0001
0100
,
0001
1000
0010
1000
0100
1000
0001
0100
0010
1000
0100
0010
0001
0100
0010
1000
,
0001
0010
0001
1000
0010
1000
0001
0010
0001
1000
0100
1000
0001
0100
0001
1000
,
0100
1000
0001
0100
0001
0010
0100
1000
0010
0100
0010
1000
0001
0100
0001
0010
,
0001
1000
0010
0100
0010
1000
0010
0100
0010
1000
0001
0100
0001
0010
0100
0010
,
0001
0010
0100
0010
0001
1000
0100
0010
0001
1000
0010
0100
0001
0010
0100
0010
,
1001
0000
0000
1001
1001
1001
1001
0000
0000
1001
0000
0000
,
1100
0000
0011
0000
,
0110
0000
0000
0110
0110
0110
0110
0000
0000
0110
0000
0000
,
1001
0000
0000
1001
1001
1001
1001
0000
0000
1001
0000
0000
,
0011
0100
1000
0001
0100
0001
1000
0010
0100
0001
0010
0100
0010
0001
1000
0010
,
0101
0010
1000
0001
0100
0001
1000
0010
0100
0001
0010
0100
0010
0001
0100
0010
,
1001
0100
0010
0100
0001
1000
0100
1000
0001
0010
0100
1000
0010
0100
0001
1000
,
0110
0000
0000
0000
0000
0000
0000
0000
1001
0100
0010
0100
0010
0100
0010
0100
,
1000
0010
0100
0001
0010
0100
0010
0001
1000
0100
1000
0001
0010
0001
0010
0100
,
1000
0010
0100
0010
1000
0100
1000
0001
0010
0001
1000
0001
0100
0010
0100
0010
,
1000
0010
0100
0001
1000
0100
1000
0010
0100
0001
0010
0100
1000
0010
0100
0010
,
1000
0001
0010
0001
0100
0001
0010
0100
1000
0010
0100
0010
1000
0010
0100
0010
,
1000
0100
0010
0100
1000
0100
0010
0001
0100
0010
0100
0001
0010
0001
0100
0001
,
1000
0010
0100
0010
1000
0001
0100
0001
0100
0010
1000
0100
0010
0100
1000
0001
,
0100
0001
0010
0100
0010
0100
1000
0001
0100
0001
1000
0010
0100
0010
1000
0001
,
0100
0001
0010
0100
1000
0010
0100
0001
1000
0100
1000
0010
0100
0010
1000
0001
,
0010
0100
0010
0001
1000
0001
0100
0001
0010
0100
0010
0100
1000
0010
0100
0001
,
0100
0010
1000
0100
1000
0010
0100
0001
1000
0001
1000
0100
0010
0100
1000
0010
,
0100
0010
0100
0001
1000
0100
1000
0010
1000
0010
0100
0001
0010
0100
0010
0001
,
1000
0001
0100
0010
0100
0001
1000
0001
0010
0100
1000
0100
0010
0001
1000
0001
,
0100
0010
1000
0100
0010
0001
1000
0100
1000
0001
1000
0001
0100
0001
1000
0010
,
0100
0010
1000
0001
0010
0100
1000
0010
0100
0010
1000
0001
0010
0100
1000
0010
,
0101
0000
0000
0101
0101
0101
0101
0000
0000
0101
0000
0000
,
0101
0000
0011
0000
,
1100
0000
0000
1100
1100
1100
1100
0000
0000
1100
0000
0000
,
0101
0000
0000
0101
0101
0101
0101
0000
0000
0101
0000
0000
,
1010
0100
0001
1000
0001
0100
0001
0010
0100
1000
0010
0100
0001
0010
0100
1000
,
0011
0100
1000
0001
0100
0001
1000
0100
0010
0001
0100
0010
1000
0100
0010
0001
,
1100
0001
0100
0001
0010
0100
1000
0010
0100
0001
1000
0001
0100
0001
1000
0010
,
0101
0000
0000
0000
0000
0000
0000
0000
0000
0000
0000
0000
0010
1000
0001
1000
,
0101
0010
1000
0001
1100
0010
0001
1000
,
0100
1000
0010
0100
0011
0101
1001
0010
,
1100
0001
0010
0100
0101
0010
0100
1000
,
0010
0100
0001
1000
0100
1000
0001
0010
,
1100
0001
0100
0001
1010
0100
0001
1000
,
0010
0100
0001
0010
1100
1001
0101
0010
,
1100
0001
0100
0010
1010
0100
0001
1000
,
0100
1000
0001
1000
0010
0100
0001
0010
,
1001
0000
0000
0000
;
