#TITLE:reality;
#SUBTITLE:-Euro-Dream Mix-;
#ARTIST:dream;
#TITLETRANSLIT:;
#SUBTITLETRANSLIT:;
#ARTISTTRANSLIT:;
#CREDIT:;
#BANNER:reality.png;
#BACKGROUND:reality-bg.png;
#LYRICSPATH:;
#CDTITLE:;
#MUSIC:reality.mp3;
#OFFSET:0.000;
#SAMPLESTART:68.700;
#SAMPLELENGTH:18.000;
#SELECTABLE:YES;
#BPMS:0.000=150.000;
#STOPS:;
#BGCHANGES:;
// cache tags:
#FIRSTBEAT:20.000;
#LASTBEAT:275.500;
#SONGFILENAME:Songs/keyboard/4/reality.sm;
#HASMUSIC:1;
#HASBANNER:1;
#MUSICLENGTH:111.315;
// end cache tags

//---------------dance-single - ----------------
#NOTES:
     dance-single:
     :
     Easy:
     5:
     0.417,0.525,0.620,0.135,0.000,241.000,69.000,15.000,0.000,0.000:  // measure 1
0000
0000
0000
0000
,  // measure 2
0000
0000
0000
0000
,  // measure 3
0000
0000
0000
0000
,  // measure 4
0000
0000
0000
0000
,  // measure 5
0000
0000
0000
0000
,  // measure 6
1000
1000
1000
1000
,  // measure 7
0001
0001
0001
0001
,  // measure 8
0100
0100
0010
0010
,  // measure 9
2002
0000
0000
0000
0000
3003
0000
0000
,  // measure 10
0110
1000
0100
0001
,  // measure 11
0110
0001
0100
1000
,  // measure 12
0100
1100
0010
0011
,  // measure 13
0001
0010
1000
0100
,  // measure 14
1001
0100
0001
1000
,  // measure 15
1001
0010
1000
0001
,  // measure 16
0100
0101
0010
1010
,  // measure 17
1001
0100
0100
0100
,  // measure 18
1001
0010
1000
1000
,  // measure 19
1000
0100
0010
0010
,  // measure 20
0010
0100
0010
0100
,  // measure 21
0001
0100
1000
0100
,  // measure 22
1000
0001
0010
0000
,  // measure 23
0010
0100
1010
0101
,  // measure 24
1000
0001
1100
0011
,  // measure 25
0220
0000
0330
0000
2002
0000
0000
3003
,  // measure 26
0100
0001
0001
0001
,  // measure 27
0010
1000
1000
1000
,  // measure 28
0100
0010
0100
0010
,  // measure 29
2000
3000
0200
0300
,  // measure 30
0001
1100
1000
0011
,  // measure 31
0100
1000
0001
0010
,  // measure 32
1000
1000
0001
0100
,  // measure 33
1001
0100
0110
0010
,  // measure 34
1001
0000
1000
1000
0000
0000
0100
0000
,  // measure 35
0100
0100
0100
0100
,  // measure 36
1001
0000
0001
0001
0000
0000
0001
0000
,  // measure 37
0010
0010
0010
0010
,  // measure 38
1000
0100
0001
0100
,  // measure 39
1000
0010
0001
0010
,  // measure 40
1000
0010
0011
0011
,  // measure 41
0010
0100
1100
1100
,  // measure 42
2000
0000
0000
3000
,  // measure 43
0011
1100
0110
0110
,  // measure 44
1001
0010
1000
1000
,  // measure 45
1000
0010
0001
0001
,  // measure 46
1000
0010
0001
0010
,  // measure 47
0100
1100
0101
1100
,  // measure 48
0001
0110
1000
1001
,  // measure 49
0010
0010
0001
0001
,  // measure 50
1000
1000
0100
0100
,  // measure 51
1010
0101
0011
1100
,  // measure 52
1001
0110
0101
1100
,  // measure 53
0001
0001
1000
0100
,  // measure 54
1000
1010
0100
0001
,  // measure 55
0100
0010
0200
0300
,  // measure 56
1001
0101
0110
1100
,  // measure 57
0110
0000
1001
0000
1000
1000
1000
0000
,  // measure 58
1001
0000
0110
0000
0001
0001
0001
0000
,  // measure 59
1000
0100
0002
1003
,  // measure 60
1001
1000
0100
0001
,  // measure 61
0010
0000
1000
0000
0100
0000
0001
0001
,  // measure 62
0001
0110
1100
1100
,  // measure 63
1000
0110
0011
0011
,  // measure 64
0100
0001
0010
0100
,  // measure 65
1001
1000
1000
0100
,  // measure 66
1001
0001
0001
0100
,  // measure 67
0110
1100
0110
0101
,  // measure 68
0220
0000
0000
0330
,  // measure 69
2002
0000
0000
3003
;

//---------------dance-single - ----------------
#NOTES:
     dance-single:
     :
     Medium:
     7:
     0.474,0.587,0.278,0.332,0.000,301.000,31.000,37.000,0.000,0.000:  // measure 1
0000
0000
0000
0000
,  // measure 2
0000
0000
0000
0000
,  // measure 3
0000
0000
0000
0000
,  // measure 4
0000
0000
0000
0000
,  // measure 5
0000
0000
0000
0000
,  // measure 6
1001
0000
1000
0000
1000
0000
1000
0100
,  // measure 7
0001
0000
0001
0000
0001
0000
0001
0100
,  // measure 8
0010
0000
0010
0000
0010
0100
0010
0100
,  // measure 9
0010
0000
0000
0000
0000
0000
0000
0000
0010
0000
0000
0000
0000
0000
0000
0000
2002
0000
0000
0000
0000
0000
0000
3003
0000
0000
0000
0000
0000
0000
0000
0000
,  // measure 10
1001
0000
0001
0000
1000
0001
0010
0000
,  // measure 11
0110
0000
0110
0000
1000
0010
0001
0000
,  // measure 12
1000
1001
0110
1100
,  // measure 13
0202
0000
0000
0000
0000
0000
0000
0303
0000
0000
0000
0000
0000
0000
0000
0000
1000
0000
0000
0000
0001
0000
0000
0000
1000
0000
0000
0000
0001
0000
0000
0000
,  // measure 14
1000
1000
0001
0001
,  // measure 15
0100
0100
0010
0010
,  // measure 16
1000
0100
0010
0001
0010
0100
1000
0000
,  // measure 17
2002
0000
0000
0000
0000
3003
0000
0000
,  // measure 18
0110
0001
1000
0010
,  // measure 19
1000
0100
1000
0001
,  // measure 20
1000
0000
1000
0000
0001
0000
0001
0100
,  // measure 21
1000
0000
1000
0010
0000
0010
0000
0100
,  // measure 22
0002
0000
0000
0000
0000
0000
0000
0003
0000
0000
0000
0000
0000
0000
0000
0000
0001
0000
0000
0000
0000
0000
0000
0000
1000
0000
0000
0000
0000
0000
0000
0000
,  // measure 23
1000
0010
0010
0001
,  // measure 24
0100
1000
1000
0001
,  // measure 25
0002
0000
2000
3003
,  // measure 26
1001
1000
0001
0010
,  // measure 27
1000
0100
1000
0001
,  // measure 28
0001
0000
0001
0000
1000
0000
1000
0100
,  // measure 29
0001
0000
0001
0010
0000
0010
0000
0100
,  // measure 30
0002
0000
0000
0000
0000
0000
0000
0003
0000
0000
0000
0000
0000
0000
0000
0000
0001
0000
0000
0000
0000
0000
0000
0000
1000
0000
0000
0000
0000
0000
0000
0000
,  // measure 31
0001
0010
0010
1000
,  // measure 32
0100
0001
0001
1000
,  // measure 33
2000
0000
0002
3003
,  // measure 34
1100
0001
0010
0200
0300
0000
1010
0000
,  // measure 35
1000
0010
0100
0002
0003
0000
0011
0000
,  // measure 36
0010
0100
0001
2000
3000
0000
0110
0000
,  // measure 37
0001
0010
0100
2000
3000
0000
1100
0000
,  // measure 38
0010
0010
0000
0001
0000
1000
0000
0100
,  // measure 39
0000
0010
0000
0001
0000
1000
0000
0100
,  // measure 40
0200
0000
0300
0001
0002
0000
0003
0000
,  // measure 41
0010
0100
0001
0010
0100
0000
1000
0100
,  // measure 42
0020
0000
0000
0030
,  // measure 43
0110
0000
0011
0000
1100
0000
2002
3003
,  // measure 44
0100
0001
0100
1000
0100
0001
0100
1000
,  // measure 45
0010
0001
0010
1000
0001
0010
1000
0010
,  // measure 46
0010
0100
1000
0010
0000
0001
0000
0001
,  // measure 47
0000
1000
0000
2000
0000
3000
0000
0010
,  // measure 48
0010
0001
0100
1000
0010
0100
0001
1000
,  // measure 49
0001
0010
1000
0100
0001
1000
0010
0100
,  // measure 50
1000
1000
2000
3000
0001
0001
0002
0003
,  // measure 51
0100
0010
0100
0010
0200
0000
0300
0000
,  // measure 52
1000
0100
1000
0010
1000
0100
1000
0010
,  // measure 53
0001
0010
0001
0100
0001
0010
0001
0100
,  // measure 54
0100
0010
0001
0100
0000
1000
0000
1000
,  // measure 55
0000
0001
0000
0002
0000
0003
0000
0100
,  // measure 56
0100
1000
0010
0001
0100
0010
1000
0001
,  // measure 57
1000
0100
0001
0010
1000
0001
0100
0010
,  // measure 58
1000
1000
2000
3000
0001
0001
0002
0003
,  // measure 59
0100
0010
0100
0010
0200
0000
0300
0000
,  // measure 60
1001
0000
0001
0000
1000
0001
0010
0000
,  // measure 61
0110
0000
0110
0000
1000
0010
0001
0000
,  // measure 62
1000
1001
0110
1100
,  // measure 63
0202
0000
0000
0000
0000
0000
0000
0303
0000
0000
0000
0000
0000
0000
0000
0000
1000
0000
0000
0000
0001
0000
0000
0000
1000
0000
0000
0000
0001
0000
0000
0000
,  // measure 64
1000
1000
0001
0001
,  // measure 65
0100
0100
0010
0010
,  // measure 66
1000
0100
0010
0001
0010
0100
1000
0000
,  // measure 67
2002
0000
0000
0000
0000
3003
0000
0000
,  // measure 68
2200
0000
0000
3300
,  // measure 69
0202
0000
0000
0303
;

//---------------dance-single - ----------------
#NOTES:
     dance-single:
     :
     Hard:
     9:
     0.525,0.618,0.207,0.252,0.085,358.000,23.000,28.000,0.000,0.000:  // measure 1
0000
0000
0000
0000
,  // measure 2
0000
0000
0000
0000
,  // measure 3
0000
0000
0000
0000
,  // measure 4
0000
0000
0000
0000
,  // measure 5
0000
0000
0000
0000
,  // measure 6
0001
0001
0001
0001
,  // measure 7
0010
0010
0010
0010
,  // measure 8
0100
0100
1000
1000
,  // measure 9
0220
0000
0000
0330
,  // measure 10
0001
0100
1000
0100
0001
0100
1000
0100
,  // measure 11
1000
0010
0001
0010
1000
0010
0001
0100
,  // measure 12
1000
0001
1000
0000
1000
0000
1000
0000
0001
1000
0001
0000
0001
0000
0001
0000
,  // measure 13
0100
0001
1000
0010
0001
0100
0110
0110
,  // measure 14
1001
0010
0001
0010
1000
0010
0001
0010
,  // measure 15
1000
0100
0001
0100
1000
0100
0001
0100
,  // measure 16
0001
1000
0001
0000
0001
0000
0001
0000
1000
0001
1000
0000
1000
0000
1000
0000
,  // measure 17
0100
0010
0100
0000
0002
2000
3003
0000
,  // measure 18
1001
0001
1000
0100
0010
0100
0001
0010
,  // measure 19
0000
1000
0100
0100
0000
0010
0001
0100
,  // measure 20
0020
0000
0030
0000
0001
0100
1000
1000
,  // measure 21
0010
0000
0100
0010
0000
0010
0000
0200
,  // measure 22
0000
0000
0000
0000
0300
0000
0000
0000
0001
0000
0000
0001
0000
0000
0001
0000
,  // measure 23
2000
0000
0000
0000
3000
0000
0000
1000
0000
0000
0010
0000
0100
0000
0010
0100
,  // measure 24
0010
0000
0000
0000
0000
0000
0000
0000
0100
0000
0000
1000
0000
0000
0001
0000
,  // measure 25
0002
0000
0000
1000
2000
0000
3003
0000
,  // measure 26
1001
1000
0001
0100
0010
0100
1000
0010
,  // measure 27
0000
0001
0010
0010
0000
0100
1000
0010
,  // measure 28
0020
0000
0030
0000
0001
0100
1000
1000
,  // measure 29
0010
0000
0100
0010
0000
0010
0000
0200
,  // measure 30
0000
0000
0000
0000
0300
0000
0000
0000
0001
0000
0000
0001
0000
0000
0001
0000
,  // measure 31
0002
0000
0000
0000
0003
0000
0000
0001
0000
0000
0100
0000
0010
0000
0100
0010
,  // measure 32
0100
0000
0000
0000
0000
0000
0000
0000
0100
0000
0000
1000
0000
0000
0001
0000
,  // measure 33
0002
0000
0000
1000
2000
0000
3003
0000
,  // measure 34
0110
0000
0001
0010
0000
1000
0000
0100
,  // measure 35
0000
0001
0000
0100
0000
1000
0000
0010
,  // measure 36
0010
0000
0001
0100
0000
0001
1000
0000
,  // measure 37
0100
0100
0002
0003
0000
0010
0010
0000
,  // measure 38
1100
0000
0001
0011
0000
0010
0000
0100
,  // measure 39
0000
0010
0000
0010
0000
0100
0000
0010
,  // measure 40
0200
0000
0000
0000
0300
0000
0010
0000
0020
0000
0000
0000
0030
0000
1000
0100
,  // measure 41
0001
0000
0000
0100
0000
0000
1000
0000
0100
0000
0000
0001
0000
0000
0100
0000
,  // measure 42
0020
0000
0000
0030
,  // measure 43
0011
0000
1100
0000
1001
0000
0220
0330
,  // measure 44
1001
0000
0010
0100
0000
0010
0000
0100
,  // measure 45
0020
0030
0001
1000
0000
0100
0010
0001
,  // measure 46
1000
0000
0100
0001
0000
0100
0010
1000
,  // measure 47
0000
0010
0000
0002
0000
0003
0000
1000
,  // measure 48
0100
0001
0100
1000
0000
0010
0000
0001
,  // measure 49
0000
0001
1000
0100
0000
0010
0100
1000
,  // measure 50
0100
0000
0010
0100
0000
0010
0001
0010
,  // measure 51
0000
1000
0100
0000
0011
0000
1100
0000
,  // measure 52
1001
0100
0010
0100
0000
0100
0000
0010
,  // measure 53
0100
0000
0010
0100
0000
0001
0100
1000
,  // measure 54
0110
0000
0001
1000
0000
0001
0000
1000
,  // measure 55
0001
0010
0100
1000
0000
0010
0010
0000
,  // measure 56
1000
0100
0010
0001
0000
0001
0000
0001
,  // measure 57
0010
0100
1000
0001
0000
0001
1000
0010
,  // measure 58
0100
0000
0001
0100
0000
1000
0100
0010
,  // measure 59
0000
0100
0100
0000
1000
0100
0001
0000
,  // measure 60
0001
0100
1000
0100
0001
0100
1000
0100
,  // measure 61
1000
0010
0001
0010
1000
0010
0001
0100
,  // measure 62
1000
0001
1000
0000
1000
0000
1000
0000
0001
1000
0001
0000
0001
0000
0001
0000
,  // measure 63
0100
0001
1000
0010
0001
0100
0110
0110
,  // measure 64
1001
0010
0001
0010
1000
0010
0001
0010
,  // measure 65
1000
0100
0001
0100
1000
0100
0001
0100
,  // measure 66
0001
1000
0001
0000
0001
0000
0001
0000
1000
0001
1000
0000
1000
0000
1000
0000
,  // measure 67
0100
0010
0100
0000
0002
2000
3003
0000
,  // measure 68
0022
0000
0000
0033
,  // measure 69
2200
0000
0000
3300
;

//---------------dance-single - ----------------
#NOTES:
     dance-single:
     :
     Challenge:
     10:
     0.601,0.742,0.171,0.296,0.391,416.000,19.000,33.000,0.000,0.000:  // measure 1
0000
0000
0000
0000
,  // measure 2
0000
0000
0000
0000
,  // measure 3
0000
0000
0000
0000
,  // measure 4
0000
0000
0000
0000
,  // measure 5
0000
0000
0000
0000
,  // measure 6
0100
0000
0100
0000
0100
0000
0100
0100
,  // measure 7
0010
0000
0010
0000
0010
0000
0010
0010
,  // measure 8
0110
1001
1100
0011
,  // measure 9
2002
0000
0000
3003
,  // measure 10
1000
0100
1000
0100
1000
0000
1000
0100
0000
0001
0100
0000
0001
0000
0001
0000
,  // measure 11
0010
0100
0010
0100
0010
0000
0010
0000
0000
0001
0001
0000
1000
0000
1000
0000
,  // measure 12
0100
0001
0100
0001
0100
0010
0100
0001
0000
0010
0001
0000
0010
0000
0010
0000
,  // measure 13
0001
1000
0001
1000
0001
1000
0001
1000
0001
0000
0001
0010
0000
0000
0010
0000
,  // measure 14
0001
0010
0001
0010
0001
0000
0001
0010
0000
1000
0010
0000
1000
0000
1000
0000
,  // measure 15
0100
0010
0100
0010
0100
0000
0100
0000
0000
1000
1000
0000
0001
0000
0001
0000
,  // measure 16
0100
0001
0100
0001
0100
0010
0100
0001
0000
0010
0001
0000
0010
0000
0010
0000
,  // measure 17
1000
0001
1000
0001
1000
0001
1000
0001
1000
0000
1000
0100
0000
0000
0100
0000
,  // measure 18
1001
0100
0001
0100
1000
0100
0001
0100
,  // measure 19
0000
0000
0100
0000
0001
0000
0100
0000
0000
0000
0100
0000
0001
0000
0010
0020
,  // measure 20
0000
0000
0000
0000
0030
0000
0100
1000
,  // measure 21
0010
0000
0100
0010
0000
0001
0000
2000
,  // measure 22
0000
0000
0000
0000
3000
0000
0000
0000
0001
0000
0000
0010
0000
0000
1000
0000
,  // measure 23
0100
0000
0000
0000
0010
0000
0100
0000
0000
0000
1000
0000
0010
0000
0100
0002
,  // measure 24
0000
0000
0000
0000
0003
0000
0000
0000
1000
0000
0000
0001
0000
0000
0001
0000
,  // measure 25
0002
0000
0003
1000
2000
0000
3000
0000
,  // measure 26
1001
0010
0100
1000
0100
0010
0001
0010
,  // measure 27
0000
0000
0010
0000
1000
0000
0010
0000
0000
0000
0010
0000
1000
0000
0100
0002
,  // measure 28
0000
0000
0000
0000
0003
0000
0010
0001
,  // measure 29
1000
0000
0100
0010
0000
0001
0000
0200
,  // measure 30
0000
0000
0000
0000
0300
0000
0000
0000
1000
0000
0000
0100
0000
0000
0001
0000
,  // measure 31
0100
0000
0000
0000
0000
0000
0100
0000
0000
0000
1000
0000
0010
0000
0100
0002
,  // measure 32
0000
0000
0000
0000
0003
0000
0000
0000
1000
0000
0000
0001
0000
0000
0001
0000
,  // measure 33
0002
0000
0000
1000
2003
0000
3000
0000
,  // measure 34
0110
0000
0001
0010
0000
1000
0000
0010
,  // measure 35
0000
0001
0000
0010
0000
1000
0000
0010
,  // measure 36
0010
0000
1000
0100
0000
0001
0000
0100
,  // measure 37
0000
1000
0100
0001
0000
0100
0100
0000
,  // measure 38
1001
0000
0110
1001
0000
0010
0000
0100
,  // measure 39
0000
0010
0000
0100
0000
0010
0000
0001
,  // measure 40
0002
0000
0000
0000
0000
0000
1000
0000
2003
0000
0000
0000
3000
0000
0001
0100
,  // measure 41
1000
0000
0000
0010
0000
0000
0001
0000
1000
0000
0000
0010
0000
0000
0001
0000
,  // measure 42
2000
0000
0000
3000
,  // measure 43
1100
0000
0011
0000
0110
0000
2002
3003
,  // measure 44
1100
0000
0001
0100
0000
0001
0000
0010
,  // measure 45
2000
3000
0010
0010
0000
0001
0100
1000
,  // measure 46
0100
0000
0001
1000
0000
0010
0100
1000
,  // measure 47
0000
0000
0000
0000
0011
0000
0000
0000
0000
0000
0000
0000
2200
0000
0000
0000
0000
0000
0000
0000
0000
3300
0000
0000
0000
0000
0000
0000
0010
0000
0000
0000
,  // measure 48
0100
0000
0000
0000
0010
0000
0000
0000
0100
0000
0000
0000
0020
0000
0000
0000
0000
0030
0000
0000
0001
0000
0000
0000
0000
0000
0000
0000
0200
0000
0000
0000
,  // measure 49
0300
0010
0001
1000
0000
0100
0010
0001
,  // measure 50
0100
1000
0100
0002
0003
0100
1000
0100
,  // measure 51
0000
0010
0020
0000
0000
0000
0030
0000
,  // measure 52
0110
0001
1000
0200
0300
0001
0000
0010
,  // measure 53
0200
0300
1000
0020
0030
0001
0100
0001
,  // measure 54
0100
0000
1000
0100
0000
0001
0001
0020
,  // measure 55
0030
0010
0000
0002
0003
0000
0000
0010
,  // measure 56
0100
1000
0001
0020
0030
0100
0000
0010
,  // measure 57
0000
1000
0010
0001
0000
0100
0010
0100
,  // measure 58
0010
0000
0100
0001
0000
1000
0010
0010
,  // measure 59
0000
0000
0000
0000
0100
0000
0000
0000
0200
0000
0000
0000
0000
0000
0000
0000
0000
0000
0000
0000
0000
0000
0000
0300
0000
0000
0000
0000
0000
0000
0000
0000
,  // measure 60
1000
0100
1000
0100
1000
0000
1000
0100
0000
0001
0100
0000
0001
0000
0001
0000
,  // measure 61
0010
0100
0010
0100
0010
0000
0010
0000
0000
0001
0001
0000
1000
0000
1000
0000
,  // measure 62
0100
0001
0100
0001
0100
0010
0100
0001
0000
0010
0001
0000
0010
0000
0010
0000
,  // measure 63
0001
1000
0001
1000
0001
1000
0001
1000
0001
0000
0001
0010
0000
0000
0010
0000
,  // measure 64
0001
0010
0001
0010
0001
0000
0001
0010
0000
1000
0010
0000
1000
0000
1000
0000
,  // measure 65
0100
0010
0100
0010
0100
0000
0100
0000
0000
1000
1000
0000
0001
0000
0001
0000
,  // measure 66
0100
0001
0100
0001
0100
0010
0100
0001
0000
0010
0001
0000
0010
0000
0010
0000
,  // measure 67
1000
0001
1000
0001
1000
0001
1000
0001
1000
0000
1000
0100
0000
0000
0100
0000
,  // measure 68
0010
0000
0100
0000
0010
0000
0100
0000
0010
0000
0000
0000
0100
0000
0010
0000
0100
0000
0010
0000
0200
0000
0000
0000
0000
0000
0000
0300
0000
0000
0000
0000
,  // measure 69
0100
0010
0100
0010
0100
0000
0010
0100
0010
0100
0020
0000
0000
0000
0030
0000
;
