#TITLE:11Eleven;
#SUBTITLE:;
#ARTIST:DJ Sharpnel;
#TITLETRANSLIT:;
#SUBTITLETRANSLIT:;
#ARTISTTRANSLIT:;
#CREDIT:;
#BANNER:11eleven bn.png;
#BACKGROUND:11eleven bg.png;
#LYRICSPATH:;
#CDTITLE:;
#MUSIC:11eleven.ogg;
#OFFSET:-0.042;
#SAMPLESTART:167.911;
#SAMPLELENGTH:18.915;
#SELECTABLE:YES;
#DISPLAYBPM:203.000;
#BPMS:0.000=203.000,64.000=152.250,65.500=101.500,66.500=25.875,67.000=203.000,367.000=406.000,371.000=203.000;
#STOPS:367.000=0.037
,367.250=0.037
,367.500=0.037
,367.750=0.037
,368.000=0.037
,368.250=0.037
,368.500=0.037
,368.750=0.037
,369.000=0.037
,369.250=0.037
,369.500=0.037
,369.750=0.037
,370.000=0.037
,370.250=0.037
,370.500=0.037
,370.750=0.037
;
#BGCHANGES:;
// cache tags:
#FIRSTBEAT:32.000;
#LASTBEAT:882.000;
#SONGFILENAME:Songs/SHARPNELSTREAMZ v2/11Eleven/11Eleven.sm;
#HASMUSIC:1;
#HASBANNER:1;
#MUSICLENGTH:262.922;
// end cache tags

//---------------dance-single - 17 (TYLR)----------------
#NOTES:
     dance-single:
     17 (TYLR):
     Challenge:
     17:
     1.000,1.000,0.084,0.152,1.000,2711.000,22.000,40.000,0.000,0.000:
0000
0000
0000
0000
,
0000
0000
0000
0000
,
0000
0000
0000
0000
,
0000
0000
0000
0000
,
0000
0000
0000
0000
,
0000
0000
0000
0000
,
0000
0000
0000
0000
,
0000
0000
0000
0000
,
1000
0000
0100
0000
0010
0000
0100
1000
0001
0100
0001
0000
0100
0000
0010
0000
,
1000
0000
0100
0000
0010
0000
0001
0100
0010
0100
0001
0000
1000
0000
0010
0000
,
0100
0000
0010
0000
1000
0000
0100
0010
0001
1000
0010
0000
0100
0000
0010
0000
,
1000
0000
0001
0000
0010
0000
0001
0100
0020
2030
3002
0000
0103
0000
0020
0000
,
1030
0000
0001
0000
1000
0000
0010
1000
0001
0010
0100
0000
0010
0000
0001
1000
,
0001
0000
1000
0000
0010
0000
0100
0010
1000
0001
1000
0000
0100
0000
0010
0000
,
0001
0000
1000
0000
0001
0000
1000
0100
0010
0001
1000
0000
0010
0000
0100
0000
,
0001
0000
0010
0000
0100
0000
1000
0100
0010
0001
1000
0010
0100
0010
1000
0001
,
4000
0000
0000
0000
0000
0000
3001
0001
,
0010
0001
0001
0100
0001
1000
0001
1000
,
0100
0000
1000
0000
0001
0010
0100
0010
0001
1000
0010
1000
0001
0000
0100
0000
,
0010
0000
1000
0010
0100
0010
1000
0000
0001
0000
0010
0000
0100
0000
0010
0000
,
0001
0000
1000
0100
0010
0001
1000
0000
0010
0000
0100
0000
0001
0000
0010
0000
,
0001
0000
1000
0010
1000
0001
0010
0000
0100
0000
0100
0000
1000
0000
1000
0000
,
0100
0000
0010
0000
0001
0000
1000
0001
0100
0000
0100
0000
0001
0000
0100
0000
,
0010
0000
0100
0001
1000
0100
0010
0000
0001
0000
1000
0000
0100
0000
1000
0000
,
0010
0000
0100
0001
1000
0100
0010
0000
0100
0000
1000
0000
0001
0000
0100
0000
,
0010
0000
1000
0001
0010
0100
1000
0000
0001
0000
0100
0000
0101
0000
0000
0000
,
0001
0000
1000
0100
1000
0001
0100
0010
0100
0000
0001
0000
1000
0000
0010
0000
,
0100
0000
0001
0100
0010
0100
0001
0000
1000
0000
0100
0000
0010
0000
0100
0000
,
1000
0000
0001
0010
0100
1000
0001
0000
0100
0000
0010
0000
1000
0000
0100
0000
,
1000
0000
0001
0100
0001
1000
0100
0000
0010
0000
0010
0000
0001
0000
0001
0000
,
0010
0000
0100
0000
1000
0000
0001
1000
0010
0000
0010
0000
1000
0000
0010
0000
,
0100
0000
0010
1000
0001
0010
0100
0000
1000
0000
0001
0000
0010
0000
0001
0000
,
0100
0000
0010
1000
0001
0010
0100
0000
0010
0000
0001
0000
0010
0001
1000
0100
,
1000
0001
0010
0100
1000
0001
0100
0010
0100
0001
1000
0100
1000
0000
0001
0000
,
0100
0000
0001
1000
0001
0010
0100
1000
0001
0000
0000
0000
1001
0000
0001
0000
,
0100
0000
0010
1000
0001
0100
0001
0000
1000
0000
0100
0000
0010
0000
0100
0000
,
1000
0000
0001
0100
0001
1000
0001
0000
1000
0000
0100
0000
0010
0000
0100
0000
,
1000
0000
0010
0100
0010
1000
0001
0000
0100
0000
0001
0000
0010
0000
0100
0000
,
1000
0000
0001
0100
0010
0100
0001
0000
1000
0000
0100
0000
0010
0000
0001
0000
,
1000
0000
0100
0010
0100
1000
0001
0000
0100
0000
0010
0000
1000
0000
0100
0000
,
1000
0000
0001
0100
0001
1000
0100
0000
0010
0000
0100
0000
1000
0000
0001
0000
,
0100
0000
0001
1000
0001
0010
0100
0000
1000
0000
0001
0000
1000
0000
0000
0000
,
0000
0000
0000
0000
0004
0000
0013
0001
,
1000
0000
0000
0001
0000
0000
0100
0000
0000
0010
0000
0000
1000
0000
0000
0001
0100
0001
0100
0000
0000
0010
0000
0000
,
1000
0000
0001
0000
0100
0000
0010
1000
0001
1000
0100
0010
0001
0000
1000
0000
,
0001
0000
0100
0000
0010
0000
1000
0000
0001
0000
0010
0100
1000
0000
0001
0000
,
0100
0000
0000
0000
0000
0000
0001
0000
0000
0000
0000
0000
1000
0000
0000
0000
0000
0000
0001
0000
0000
0010
0000
0000
0100
0000
0000
0000
0000
0000
1000
0000
0100
0000
1000
0000
0100
0000
0000
0000
0000
0000
1000
0000
0000
0000
0000
0000
,
0001
0000
0000
0000
0000
0000
0100
0000
0000
0000
0000
0000
0010
0000
0000
0000
0000
0000
0100
0000
0000
0001
0000
0000
1000
0000
0000
0000
0000
0000
0001
0000
0100
0000
0001
0000
0100
0000
0000
0000
0000
0000
0010
0000
0000
0000
0000
0000
,
1000
0000
0001
0000
1000
0000
0100
0010
0001
1000
0001
0100
0010
0000
0100
0000
,
0001
0000
0000
0000
0000
0000
1000
0000
0000
0100
0000
0000
1000
0000
0000
0001
0000
0000
0010
0000
0000
0100
0000
0000
1000
0000
0000
0001
0000
0000
1000
0000
0100
0000
1000
0000
0100
0000
0000
0000
0000
0000
1000
0000
0001
0000
1000
0000
,
0001
0000
0400
0000
0301
0000
4000
0000
3004
0000
0000
0000
1003
0100
1000
0001
,
0100
0010
0100
0001
1000
0001
0100
0001
1000
0100
0010
0001
1000
0001
0100
0001
,
1000
0100
0010
0001
0100
0010
0100
0001
1000
0001
1000
0001
1000
0100
0010
0001
,
1000
0001
0010
0100
1000
0001
1000
0001
0100
0010
0100
0001
1000
0100
0010
0001
,
0100
0010
1000
0001
1000
0100
0010
0001
0010
0100
1000
0001
0100
0010
1000
0001
,
1000
0100
0010
0001
1000
0001
1000
0010
0100
0001
0100
0010
1000
0001
1000
0001
,
1000
0001
0100
0010
1000
0100
0010
0001
0100
0001
1000
0100
1000
0001
0100
0010
,
0100
0001
1000
0001
0010
0100
1000
0001
1000
0010
0100
0001
0010
0100
1000
0001
,
0100
0010
1000
0001
2000
0000
0000
3000
1001
0000
0000
0000
0001
0100
0001
1000
,
0001
0010
0100
1000
0001
0100
0010
1000
0001
0100
0010
1000
0001
1000
0001
1000
,
0001
0100
0010
0100
0001
0010
0100
1000
0010
1000
0001
1000
0001
0010
0100
1000
,
0001
1000
0100
0010
0001
1000
0100
1000
0100
1000
0001
0010
0100
0010
0001
1000
,
0010
0100
0001
1000
0001
0010
0100
1000
0100
0010
0001
1000
0010
0100
0001
1000
,
0001
0010
0100
1000
0001
1000
0001
1000
0010
0100
0010
0100
0001
1000
0001
1000
,
0001
1000
0010
0100
0001
0010
0100
1000
0010
1000
0001
0100
0001
1000
0100
0010
,
0001
1000
0001
0100
0010
0100
0010
1000
0001
0100
0010
1000
0100
0010
0001
1000
,
0010
0100
0001
1000
0002
0000
0000
0003
1001
0000
0000
0000
1100
0000
1000
0000
,
0001
0000
0100
0000
0010
0000
0100
0000
0001
0000
1000
0000
0100
0000
0010
0001
,
0010
0100
1000
0000
0001
0000
1000
0000
0100
0000
1000
0000
0001
0000
0001
0000
,
1000
0000
0010
0000
0100
0000
0010
0000
1000
0000
0001
0000
0010
0000
0100
1000
,
0100
0010
0001
0000
1000
0000
0001
0000
0010
0000
0001
0000
0101
0000
0100
0000
,
0010
0000
1000
0000
0100
0000
1000
0000
0001
0000
0010
0000
0001
0000
1000
0010
,
0100
0001
1000
0000
0010
0000
1000
0000
0100
0000
0010
0000
0001
0000
0001
0000
,
0100
0000
0010
0000
1000
0000
0010
0000
0100
0000
0001
0000
1001
0000
1000
0100
,
0010
0001
1000
0000
0100
0000
1000
0000
0010
0000
0100
0000
0101
0000
0001
0000
,
1000
0000
0100
0000
0010
0000
0100
0000
1000
0000
0001
0000
0100
0000
0010
1000
,
0010
0100
0001
0000
1000
0000
0001
0000
0100
0000
0001
0000
1000
0000
1000
0000
,
0001
0000
0010
0000
0100
0000
0010
0000
0001
0000
1000
0000
0010
0000
0100
0001
,
0100
0010
1000
0000
0001
0000
1000
0000
0010
0000
1000
0000
1100
0000
0100
0000
,
0010
0000
0001
0000
0100
0000
0001
0000
1000
0000
0010
0000
1000
0000
0001
0010
,
0100
1000
0001
0000
0010
0000
0001
0000
0100
0000
0010
0000
1000
0000
1000
0000
,
0100
0000
0010
0000
0001
0000
0010
0000
0100
0000
1000
0000
1001
0000
0001
0100
,
0010
1000
0001
0000
0100
0000
0001
0000
0010
0000
0100
0000
1100
0000
1000
0000
,
0001
0000
0100
0000
0010
0000
0100
0000
0001
0000
1000
0000
0100
0000
0010
0001
,
0010
0100
1000
0000
0001
0000
1000
0000
0100
0000
1000
0000
0001
0000
0001
0000
,
1000
0000
0010
0000
0100
0000
0010
0000
1000
0000
0001
0000
0010
0000
0100
1000
,
0100
0010
0001
0000
1000
0000
0001
0000
0010
0000
0001
0000
0101
0000
0100
0000
,
0010
0000
1000
0000
0100
0000
1000
0000
0001
0000
0010
0000
0001
0000
1000
0010
,
0100
0001
1000
0000
0010
0000
1000
0000
0100
0000
0010
0000
0001
1000
0001
0010
,
0100
1000
0100
0010
0001
1000
0001
0100
0010
1000
0001
0010
0100
1000
0010
0100
,
0001
0010
0001
0100
0010
1000
0100
0010
0001
0100
0010
1000
0002
0000
0000
0000
,
0000
0000
0000
0000
0000
0000
0000
0000
0000
0000
0000
0000
1003
0100
1000
0100
,
0010
0001
0010
0001
1000
0001
0100
0010
1000
0100
0010
0001
0100
0000
0001
0000
,
0010
0000
0100
1000
0001
1000
0010
0000
0100
0000
0001
0000
0010
0000
0001
1000
,
0010
0100
0001
0000
1000
0000
0001
0000
0010
0000
0100
0000
1000
0000
0001
0000
,
0100
0000
0001
1000
0001
0010
0100
0000
1000
0000
0010
0000
0100
0000
0001
0010
,
0100
1000
0001
0000
1000
0000
0001
1000
0100
0000
0100
0000
0010
0000
0001
0000
,
1000
0000
0001
1000
0010
1000
0001
0000
0010
0000
0100
0000
1000
0000
0001
0100
,
0001
1000
0100
0000
0010
0000
0001
0000
0100
0000
0001
0000
1000
0000
0100
0000
,
0010
0000
0001
1000
0001
0100
0010
0000
1000
0000
0010
0000
0100
0000
0001
0010
,
0100
1000
0100
0000
0010
0000
0001
1000
0010
0000
0010
0000
0100
0000
0001
0000
,
1000
0000
0001
0010
0100
1000
0001
0000
1000
0000
0010
0000
1000
0000
0100
0010
,
0001
1000
0010
0000
0100
0000
0010
0000
1000
0000
0100
0000
0010
0000
0001
0000
,
1000
0000
0001
0100
0010
1000
0001
0000
1000
0000
0010
0000
0100
0000
0001
0010
,
0100
1000
0001
0000
0100
0000
0010
1000
0001
0000
0001
0000
1000
0000
0100
0000
,
0010
0000
0001
1000
0001
0100
0010
0000
1000
0000
0100
0000
0010
0000
0001
1000
,
0001
0100
0010
0000
1000
0000
0001
0000
1000
0000
0100
0000
0010
0000
0001
0000
,
1000
0000
0001
1000
0010
1000
0001
0000
0100
0000
0010
0000
2000
0000
0000
0000
,
3200
0000
0320
0000
0032
1003
0002
0000
0103
0000
0000
0000
0001
0000
1000
0000
,
0010
0000
0100
0010
0100
0001
1000
0000
0100
0000
0010
0000
0001
0000
1000
0001
,
0010
0100
1000
0001
1000
0010
0100
0000
0010
0000
1000
0000
0100
0000
0010
0000
,
0001
0000
1000
0010
1000
0001
0010
0000
0100
0000
1000
0000
0001
0000
1000
0100
,
0010
0001
1000
0010
0100
0001
1000
0010
1000
0000
0001
0000
0010
0000
0001
0000
,
1000
0000
0010
1000
0001
0010
0001
0000
0010
0000
0100
0000
1000
0000
0001
0010
,
0100
0010
0001
1000
0010
0100
0010
0000
1000
0000
0001
0000
1000
0000
0010
0000
,
1000
0000
0001
0010
0001
1000
0100
0000
0010
0000
0001
0000
1000
0000
0010
0100
,
0001
1000
0100
0010
0001
1000
0001
0100
0010
0000
1000
0000
0001
0000
0100
0000
,
0010
0000
1000
0010
1000
0001
0010
0000
0100
0000
1000
0000
0001
0000
0100
0010
,
1000
0001
0010
0001
1000
0010
1000
0000
0100
0000
0010
0000
0001
0000
1000
0000
,
0010
0000
1000
0100
0010
0001
1000
0000
0010
0000
0100
0000
0001
0000
0010
0001
,
1000
0010
0100
0010
1000
0001
1000
0010
0100
0000
0001
0000
1000
0000
0010
0000
,
1000
0000
0100
0010
0001
1000
0010
0000
0100
0000
0010
0000
1000
0000
0100
0010
,
0001
1000
0100
0010
0001
1000
0001
0000
0100
0000
0010
0000
1000
0000
0001
0000
,
1000
0000
0010
1000
0001
0010
0001
0000
1000
0000
0001
0000
0020
0000
0000
0000
,
0230
0000
0320
0000
0032
0013
0002
0000
1003
0000
0000
0000
0001
0010
0001
1000
,
0100
1000
0010
1000
0001
0100
0001
1000
0010
1000
0001
1000
0100
0010
0100
1000
,
0001
1000
0010
1000
0100
0010
0100
1000
0001
1000
0100
0010
0001
1000
0001
0010
,
0001
1000
0100
1000
0010
0100
0001
0010
0100
0010
0001
0100
0010
1000
0001
0010
,
0100
1000
0100
0010
0001
0100
0010
1000
0001
1000
0010
0100
0001
0010
0001
1000
,
0010
1000
0100
1000
0001
0010
0001
1000
0001
0100
0010
1000
0001
0100
0010
1000
,
0001
0010
0100
1000
0010
0100
0010
1000
0001
1000
0100
0010
0001
1000
0001
0100
,
0010
1000
0001
1000
0100
0010
0100
1000
0001
1000
0001
0100
0010
0100
0001
1000
,
0010
0100
0010
1000
0100
0010
0100
1000
0001
0100
0001
1000
0001
0010
0001
1000
,
0100
1000
0010
1000
0001
0100
0001
1000
0010
1000
0001
1000
0100
0010
0100
1000
,
0001
1000
0010
1000
0100
0010
0100
1000
0001
1000
0100
0010
0001
1000
0001
0010
,
0001
1000
0100
1000
0010
0100
0001
0010
0100
0010
0001
0100
0010
1000
0001
0010
,
0100
1000
0100
0010
0001
0100
0010
1000
0001
1000
0010
0100
0001
0010
0001
1000
,
0010
1000
0100
1000
0001
0010
0001
1000
0001
0100
0010
1000
0001
0100
0010
1000
,
0001
0010
0100
1000
0010
0100
0010
1000
0001
1000
0100
0010
0001
1000
0001
0100
,
0010
1000
0001
1000
0100
0010
0100
1000
0001
1000
0001
0100
0020
0000
0000
0000
,
0230
0000
0302
0000
2003
3001
2000
3000
1001
0000
0000
0000
1000
0100
1000
0001
,
0010
0001
0100
0001
1000
0010
1000
0001
0100
0001
1000
0001
0010
0100
0010
0001
,
1000
0001
0100
0001
0010
0100
0010
0001
1000
0001
0010
0100
1000
0001
1000
0100
,
1000
0001
0010
0001
0100
0010
1000
0100
0010
0100
1000
0010
0100
0001
1000
0100
,
0010
0001
0010
0100
1000
0010
0100
0001
1000
0001
0100
0010
1000
0100
1000
0001
,
0100
0001
0010
0001
1000
0100
1000
0001
1000
0010
0100
0001
1000
0010
0100
0001
,
1000
0100
0010
0001
0100
0010
0100
0001
1000
0001
0010
0100
1000
0001
1000
0010
,
0100
0001
1000
0001
0010
0100
0010
0001
1000
0001
1000
0010
0100
0010
1000
0001
,
0100
0010
0100
0001
0010
0100
0010
0001
1000
0010
1000
0001
1000
0100
1000
0001
,
0010
0001
0100
0001
1000
0010
1000
0001
0100
0001
1000
0001
0010
0100
0010
0001
,
1000
0001
0100
0001
0010
0100
0010
0001
1000
0001
0010
0100
1000
0001
1000
0100
,
1000
0001
0010
0001
0100
0010
1000
0100
0010
0100
1000
0010
0100
0001
1000
0100
,
0010
0001
0010
0100
1000
0010
0100
0001
1000
0001
0100
0010
1000
0100
1000
0001
,
0100
0001
0010
0001
1000
0100
1000
0001
1000
0010
0100
0001
1000
0010
0100
0001
,
1000
0100
0010
0001
0100
0010
0100
0001
1000
0001
0010
0100
1000
0001
1000
0010
,
0100
0001
1000
0001
0010
0100
0010
0001
1000
0001
1000
0010
0200
0000
0000
0000
,
0320
0000
2030
0000
3002
1003
0002
0003
1001
0000
0000
0000
0001
0010
0001
1000
,
0010
1000
0100
0010
0001
1000
0010
1000
0001
0010
0100
0010
0001
1000
0010
1000
,
0001
0100
0001
1000
0100
0010
0001
1000
0010
1000
0001
0010
0100
0010
0001
0100
,
0010
1000
0100
1000
0010
0100
0001
0010
0100
0010
0001
1000
0010
0100
0001
1000
,
0100
1000
0001
0100
0010
1000
0001
1000
0001
0010
0100
1000
0001
0100
0001
1000
,
0100
1000
0010
0100
0001
1000
0100
1000
0001
0100
0010
0100
0001
1000
0100
1000
,
0001
0010
0001
1000
0010
0100
0001
1000
0100
1000
0001
0100
0010
0100
0001
0010
,
0100
1000
0010
1000
0100
0010
0001
0100
0010
0100
0001
1000
0100
0010
0001
1000
,
0010
1000
0001
0010
0100
1000
0001
1000
0001
0100
0010
1000
0001
0010
0001
1000
,
0010
1000
0100
0010
0001
1000
0010
1000
0001
0010
0100
0010
0001
1000
0010
1000
,
0001
0100
0001
1000
0100
0010
0001
1000
0010
1000
0001
0010
0100
0010
0001
0100
,
0010
1000
0100
1000
0010
0100
0001
0010
0100
0010
0001
1000
0010
0100
0001
1000
,
0100
1000
0001
0100
0001
1000
0010
1000
0001
0010
0100
1000
0001
0100
0001
1000
,
0100
1000
0010
0100
0001
1000
0100
1000
0001
0100
0010
0100
0001
1000
0100
1000
,
0001
0010
0001
1000
0010
0100
0001
1000
0100
1000
0001
0100
0010
0100
0001
0010
,
0100
1000
0010
1000
0100
0010
0001
0100
0010
0100
0001
1000
0002
0000
0000
0000
,
2003
0000
3020
0000
0230
0000
0310
1000
0001
0000
1000
0000
0001
0010
0001
1000
,
0010
1000
0100
0010
0001
1000
0010
1000
0001
0010
0100
0010
0001
1000
0010
1000
,
0001
0100
0001
1000
0100
0010
0001
1000
0010
1000
0001
0010
0100
0010
0001
0100
,
0010
1000
0100
1000
0010
0100
0001
0010
0100
0010
0001
1000
0010
0100
0001
1000
,
0100
1000
0001
0100
0010
1000
0001
1000
0001
0010
0100
1000
0001
0100
0001
1000
,
0100
1000
0010
0100
0001
1000
0100
1000
0001
0100
0010
0100
0001
1000
0100
1000
,
0001
0010
0001
1000
0010
0100
0001
1000
0100
1000
0001
0100
0010
0100
0001
0010
,
0100
1000
0010
1000
0100
0010
0001
0100
0010
0100
0001
1000
0100
0010
0001
1000
,
0010
1000
0001
0010
0100
1000
0001
1000
0001
0100
0010
1000
0001
0010
0001
1000
,
0010
1000
0100
0010
0001
1000
0010
1000
0001
0010
0100
0010
0001
1000
0010
1000
,
0001
0100
0001
1000
0100
0010
0001
1000
0010
1000
0001
0010
0100
0010
0001
0100
,
0010
1000
0100
1000
0010
0100
0001
0010
0100
0010
0001
1000
0010
0100
0001
1000
,
0100
1000
0001
0100
0001
1000
0010
1000
0001
0010
0100
1000
0001
0100
0001
1000
,
0100
1000
0010
0100
0001
1000
0100
1000
0001
0100
0010
0100
0001
1000
0100
1000
,
0001
0010
0001
1000
0010
0100
0001
1000
0100
1000
0001
0100
0010
0100
0001
0010
,
0100
1000
0010
1000
0100
0010
0001
0100
0010
0100
0001
1000
0002
0000
0000
0000
,
2003
0000
3020
0000
0230
0301
0200
0000
0310
0000
1000
0000
0001
1000
0001
0100
,
0010
0100
0001
1000
0010
1000
0001
1000
0001
0100
0010
1000
0001
0010
0001
0010
,
0001
1000
0010
1000
0001
0010
0100
1000
0010
1000
0001
1000
0001
0010
0100
1000
,
0001
1000
0010
0100
0010
1000
0001
0100
0010
1000
0010
1000
0001
0010
0100
1000
,
0001
0010
0001
1000
0010
1000
0001
0010
0100
1000
0001
0010
0001
0100
0010
1000
,
0001
1000
0100
0010
0001
1000
0010
1000
0001
0100
0010
1000
0001
1000
0001
1000
,
0001
0100
0010
1000
0001
0010
0100
1000
0010
0100
0010
1000
0001
0010
0100
1000
,
0001
0100
0001
1000
0010
0100
0001
1000
0001
0100
0010
1000
0100
0010
0001
1000
,
0010
0100
0001
1000
0002
0000
0000
0003
1001
0000
0000
0000
1000
0010
1000
0001
,
1000
0100
0010
0001
1000
0010
0100
0001
1000
0010
0100
0010
1000
0001
1000
0001
,
1000
0100
0010
0001
1000
0001
0010
0001
0100
0010
1000
0001
1000
0100
0010
0001
,
1000
0010
1000
0001
0010
0100
1000
0010
1000
0001
0100
0010
0100
0001
1000
0010
,
0100
0010
1000
0001
1000
0100
0010
0001
1000
0010
0100
0010
1000
0001
0010
0100
,
1000
0001
0010
0001
1000
0010
0100
0010
1000
0001
0100
0010
1000
0001
1000
0001
,
1000
0010
0100
0001
1000
0100
0010
0001
0100
0010
1000
0001
1000
0100
0010
0001
,
1000
0010
1000
0010
0100
0001
0100
0010
1000
0010
0100
0001
0010
0100
1000
0001
,
0100
0010
1000
0001
2000
0000
0000
3000
1001
0000
0000
0000
1000
0010
1000
0001
,
1000
0100
0010
0001
1000
0010
0100
0010
1000
0001
0100
0010
1000
0001
1000
0001
,
1000
0100
0010
0001
1000
0010
0100
0001
0100
0010
1000
0001
1000
0100
0010
0001
,
1000
0010
1000
0001
0010
0100
1000
0001
0010
0001
1000
0100
0010
0001
1000
0010
,
0100
0010
1000
0001
1000
0100
0010
0001
1000
0010
1000
0001
0100
0010
1000
0001
,
1000
0010
0100
0001
1000
0001
0100
0010
1000
0001
0100
0010
1000
0001
1000
0001
,
1000
0010
0100
0001
1000
0100
0010
0001
0100
0001
1000
0001
1000
0010
0100
0010
,
1000
0001
1000
0010
0100
0001
1000
0010
1000
0010
0100
0001
0010
0100
1000
0001
,
0100
0010
1000
0001
2000
0000
0000
3000
1001
0000
0000
0000
0001
0100
0001
1000
,
0001
0010
0100
0000
1000
0001
0000
1000
0001
0100
0010
0000
1000
0001
1000
0001
,
1000
0001
0010
0100
1000
0010
0100
0000
0010
1000
0001
1000
0001
0010
0100
1000
,
0001
0000
1000
0000
0100
0010
0000
0100
1000
0100
0010
0001
0100
0010
1000
0001
,
0010
0100
1000
0001
1000
0010
0100
0001
0100
0010
1000
0001
0010
0100
1000
0001
,
1000
0010
0100
0000
0001
1000
0000
0001
1000
0100
0010
0000
0001
1000
0001
1000
,
0001
1000
0010
0100
0001
0010
0100
0000
0010
0001
1000
0001
1000
0010
0100
0001
,
1000
0000
0001
0000
0100
0010
0000
0100
0001
0100
0010
1000
0100
0010
0001
1000
,
0010
0100
0001
1000
0002
0000
0000
0003
1001
0000
0000
0000
0000
0000
0000
0000
;

//---------------dance-single - 16+ (TYLR)----------------
#NOTES:
     dance-single:
     16+ (TYLR):
     Hard:
     16:
     1.000,1.000,0.213,0.472,1.000,2429.000,56.000,124.000,3.000,1.000:
0000
0000
0000
0000
,
0000
0000
0000
0000
,
0000
0000
0000
0000
,
0000
0000
0000
0000
,
0000
0000
0000
0000
,
0000
0000
0000
0000
,
0000
0000
0000
0000
,
0000
0000
0000
0000
,
0001
0010
0000
0100
0000
1000
0000
0001
,
0000
0100
0000
0010
0000
1000
0000
0001
,
0000
1000
0000
0010
0000
0100
0000
0001
,
0000
0000
1000
0000
0000
0000
0100
0000
0020
0000
0002
0030
0000
0000
0023
0000
,
0130
1000
0001
0100
0000
0010
0000
1000
,
0000
0001
0000
1000
0000
0010
0000
0100
,
0000
0001
0000
1000
0000
0100
0000
0010
,
0000
0000
0001
0000
0000
0000
0100
0000
0010
1000
0010
1000
0001
1000
0100
0010
,
0004
0000
0000
0000
0000
0000
1003
1000
,
0010
0100
0100
0001
1000
1000
0001
0001
,
0010
0000
0000
0000
M001
0010
0001
1000
0001
0100
0010
1000
0200
0000
0300
0000
,
0022
0033
0202
0303
2020
3030
2002
3003
,
0220
0330
2002
3003
0202
0303
2020
3030
,
2200
3300
0022
0033
2001
3001
0102
0103
,
0220
0000
0330
0000
2010
0000
3010
1000
0002
0000
1003
0000
220M
0000
3300
0000
,
0022
0033
0202
0303
2020
3030
0220
0330
,
2002
3003
0202
0303
2020
3030
0022
0033
,
2200
0000
0000
0000
3300
0000
0000
0000
2002
0000
0000
0000
3003
0000
0000
0000
0102
0000
0000
0000
0103
0000
0000
0000
0220
0330
0000
0000
0010
0000
0000
0000
,
1000
0000
0001
0000
M010
0000
0001
1000
0010
0000
1000
0000
2100
0000
3100
0000
,
0020
0031
0200
0310
2000
3010
0200
0301
,
0020
0130
2000
3001
0200
0310
2000
3001
,
0020
0000
0130
0000
2000
0000
3001
0000
0020
0030
0020
0030
0200
0300
0200
0300
,
2000
0000
0000
0000
3001
0000
0000
0000
0200
0000
0300
0000
0200
0300
0020
0030
2000
0000
3000
0000
2000
0000
3000
0000
0002
0000
0000
0000
0013
0000
0000
0000
,
0200
1300
0002
0103
0020
1030
0200
0310
,
0002
0103
0020
1030
0002
1003
0020
0130
,
0002
0000
0013
0000
0100
1000
0100
1000
0001
0010
0100
1000
0004
0000
0000
0000
,
0000
0000
0000
0000
0000
0000
0000
0000
0000
0000
0000
0003
1010
0000
1000
0000
,
0100
0010
0001
0100
0010
0200
0000
0301
,
0010
0100
1000
0001
0100
0001
1000
0100
,
0010
0100
1000
0001
0100
0002
0000
0013
,
0100
0010
0001
0100
0010
0100
0001
1000
,
0100
1000
0001
0100
0010
0200
0000
0301
,
0010
0100
1000
0001
0100
0001
1000
0100
,
0010
0100
1000
0001
0100
0002
2000
0000
,
0000
0000
0000
0000
0000
0000
0000
0000
0000
0000
3000
0003
1000
0001
1000
0001
1000
0001
1000
0000
0000
0001
0000
0000
,
0010
0000
0000
0001
0000
0000
0100
0000
0000
0010
0000
0000
1000
0000
0000
0010
0100
0010
0100
0000
0000
0001
0000
0000
,
1000
0000
0001
0000
0100
0000
0010
1000
0001
1000
0001
1000
0100
0000
0010
0000
,
0001
0000
0000
0100
0000
0000
0010
0000
0000
1000
0001
1000
0001
0000
0000
1000
0100
1000
0100
0000
0000
0010
0000
0000
,
0001
0000
0000
0000
0000
0000
0100
0000
0000
0000
0000
0000
0010
0000
0000
0000
0000
0000
1000
0000
0000
0001
0000
0000
0100
0000
0000
0000
0000
0000
0001
0000
1000
0000
0001
0000
1000
0000
0000
0000
0000
0000
0100
0000
0000
0000
0000
0000
,
0010
0000
0000
0000
0000
0000
0001
0000
0000
0000
0000
0000
0100
0000
0000
0000
0000
0000
0001
0000
0000
1000
0000
0000
0100
0000
0000
0000
0000
0000
0010
0000
0001
0000
0010
0000
0001
0000
0000
0000
0000
0000
1000
0000
0000
0000
0000
0000
,
0100
0000
1000
0000
0001
0000
0010
0100
1000
0100
1000
0100
1000
0000
0001
0000
,
0100
0000
0000
0000
0000
0000
0001
0000
0000
0000
0000
0000
1000
0000
0000
0000
0000
0000
0010
0000
0000
0100
0000
0000
0001
0000
0000
0000
0000
0000
1000
0000
0001
0000
1000
0000
0001
0000
0000
0000
0000
0000
1000
0000
0100
0000
1000
0000
,
0100
0000
0000
0000
0000
0000
0010
0000
0001
0000
0010
0000
0001
0000
0000
0000
0000
0000
0010
0000
0001
0000
0010
0000
0004
0000
0000
0000
0000
0000
0000
0000
0000
0000
0000
0000
0103
0000
0000
0010
0000
0000
1000
0000
0000
0001
0000
0000
,
1000
0100
0010
0000
0001
1000
0000
0001
1000
0010
0100
0000
0001
1000
0001
1000
,
0001
1000
0100
0010
0001
0100
0010
0000
0100
0001
1000
0001
1000
0100
0010
0001
,
1000
0000
0001
0000
0010
0100
0000
0010
0001
0010
0100
1000
0010
0100
0001
1000
,
0100
0010
0001
1000
0001
0100
0010
1000
0010
0100
0001
1000
0100
0010
0001
1000
,
0001
0100
0010
0000
1000
0001
0000
1000
0001
0010
0100
0000
1000
0001
1000
0001
,
1000
0001
0100
0010
1000
0100
0010
0000
0100
1000
0001
1000
0001
0100
0010
1000
,
0001
0000
1000
0000
0010
0100
0000
0010
1000
0010
0100
0001
0010
0100
1000
0001
,
0100
0010
1000
0001
2000
0000
0000
0000
3001
0000
0000
0000
0001
0100
0001
1000
,
0001
0010
0100
0000
1000
0001
0000
1000
0001
0100
0010
0000
1000
0001
1000
0001
,
1000
0001
0010
0100
1000
0010
0100
0000
0010
1000
0001
1000
0001
0010
0100
1000
,
0001
0000
1000
0000
0100
0010
0000
0100
1000
0100
0010
0001
0100
0010
1000
0001
,
0010
0100
1000
0001
1000
0010
0100
0001
0100
0010
1000
0001
0010
0100
1000
0001
,
1000
0010
0100
0000
0001
1000
0000
0001
1000
0100
0010
0000
0001
1000
0001
1000
,
0001
1000
0010
0100
0001
0010
0100
0000
0010
0001
1000
0001
1000
0010
0100
0001
,
1000
0000
0001
0000
0100
0010
0000
0100
0001
0100
0010
1000
0100
0010
0001
1000
,
0010
0100
0001
1000
0002
0000
0000
0000
1003
0000
0000
0000
1100
0000
1000
0000
,
0001
0000
0100
0000
0010
0000
0100
0000
0001
0000
1000
0000
0100
0000
0010
0001
,
0010
0100
1000
0000
0001
0000
1000
0000
0100
0000
1000
0000
0001
0000
0001
0000
,
1000
0000
0010
0000
0100
0000
0010
0000
1000
0000
0001
0000
0010
0000
0100
1000
,
0100
0010
0001
0000
1000
0000
0001
0000
0010
0000
0001
0000
0101
0000
0100
0000
,
0010
0000
1000
0000
0100
0000
1000
0000
0001
0000
0010
0000
0001
0000
1000
0010
,
0100
0001
1000
0000
0010
0000
1000
0000
0100
0000
0010
0000
0001
0000
0001
0000
,
0100
0000
0010
0000
1000
0000
0010
0000
0100
0000
0001
0000
1001
0000
1000
0100
,
0010
0001
1000
0000
0100
0000
1000
0000
0010
0000
0100
0000
0101
0000
0001
0000
,
1000
0000
0100
0000
0010
0000
0100
0000
1000
0000
0001
0000
0100
0000
0010
1000
,
0010
0100
0001
0000
1000
0000
0001
0000
0100
0000
0001
0000
1000
0000
1000
0000
,
0001
0000
0010
0000
0100
0000
0010
0000
0001
0000
1000
0000
0010
0000
0100
0001
,
0100
0010
1000
0000
0001
0000
1000
0000
0010
0000
1000
0000
1100
0000
0100
0000
,
0010
0000
0001
0000
0100
0000
0001
0000
1000
0000
0010
0000
1000
0000
0001
0010
,
0100
1000
0001
0000
0010
0000
0001
0000
0100
0000
0010
0000
1000
0000
1000
0000
,
0100
0000
0010
0000
0001
0000
0010
0000
0100
0000
1000
0000
1001
0000
0001
0100
,
0010
1000
0001
0000
0100
0000
0001
0000
0010
0000
0100
0000
1100
0000
1000
0000
,
0001
0000
0100
0000
0010
0000
0100
0000
0001
0000
1000
0000
0100
0000
0010
0001
,
0010
0100
1000
0000
0001
0000
1000
0000
0100
0000
1000
0000
0001
0000
0001
0000
,
1000
0000
0010
0000
0100
0000
0010
0000
1000
0000
0001
0000
0010
0000
0100
1000
,
0100
0010
0001
0000
1000
0000
0001
0000
0010
0000
0001
0000
0101
0000
0100
0000
,
0010
0000
1000
0000
0100
0000
1000
0000
0001
0000
0010
0000
0001
0000
1000
0010
,
0100
0001
1000
0000
0010
0000
1000
0000
0100
0000
0010
0000
0001
1000
0001
0010
,
0100
1000
0100
0010
0001
1000
0001
0100
0010
1000
0001
0010
0100
1000
0010
0100
,
0001
0000
0010
0000
0100
0000
1000
0000
0004
0000
4000
0000
0000
0000
0000
0000
0000
0000
0000
0000
0000
0000
0000
3003
0220
0000
0000
0000
0000
0000
0000
0000
,
0000
0000
0000
0000
0000
0000
0000
0000
0000
0000
0000
0000
1330
0001
1000
0001
,
0010
0100
0010
0001
1000
0001
0100
0010
1000
0100
0010
0001
0100
0000
0000
0000
,
0010
0000
0100
0000
0001
0000
1000
0000
0000
0000
0001
0000
0010
0000
0001
1000
,
0010
0100
0001
0000
1000
0000
0100
0000
0000
0000
1000
0000
0010
0000
0000
0000
,
0100
0000
0010
0000
1000
0000
0100
0000
0000
0000
0010
0000
0001
0000
1000
0010
,
0100
0001
1000
0000
0100
0000
0100
0010
0001
0000
1000
0000
1001
0000
0000
0000
,
0001
0000
0100
0000
0010
0000
1000
0000
0000
0000
0010
0000
0100
0000
0001
0010
,
0100
1000
0001
0000
0100
0000
0001
0000
0000
0000
0010
0000
0100
0000
0000
0000
,
1000
0000
0100
0000
0010
0000
0001
0000
0000
0000
0100
0000
0001
0000
0010
0100
,
1000
0001
0100
0000
0010
0000
0010
1000
0001
0000
0010
0000
1100
0000
0000
0000
,
1000
0000
0001
0000
1000
0000
0010
0000
0000
0000
1000
0000
0001
0000
0010
0100
,
1000
0001
0100
0000
0001
0000
1000
0000
0000
0000
0010
0000
1000
0000
0000
0000
,
0100
0000
1000
0000
0001
0000
0010
0000
0000
0000
0001
0000
1000
0000
0010
1000
,
0001
0010
0100
0000
1000
0000
1000
0001
0100
0000
0010
0000
1010
0000
0000
0000
,
1000
0000
0010
0000
0100
0000
0001
0000
0000
0000
1000
0000
0001
0000
0100
0010
,
1000
0001
0100
0000
0001
0000
1000
0000
0000
0000
0100
0000
0010
0000
0000
0000
,
0001
0010
0100
1000
0000
0001
0020
0000
,
0230
0000
0000
0000
0320
0000
0000
0000
0032
0000
0000
0000
0000
0000
0000
0000
0100
0000
0000
0000
0000
0000
0000
0003
1001
0000
0000
0000
1000
0000
0000
0000
,
0100
0000
0010
0000
0001
0000
1000
0000
0000
0000
0001
0000
0100
0000
0001
1000
,
0100
0010
0001
0000
1000
0000
0010
0000
0000
0000
1000
0000
0100
0000
0000
0000
,
0010
0000
0100
0000
1000
0000
0010
0000
0000
0000
0100
0000
0001
0000
1000
0100
,
0010
0001
1000
0000
0010
0000
0010
0100
0001
0000
1000
0000
1001
0000
0000
0000
,
0001
0000
0010
0000
0100
0000
1000
0000
0000
0000
0100
0000
0010
0000
0001
0100
,
0010
1000
0001
0000
0010
0000
0001
0000
0000
0000
0100
0000
0010
0000
0000
0000
,
1000
0000
0010
0000
0100
0000
0001
0000
0000
0000
0010
0000
0001
0000
0100
0010
,
1000
0001
0010
0000
0100
0000
0100
1000
0001
0000
0100
0000
1010
0000
0000
0000
,
1000
0000
0001
0000
1000
0000
0100
0000
0000
0000
1000
0000
0001
0000
0100
0010
,
1000
0001
0010
0000
0001
0000
1000
0000
0000
0000
0100
0000
1000
0000
0000
0000
,
0010
0000
1000
0000
0001
0000
0100
0000
0000
0000
0001
0000
1000
0000
0100
1000
,
0001
0100
0010
0000
1000
0000
1000
0001
0010
0000
0100
0000
1100
0000
0000
0000
,
1000
0000
0100
0000
0010
0000
0001
0000
0000
0000
1000
0000
0001
0000
0010
0100
,
1000
0001
0010
0000
0001
0000
1000
0000
0000
0000
0010
0000
0100
0000
0000
0000
,
0001
0100
0010
1000
0000
0001
0200
0000
,
0320
0000
0000
0000
0000
0000
0000
0000
0230
0000
0000
0000
0000
0000
0000
0000
0302
0000
0000
0000
0000
0000
0000
0000
0000
0000
0000
0000
0000
0000
0000
0003
1001
0000
0000
0000
0000
0000
0000
0000
0000
0000
0000
0000
0000
0000
0000
0000
1000
0000
0000
0000
0100
0000
0000
0000
1000
0000
0000
0000
0001
0000
0000
0000
,
0010
0001
0100
0001
1000
0010
1000
0001
0100
0001
1000
0001
0010
0100
0010
0001
,
1000
0001
0100
0001
0010
0100
0010
0001
1000
0001
0010
0100
1000
0001
1000
0100
,
1000
0001
0010
0001
0100
0010
1000
0001
0100
0001
1000
0001
0010
0100
1000
0001
,
0010
0001
1000
0001
0100
0010
0100
0001
0010
0100
0010
0001
1000
0010
1000
0001
,
0100
0001
0010
0001
1000
0100
1000
0001
0010
0001
1000
0001
0100
0010
0100
0001
,
1000
0001
0010
0001
0100
0010
0100
0001
1000
0001
0100
0010
1000
0001
1000
0010
,
1000
0001
0100
0001
0010
0100
1000
0001
0010
0001
1000
0001
0100
0010
1000
0001
,
0100
0001
1000
0001
0010
0100
0010
0001
1000
0010
1000
0001
1000
0100
1000
0001
,
0010
0001
0100
0001
1000
0010
1000
0001
0100
0001
1000
0001
0010
0100
0010
0001
,
1000
0001
0100
0001
0010
0100
0010
0001
1000
0001
0010
0100
1000
0001
1000
0100
,
1000
0001
0010
0001
0100
0010
1000
0001
0100
0001
1000
0001
0010
0100
1000
0001
,
0010
0001
1000
0001
0100
0010
0100
0001
0010
0100
0010
0001
1000
0010
1000
0001
,
0100
0001
0010
0001
1000
0100
1000
0001
0010
0001
1000
0001
0100
0010
0100
0001
,
1000
0001
0010
0001
0100
0010
0100
0001
1000
0001
0100
0010
1000
0001
1000
0010
,
1000
0001
0100
0001
0010
0100
1000
0001
0010
0001
1000
0001
0200
0000
0000
0000
,
0320
0000
2030
0000
3002
0000
0000
0003
1001
0000
0000
0000
0001
0010
0001
1000
,
0100
1000
0010
1000
0001
0100
0001
1000
0010
1000
0001
1000
0100
0010
0100
1000
,
0001
1000
0010
1000
0100
0010
0100
1000
0001
1000
0100
0010
0001
1000
0001
0010
,
0001
1000
0100
1000
0010
0100
0001
1000
0010
1000
0001
1000
0100
0010
0001
1000
,
0100
1000
0001
1000
0010
0100
0010
1000
0100
0010
0100
1000
0001
0100
0001
1000
,
0010
1000
0100
1000
0001
0010
0001
1000
0100
1000
0001
1000
0010
0100
0010
1000
,
0001
1000
0100
1000
0010
0100
0010
1000
0001
1000
0010
0100
0001
1000
0001
0100
,
0001
1000
0010
1000
0100
0010
0001
1000
0100
1000
0001
1000
0010
0100
0001
1000
,
0010
1000
0001
1000
0100
0010
0100
1000
0001
0100
0001
1000
0001
0010
0001
1000
,
0100
1000
0010
1000
0001
0100
0001
1000
0010
1000
0001
1000
0100
0010
0100
1000
,
0001
1000
0010
1000
0100
0010
0100
1000
0001
1000
0100
0010
0001
1000
0001
0010
,
0001
1000
0100
1000
0010
0100
0001
1000
0010
1000
0001
1000
0100
0010
0001
1000
,
0100
1000
0001
1000
0010
0100
0010
1000
0100
0010
0100
1000
0001
0100
0001
1000
,
0010
1000
0100
1000
0001
0010
0001
1000
0100
1000
0001
1000
0010
0100
0010
1000
,
0001
1000
0100
1000
0010
0100
0010
1000
0001
1000
0010
0100
0001
1000
0001
0100
,
0001
1000
0010
1000
0100
0010
0001
1000
0100
1000
0001
1000
0020
0000
0000
0000
,
0230
0000
0302
0000
2003
0000
0000
3000
1002
0000
0000
0000
1003
0100
1000
0001
,
0100
0001
0010
0100
1000
0001
0100
0001
1000
0100
0010
0100
1000
0001
0100
0001
,
1000
0010
1000
0001
0010
0100
1000
0001
0100
0001
1000
0100
0010
0100
1000
0010
,
0100
0001
0010
0001
0100
0010
1000
0100
0010
0001
0100
0010
1000
0001
1000
0010
,
0100
0001
0010
0100
1000
0100
0010
0001
0100
0001
1000
0001
1000
0010
1000
0001
,
0010
0001
0100
0010
1000
0001
0010
0001
1000
0010
0100
0010
1000
0001
0010
0001
,
1000
0100
1000
0001
0100
0010
1000
0001
0010
0001
1000
0010
0100
0010
1000
0100
,
0010
0001
0100
0001
0010
0100
1000
0010
0100
0001
0010
0100
1000
0001
1000
0100
,
0010
0001
0100
0010
1000
0010
0100
0001
0010
0001
1000
0001
1000
0100
1000
0001
,
0100
0001
0010
0100
1000
0001
0100
0001
1000
0100
0010
0100
1000
0001
0100
0001
,
1000
0010
1000
0001
0010
0100
1000
0001
0100
0001
1000
0100
0010
0100
1000
0010
,
0100
0001
0010
0001
0100
0010
1000
0100
0010
0001
0100
0010
1000
0001
1000
0010
,
0100
0001
0010
0100
1000
0100
0010
0001
0100
0001
1000
0001
1000
0010
1000
0001
,
0010
0001
0100
0010
1000
0001
0010
0001
1000
0010
0100
0010
1000
0001
0010
0001
,
1000
0100
1000
0001
0100
0010
1000
0001
0010
0001
1000
0010
0100
0010
1000
0100
,
0010
0001
0100
0001
0010
0100
1000
0010
0100
0001
0010
0100
2000
0000
0000
0000
,
3020
0000
2030
0000
3200
0000
0310
0001
0010
0000
0100
0000
1000
0100
1000
0001
,
0010
0001
0100
0001
1000
0010
1000
0001
0100
0001
1000
0001
0010
0100
0010
0001
,
1000
0001
0100
0001
0010
0100
0010
0001
1000
0001
0010
0100
1000
0001
1000
0100
,
1000
0001
0010
0001
0100
0010
1000
0001
0100
0001
1000
0001
0010
0100
1000
0001
,
0010
0001
1000
0001
0100
0010
0100
0001
0010
0100
0010
0001
1000
0010
1000
0001
,
0100
0001
0010
0001
1000
0100
1000
0001
0010
0001
1000
0001
0100
0010
0100
0001
,
1000
0001
0010
0001
0100
0010
0100
0001
1000
0001
0100
0010
1000
0001
1000
0010
,
1000
0001
0100
0001
0010
0100
1000
0001
0010
0001
1000
0001
0100
0010
1000
0001
,
0100
0001
1000
0001
0010
0100
0010
0001
1000
0010
1000
0001
1000
0100
1000
0001
,
0010
0001
0100
0001
1000
0010
1000
0001
0100
0001
1000
0001
0010
0100
0010
0001
,
1000
0001
0100
0001
0010
0100
0010
0001
1000
0001
0010
0100
1000
0001
1000
0100
,
1000
0001
0010
0001
0100
0010
1000
0001
0100
0001
1000
0001
0010
0100
1000
0001
,
0010
0001
1000
0001
0100
0010
0100
0001
0010
0100
0010
0001
1000
0010
1000
0001
,
0100
0001
0010
0001
1000
0100
1000
0001
0010
0001
1000
0001
0100
0010
0100
0001
,
1000
0001
0010
0001
0100
0010
0100
0001
1000
0001
0100
0010
1000
0001
1000
0010
,
1000
0001
0100
0001
0010
0100
1000
0001
0010
0001
1000
0001
0200
0000
0000
0000
,
0320
0000
2030
0000
3002
0000
0000
0003
1001
0000
0000
0000
1000
0100
1000
0001
,
0100
0010
1000
0000
0001
1000
0000
0001
1000
0010
0100
0000
0001
1000
0001
1000
,
0001
1000
0100
0010
0001
0100
0010
0000
0100
0001
1000
0001
1000
0100
0010
0001
,
1000
0000
0001
0000
0010
0100
0000
0010
0001
0010
0100
1000
0010
0100
0001
1000
,
0100
0010
0001
1000
0001
0100
0010
1000
0010
0100
0001
1000
0100
0010
0001
1000
,
0001
0100
0010
0000
1000
0001
0000
1000
0001
0010
0100
0000
1000
0001
1000
0001
,
1000
0001
0100
0010
1000
0100
0010
0000
0100
1000
0001
1000
0001
0100
0010
1000
,
0001
0000
1000
0000
0010
0100
0000
0010
1000
0010
0100
0001
0010
0100
1000
0001
,
0100
0000
0000
0000
0010
0000
0000
0000
1000
0000
0000
0000
0001
0000
0000
0000
2000
0000
0000
0000
0000
0000
0000
0000
0000
0000
0000
0000
0000
0000
0000
3000
1001
0000
0000
0000
0000
0000
0000
0000
0000
0000
0000
0000
0000
0000
0000
0000
0001
0000
0000
0000
0100
0000
0000
0000
0001
0000
0000
0000
1000
0000
0000
0000
,
0001
0010
0100
0000
1000
0001
0000
1000
0001
0100
0010
0000
1000
0001
1000
0001
,
1000
0001
0010
0100
1000
0010
0100
0000
0010
1000
0001
1000
0001
0010
0100
1000
,
0001
0000
1000
0000
0100
0010
0000
0100
1000
0100
0010
0001
0100
0010
1000
0001
,
0010
0100
1000
0001
1000
0010
0100
0001
0100
0010
1000
0001
0010
0100
1000
0001
,
1000
0010
0100
0000
0001
1000
0000
0001
1000
0100
0010
0000
0001
1000
0001
1000
,
0001
1000
0010
0100
0001
0010
0100
0000
0010
0001
1000
0001
1000
0010
0100
0001
,
1000
0000
0001
0000
0100
0010
0000
0100
0001
0100
0010
1000
0100
0010
0001
1000
,
0010
0000
0000
0000
0100
0000
0000
0000
0001
0000
0000
0000
1000
0000
0000
0000
0002
0000
0000
0000
0000
0000
0000
0000
0000
0000
0000
0000
0000
0000
0000
0003
1001
0000
0000
0000
0000
0000
0000
0000
0000
0000
0000
0000
0000
0000
0000
0000
0001
0000
0000
0000
0100
0000
0000
0000
0001
0000
0000
0000
1000
0000
0000
0000
,
0001
0010
0100
0000
1000
0001
0000
1000
0001
0100
0010
0000
1000
0001
1000
0001
,
1000
0001
0010
0100
1000
0010
0100
0000
0010
1000
0001
1000
0001
0010
0100
1000
,
0001
0000
1000
0000
0100
0010
0000
0100
1000
0100
0010
0001
0100
0010
1000
0001
,
0010
0100
1000
0001
1000
0010
0100
0001
0100
0010
1000
0001
0010
0100
1000
0001
,
1000
0010
0100
0000
0001
1000
0000
0001
1000
0100
0010
0000
0001
1000
0001
1000
,
0001
1000
0010
0100
0001
0010
0100
0000
0010
0001
1000
0001
1000
0010
0100
0001
,
1000
0000
0001
0000
0100
0010
0000
0100
0001
0100
0010
1000
0100
0010
0001
1000
,
0010
0000
0000
0000
0100
0000
0000
0000
0001
0000
0000
0000
1000
0000
0000
0000
0002
0000
0000
0000
0000
0000
0000
0000
0000
0000
0000
0000
0000
0000
0000
0003
1001
0000
0000
0000
0000
0000
0000
0000
0000
0000
0000
0000
0000
0000
0000
0000
1000
0000
0000
0000
0010
0000
0000
0000
1000
0000
0000
0000
0001
0000
0000
0000
,
1000
0100
0010
0000
0001
1000
0000
0001
1000
0010
0100
0000
0001
1000
0001
1000
,
0001
1000
0100
0010
0001
0100
0010
0000
0100
0001
1000
0001
1000
0100
0010
0001
,
1000
0000
0001
0000
0010
0100
0000
0010
0001
0010
0100
1000
0010
0100
0001
1000
,
0100
0010
0001
1000
0001
0100
0010
1000
0010
0100
0001
1000
0100
0010
0001
1000
,
0001
0100
0010
0000
1000
0001
0000
1000
0001
0010
0100
0000
1000
0001
1000
0001
,
1000
0001
0100
0010
1000
0100
0010
0000
0100
1000
0001
1000
0001
0100
0010
1000
,
0001
0000
1000
0000
0010
0100
0000
0010
1000
0010
0100
0001
0010
0100
1000
0001
,
0100
0000
0000
0000
0010
0000
0000
0000
1000
0000
0000
0000
0001
0000
0000
0000
2000
0000
0000
0000
0000
0000
0000
0000
0000
0000
0000
0000
0000
0000
0000
3000
1001
0000
0000
0000
0000
0000
0000
0000
0000
0000
0000
0000
0000
0000
0000
0000
0000
0000
0000
0000
0000
0000
0000
0000
0000
0000
0000
0000
0000
0000
0000
0000
;

//---------------dance-single - 14+ (TYLR)----------------
#NOTES:
     dance-single:
     14+ (TYLR):
     Medium:
     14:
     1.000,1.000,0.236,0.532,1.000,2086.000,62.000,140.000,17.000,0.000:
0000
0000
0000
0000
,
0000
0000
0000
0000
,
0000
0000
0000
0000
,
0000
0000
0000
0000
,
0000
0000
0000
0000
,
0000
0000
0000
0000
,
0000
0000
0000
0000
,
0000
0000
0000
0000
,
1000
0100
0000
0010
0000
0001
0000
1000
,
0000
0010
0000
0100
0000
0001
0000
1000
,
0000
0001
0000
0100
0000
0010
0000
1000
,
0000
0000
0001
0000
0000
0000
0010
0000
0200
0000
2000
0300
0000
0000
3200
0000
,
0310
0001
1000
0010
0000
0100
0000
0001
,
0000
1000
0000
0001
0000
0100
0000
0010
,
0000
1000
0000
0001
0000
0010
0000
0100
,
0000
0000
1000
0000
0000
0000
0010
0000
1000
0010
1000
0001
1000
0001
0010
0100
,
4000
0000
0000
0000
0000
0000
3001
0001
,
0100
0010
0010
1000
0001
0001
1000
1000
,
0100
0000
0000
0000
1000
0001
1000
0010
0100
0001
0010
0100
2000
0000
3000
0000
,
2200
3300
2002
3003
0202
0303
2020
3030
,
0220
0330
2002
3003
0022
0033
2200
3300
,
0202
0303
2020
3030
1002
1003
2010
3010
,
0220
0000
0330
0000
0102
0000
0103
0001
2000
0000
3001
0000
0022
0000
0033
0000
,
2200
3300
2020
3030
0202
0303
0220
0330
,
2002
3003
2020
3030
0202
0303
2200
3300
,
0022
0000
0000
0000
0033
0000
0000
0000
2002
0000
0000
0000
3003
0000
0000
0000
2010
0000
0000
0000
3010
0000
0000
0000
0220
0330
0000
0000
0100
0000
0000
0000
,
0001
0000
1000
0000
0100
0000
1000
0001
0100
0000
0001
0000
0012
0000
0013
0000
,
0200
1300
0020
0130
0002
0103
0020
1030
,
0200
0310
0002
1003
0020
0130
0002
1003
,
0200
0000
0310
0000
0002
0000
1003
0000
0200
0300
0200
0300
0020
0030
0020
0030
,
0002
0000
0000
0000
1003
0000
0000
0000
0020
0000
0030
0000
0020
0030
0200
0300
0002
0000
0003
0000
0002
0000
0003
0000
2000
0000
0000
0000
3100
0000
0000
0000
,
0020
0031
2000
3010
0200
0301
0020
0130
,
2000
3010
0200
0301
2000
3001
0200
0310
,
2000
0000
3100
0000
0010
0001
0010
0001
1000
0100
0010
0001
4000
0000
0000
0000
,
0000
0000
0000
0000
0000
0000
0000
0000
0000
0000
0000
3000
0101
0000
0001
0000
,
0010
0100
1000
0010
0100
0020
0000
1030
,
0100
0010
0001
1000
0010
1000
0001
0010
,
0100
0010
0001
1000
0010
2000
0000
3100
,
0010
0100
1000
0010
0100
0010
1000
0001
,
0010
0001
1000
0010
0100
0020
0000
1030
,
0100
0010
0001
1000
0010
1000
0001
0010
,
0100
0010
0001
1000
0010
2000
0002
0000
,
0000
0000
0000
3000
0043
0000
0031
1000
,
0100
1000
0010
0100
0001
0400
0310
1000
,
0001
0000
1000
0000
0010
0000
0100
0001
1000
0001
1000
0001
0010
0000
0100
0000
,
1000
0010
0100
0001
0010
0001
0010
0100
,
1000
0000
0010
0000
0100
0000
0001
1000
0010
0000
4000
0000
3001
0000
0010
0000
,
0100
0000
1000
0000
0010
0000
1000
0001
0010
0000
0400
0000
1300
0000
0001
0000
,
0010
0000
0001
0000
1000
0000
0100
0010
0001
1000
0001
1000
0001
0000
0100
0000
,
0010
0000
1000
0000
0001
0000
0100
0010
1000
0000
0004
0000
1003
0000
0004
0000
,
0013
0000
0400
0000
1300
0000
0400
0000
4300
0000
0000
0000
3001
0100
0001
1000
,
0001
0010
0100
0000
1000
0001
0000
1000
0001
0100
0010
0000
1000
0001
1000
0001
,
1000
0001
0010
0100
1000
0010
0100
0000
0010
1000
0001
1000
0001
0010
0100
1000
,
0001
0000
1000
0000
0100
0010
0000
0100
1000
0100
0010
0001
0100
0010
1000
0001
,
0010
0100
1000
0001
1000
0010
0100
0001
0100
0010
1000
0001
0010
0100
1000
0001
,
1000
0010
0100
0000
0001
1000
0000
0001
1000
0100
0010
0000
0001
1000
0001
1000
,
0001
1000
0010
0100
0001
0010
0100
0000
0010
0001
1000
0001
1000
0010
0100
0001
,
1000
0000
0001
0000
0100
0010
0000
0100
0001
0100
0010
1000
0100
0010
0001
1000
,
0010
0100
0001
1000
0002
0000
0000
0000
1003
0000
0000
0000
1000
0010
1000
0001
,
1000
0100
0010
0000
0001
1000
0000
0001
1000
0010
0100
0000
0001
1000
0001
1000
,
0001
1000
0100
0010
0001
0100
0010
0000
0100
0001
1000
0001
1000
0100
0010
0001
,
1000
0000
0001
0000
0010
0100
0000
0010
0001
0010
0100
1000
0010
0100
0001
1000
,
0100
0010
0001
1000
0001
0100
0010
1000
0010
0100
0001
1000
0100
0010
0001
1000
,
0001
0100
0010
0000
1000
0001
0000
1000
0001
0010
0100
0000
1000
0001
1000
0001
,
1000
0001
0100
0010
1000
0100
0010
0000
0100
1000
0001
1000
0001
0100
0010
1000
,
0001
0000
1000
0000
0010
0100
0000
0010
1000
0010
0100
0001
0010
0100
1000
0001
,
0100
0010
1000
0001
2000
0000
0000
0000
3001
0000
0000
0000
0011
0000
0001
0000
,
1000
0000
0010
0000
0100
0000
0010
0000
1000
0000
0001
0000
0010
0000
0100
1000
,
0100
0010
0001
0000
1000
0000
0001
0000
0010
0000
0001
0000
1000
0000
1000
0000
,
0001
0000
0100
0000
0010
0000
0100
0000
0001
0000
1000
0000
0100
0000
0010
0001
,
0010
0100
1000
0000
0001
0000
1000
0000
0100
0000
1000
0000
1010
0000
0010
0000
,
0100
0000
0001
0000
0010
0000
0001
0000
1000
0000
0100
0000
1000
0000
0001
0100
,
0010
1000
0001
0000
0100
0000
0001
0000
0010
0000
0100
0000
1000
0000
1000
0000
,
0010
0000
0100
0000
0001
0000
0100
0000
0010
0000
1000
0000
1001
0000
0001
0010
,
0100
1000
0001
0000
0010
0000
0001
0000
0100
0000
0010
0000
1010
0000
1000
0000
,
0001
0000
0010
0000
0100
0000
0010
0000
0001
0000
1000
0000
0010
0000
0100
0001
,
0100
0010
1000
0000
0001
0000
1000
0000
0010
0000
1000
0000
0001
0000
0001
0000
,
1000
0000
0100
0000
0010
0000
0100
0000
1000
0000
0001
0000
0100
0000
0010
1000
,
0010
0100
0001
0000
1000
0000
0001
0000
0100
0000
0001
0000
0011
0000
0010
0000
,
0100
0000
1000
0000
0010
0000
1000
0000
0001
0000
0100
0000
0001
0000
1000
0100
,
0010
0001
1000
0000
0100
0000
1000
0000
0010
0000
0100
0000
0001
0000
0001
0000
,
0010
0000
0100
0000
1000
0000
0100
0000
0010
0000
0001
0000
1001
0000
1000
0010
,
0100
0001
1000
0000
0010
0000
1000
0000
0100
0000
0010
0000
0011
0000
0001
0000
,
1000
0000
0010
0000
0100
0000
0010
0000
1000
0000
0001
0000
0010
0000
0100
1000
,
0100
0010
0001
0000
1000
0000
0001
0000
0010
0000
0001
0000
1000
0000
1000
0000
,
0001
0000
0100
0000
0010
0000
0100
0000
0001
0000
1000
0000
0100
0000
0010
0001
,
0010
0100
1000
0000
0001
0000
1000
0000
0100
0000
1000
0000
1010
0000
0010
0000
,
0100
0001
0010
0001
1000
0100
1000
0001
,
0100
0000
0010
0000
1000
0000
0001
0000
1000
0000
0100
0000
1000
0001
1000
0100
,
0010
0001
0010
0100
1000
0001
1000
0010
0100
0001
1000
0100
0010
0001
0100
0010
,
1000
0000
0100
0000
0010
0000
0001
0000
4000
0000
0004
0000
0000
0000
0000
0000
0000
0000
0000
0000
3000
0000
0000
0003
0200
0000
0000
0000
0000
0000
0000
0000
,
0000
0000
0000
0000
0000
0000
0000
0000
0000
0000
0000
0000
000M
M000
000M
M000
,
00M0
000M
00M0
M000
000M
M000
00M0
000M
M000
00M0
000M
00M0
M301
0000
0000
0000
,
0100
0000
0010
0000
1000
0000
0001
0000
0000
0000
1000
0000
0100
0000
1000
0001
,
0100
0010
1000
0000
0001
0000
0010
0000
0000
0000
0001
0000
0100
0000
0000
0000
,
0010
0000
0100
0000
0001
0000
0010
0000
0000
0000
0100
0000
1000
0000
0001
0100
,
0010
1000
0001
0000
0010
0000
0010
0100
1000
0000
0001
0000
1001
0000
0000
0000
,
1000
0000
0010
0000
0100
0000
0001
0000
0000
0000
0100
0000
0010
0000
1000
0100
,
0010
0001
1000
0000
0010
0000
1000
0000
0000
0000
0100
0000
0010
0000
0000
0000
,
0001
0000
0010
0000
0100
0000
1000
0000
0000
0000
0010
0000
1000
0000
0100
0010
,
0001
1000
0010
0000
0100
0000
0100
0001
1000
0000
0100
0000
0011
0000
0000
0000
,
0001
0000
1000
0000
0001
0000
0100
0000
0000
0000
0001
0000
1000
0000
0100
0010
,
0001
1000
0010
0000
1000
0000
0001
0000
0000
0000
0100
0000
0001
0000
0000
0000
,
0010
0000
0001
0000
1000
0000
0100
0000
0000
0000
1000
0000
0001
0000
0100
0001
,
1000
0100
0010
0000
0001
0000
0001
1000
0010
0000
0100
0000
0101
0000
0000
0000
,
0001
0000
0100
0000
0010
0000
1000
0000
0000
0000
0001
0000
1000
0000
0010
0100
,
0001
1000
0010
0000
1000
0000
0001
0000
0000
0000
0010
0000
0100
0000
0000
0000
,
1000
0100
0010
0001
0000
1000
0200
0000
,
0320
0000
0000
0000
0230
0000
0000
0000
2300
0000
0000
0000
0000
0000
0000
0000
0010
0000
0000
0000
0000
0000
0000
3000
1001
0000
0000
0000
0001
0000
0000
0000
,
0010
0000
0100
0000
1000
0000
0001
0000
0000
0000
1000
0000
0010
0000
1000
0001
,
0010
0100
1000
0000
0001
0000
0100
0000
0000
0000
0001
0000
0010
0000
0000
0000
,
0100
0000
0010
0000
0001
0000
0100
0000
0000
0000
0010
0000
1000
0000
0001
0010
,
0100
1000
0001
0000
0100
0000
0100
0010
1000
0000
0001
0000
1001
0000
0000
0000
,
1000
0000
0100
0000
0010
0000
0001
0000
0000
0000
0010
0000
0100
0000
1000
0010
,
0100
0001
1000
0000
0100
0000
1000
0000
0000
0000
0010
0000
0100
0000
0000
0000
,
0001
0000
0100
0000
0010
0000
1000
0000
0000
0000
0100
0000
1000
0000
0010
0100
,
0001
1000
0100
0000
0010
0000
0010
0001
1000
0000
0010
0000
0101
0000
0000
0000
,
0001
0000
1000
0000
0001
0000
0010
0000
0000
0000
0001
0000
1000
0000
0010
0100
,
0001
1000
0100
0000
1000
0000
0001
0000
0000
0000
0010
0000
0001
0000
0000
0000
,
0100
0000
0001
0000
1000
0000
0010
0000
0000
0000
1000
0000
0001
0000
0010
0001
,
1000
0010
0100
0000
0001
0000
0001
1000
0100
0000
0010
0000
0011
0000
0000
0000
,
0001
0000
0010
0000
0100
0000
1000
0000
0000
0000
0001
0000
1000
0000
0100
0010
,
0001
1000
0100
0000
1000
0000
0001
0000
0000
0000
0100
0000
0010
0000
0000
0000
,
1000
0010
0100
0001
0000
1000
0020
0000
,
0230
0000
0320
0000
2030
0000
0000
0000
3001
0000
0000
0000
0001
0010
0001
0000
,
0100
0000
0001
0000
1000
0001
1000
0000
0100
0000
0000
0000
0010
0001
0010
0000
,
0100
0000
0000
0000
0000
0000
1000
0000
0000
0000
0000
0000
0010
0000
0000
0100
0000
0000
0010
0000
0000
0000
0000
0000
1000
0000
0000
0000
0000
0000
0000
0000
0000
0000
0000
0000
0001
0000
0000
0000
0010
0000
0000
0000
0100
0000
0000
0000
,
1000
0000
0000
0000
0000
0000
0010
0000
0000
0000
0000
0000
1000
0000
0000
0100
0000
0000
0010
0000
0000
0000
0000
0000
0000
0000
0000
0000
0000
0000
0001
0000
0000
0000
0000
0000
1000
0000
0000
0000
0001
0000
0000
0000
0010
0000
0000
0000
,
0100
0000
0000
0000
0000
0000
1000
0000
0000
0000
0000
0000
2010
0000
0000
0000
0000
0000
0000
0000
0000
0000
3000
0000
0102
0000
0000
0000
0000
0000
0000
0000
0000
0000
0003
0000
1000
0000
0000
0010
0000
0000
1000
0000
0000
0000
0000
0000
,
0100
0000
1000
0000
0001
1000
0001
0000
0100
0000
0000
0000
0010
1000
0010
0000
,
0100
0000
0000
0000
0000
0000
0001
0000
0000
0000
0000
0000
0010
0000
0000
0100
0000
0000
0010
0000
0000
0000
0000
0000
0001
0000
0000
0000
0000
0000
0000
0000
0000
0000
0000
0000
1000
0000
0000
0000
0010
0000
0000
0000
0100
0000
0000
0000
,
0001
0000
0000
0000
0000
0000
0010
0000
0000
0000
0000
0000
0001
0000
0000
0100
0000
0000
0010
0000
0000
0000
0000
0000
0000
0000
0000
0000
0000
0000
1000
0000
0000
0000
0000
0000
0001
0000
0000
0000
1000
0000
0000
0000
0010
0000
0000
0000
,
0100
0000
0000
0000
0000
0000
0001
0000
0000
0000
0000
0000
0012
0000
0000
0000
0000
0000
0000
0000
0000
0000
0003
0000
2100
0000
0000
0000
0000
0000
0000
0000
0000
0000
3000
0000
0001
0000
0000
0100
0000
0000
0001
0000
0000
0000
0000
0000
,
0010
0000
0001
0000
1000
0001
1000
0000
0010
0000
0000
0000
0100
0001
0100
0000
,
0010
0000
0000
0000
0000
0000
1000
0000
0000
0000
0000
0000
0100
0000
0000
0010
0000
0000
0100
0000
0000
0000
0000
0000
1000
0000
0000
0000
0000
0000
0000
0000
0000
0000
0000
0000
0001
0000
0000
0000
1000
0000
0000
0000
0010
0000
0000
0000
,
0100
0000
0000
0000
0000
0000
0001
0000
0000
0000
0000
0000
0010
0000
0000
0100
0000
0000
1000
0000
0000
0000
0000
0000
0000
0000
0000
0000
0000
0000
0001
0000
0000
0000
0000
0000
1000
0000
0000
0000
0001
0000
0000
0000
0010
0000
0000
0000
,
0100
0000
0000
0000
0000
0000
1000
0000
0000
0000
0000
0000
2010
0000
0000
0000
0000
0000
0000
0000
0000
0000
3000
0000
0102
0000
0000
0000
0000
0000
0000
0000
0000
0000
0003
0000
1000
0000
0000
0100
0000
0000
1000
0000
0000
0000
0000
0000
,
0010
0000
1000
0000
0001
1000
0001
0000
0010
0000
0000
0000
0100
1000
0100
0000
,
0010
0000
0000
0000
0000
0000
0001
0000
0000
0000
0000
0000
0100
0000
0000
0010
0000
0000
0100
0000
0000
0000
0000
0000
0001
0000
0000
0000
0000
0000
0000
0000
0000
0000
0000
0000
1000
0000
0000
0000
0001
0000
0000
0000
0010
0000
0000
0000
,
0100
0000
1000
0000
0010
0100
0001
0000
0000
0000
1000
0000
1200
0000
0000
0000
,
0320
0000
0032
0000
0203
0000
0000
0000
0310
0000
0000
0000
1000
0001
1000
0000
,
0100
0000
0010
0000
0001
1000
0001
0000
0100
0000
0010
0000
1000
0100
1000
0000
,
0001
0000
0000
0000
0000
0000
0010
0000
0000
0000
0000
0000
0100
0000
0000
1000
0000
0000
0100
0000
0000
0000
0000
0000
0010
0000
0000
0000
0000
0000
0001
0000
0000
0000
0000
0000
1000
0000
0000
0000
0001
0000
0000
0000
0100
0000
0000
0000
,
0010
0000
0000
0000
0000
0000
1000
0000
0000
0000
0000
0000
0100
0000
0000
0010
0000
0000
0001
0000
0000
0000
0000
0000
1000
0000
0000
0000
0000
0000
0001
0000
0000
0000
0000
0000
0100
0000
0000
0000
0010
0000
0000
0000
1000
0000
0000
0000
,
0100
0000
0010
0000
0002
0000
0013
0100
2000
3000
1000
0000
0001
1000
0001
0000
,
0010
0000
0100
0000
1000
0001
1000
0000
0010
0000
0100
0000
0001
0010
0001
0000
,
1000
0000
0000
0000
0000
0000
0100
0000
0000
0000
0000
0000
0010
0000
0000
0001
0000
0000
0010
0000
0000
0000
0000
0000
0100
0000
0000
0000
0000
0000
1000
0000
0000
0000
0000
0000
0001
0000
0000
0000
1000
0000
0000
0000
0010
0000
0000
0000
,
0100
0000
0000
0000
0000
0000
0001
0000
0000
0000
0000
0000
0010
0000
0000
0100
0000
0000
1000
0000
0000
0000
0000
0000
0001
0000
0000
0000
0000
0000
1000
0000
0000
0000
0000
0000
0010
0000
0000
0000
0100
0000
0000
0000
0001
0000
0000
0000
,
0010
0000
0100
0000
2000
0000
3100
0010
0002
0003
0001
0000
1000
0001
1000
0000
,
0010
0000
0100
0000
0001
1000
0001
0000
0010
0000
0100
0000
1000
0010
1000
0000
,
0001
0000
0000
0000
0000
0000
0100
0000
0000
0000
0000
0000
0010
0000
0000
1000
0000
0000
0010
0000
0000
0000
0000
0000
0100
0000
0000
0000
0000
0000
0001
0000
0000
0000
0000
0000
1000
0000
0000
0000
0001
0000
0000
0000
0010
0000
0000
0000
,
0100
0000
0000
0000
0000
0000
1000
0000
0000
0000
0000
0000
0010
0000
0000
0100
0000
0000
0001
0000
0000
0000
0000
0000
1000
0000
0000
0000
0000
0000
0001
0000
0000
0000
0000
0000
0010
0000
0000
0000
0100
0000
0000
0000
1000
0000
0000
0000
,
0010
0000
0100
0000
0002
0000
0103
0010
2000
3000
1000
0000
0001
1000
0001
0000
,
0010
0000
0100
0000
1000
0001
1000
0000
0010
0000
0100
0000
0001
0010
0001
0000
,
1000
0000
0000
0000
0000
0000
0100
0000
0000
0000
0000
0000
0010
0000
0000
0001
0000
0000
0010
0000
0000
0000
0000
0000
0100
0000
0000
0000
0000
0000
1000
0000
0000
0000
0000
0000
0001
0000
0000
0000
1000
0000
0000
0000
0010
0000
0000
0000
,
0100
0000
0001
0000
0010
0100
1000
0000
0001
0000
1000
0000
2001
0000
0000
0000
,
3002
0000
0203
0000
0320
0000
0000
0000
1030
0000
0000
0000
0001
1000
0001
0100
,
0010
1000
0001
0010
0001
1000
0010
1000
0001
0010
0100
0010
0001
1000
0010
1000
,
0001
0100
0001
1000
0100
0010
0001
1000
0010
1000
0001
0010
0100
0010
0001
0100
,
0010
1000
0100
1000
0010
0100
0001
0010
0100
1000
0010
0100
0001
1000
0001
0100
,
0010
1000
0100
0010
0001
0010
0100
1000
0010
1000
0001
1000
0001
0100
0001
1000
,
0100
1000
0010
0100
0001
1000
0100
1000
0001
0100
0010
0100
0001
1000
0100
1000
,
0001
0010
0001
1000
0010
0100
0001
1000
0100
1000
0001
0100
0010
0100
0001
0010
,
0100
1000
0010
1000
0100
0010
0001
0100
0010
1000
0100
0010
0001
1000
0001
0010
,
0100
1000
0010
0100
0001
0100
0010
1000
0100
1000
0001
1000
0001
0010
0001
1000
,
0010
1000
0100
0010
0001
1000
0010
1000
0001
0010
0100
0010
0001
1000
0010
1000
,
0001
0100
0001
1000
0100
0010
0001
1000
0010
1000
0001
0010
0100
0010
0001
0100
,
0010
1000
0100
1000
0010
0100
0001
0010
0100
1000
0010
0100
0001
1000
0001
0100
,
0010
1000
0100
0010
0001
0010
0100
1000
0010
1000
0001
1000
0001
0100
0001
1000
,
0100
1000
0010
0100
0001
1000
0100
1000
0001
0100
0010
0100
0001
1000
0100
1000
,
0001
0010
0001
1000
0010
0100
0001
1000
0100
1000
0001
0100
0010
0100
0001
0010
,
0100
1000
0010
1000
0100
0010
0001
0100
0010
1000
0100
0010
0002
0000
0000
0000
,
0203
0000
0302
0000
0023
0000
0000
0000
0130
0000
0000
0000
1000
0001
1000
0000
,
0100
0000
0010
0000
0001
1000
0001
0000
0100
0000
0010
0000
1000
0100
1000
0000
,
0001
0000
0000
0000
0000
0000
0010
0000
0000
0000
0000
0000
0100
0000
0000
1000
0000
0000
0100
0000
0000
0000
0000
0000
0010
0000
0000
0000
0000
0000
0001
0000
0000
0000
0000
0000
1000
0000
0000
0000
0001
0000
0000
0000
0100
0000
0000
0000
,
0010
0000
0000
0000
0000
0000
1000
0000
0000
0000
0000
0000
0100
0000
0000
0010
0000
0000
0001
0000
0000
0000
0000
0000
1000
0000
0000
0000
0000
0000
0001
0000
0000
0000
0000
0000
0100
0000
0000
0000
0010
0000
0000
0000
1000
0000
0000
0000
,
0100
0000
0010
0000
0002
0000
0013
0100
2000
3000
1000
0000
0001
1000
0001
0000
,
0010
0000
0100
0000
1000
0001
1000
0000
0010
0000
0100
0000
0001
0010
0001
0000
,
1000
0000
0000
0000
0000
0000
0100
0000
0000
0000
0000
0000
0010
0000
0000
0001
0000
0000
0010
0000
0000
0000
0000
0000
0100
0000
0000
0000
0000
0000
1000
0000
0000
0000
0000
0000
0001
0000
0000
0000
1000
0000
0000
0000
0010
0000
0000
0000
,
0100
0000
0000
0000
0000
0000
0001
0000
0000
0000
0000
0000
0010
0000
0000
0100
0000
0000
1000
0000
0000
0000
0000
0000
0001
0000
0000
0000
0000
0000
1000
0000
0000
0000
0000
0000
0010
0000
0000
0000
0100
0000
0000
0000
0001
0000
0000
0000
,
0010
0000
0100
0000
2000
0000
3100
0010
0002
0003
0001
0000
1000
0001
1000
0000
,
0010
0000
0100
0000
0001
1000
0001
0000
0010
0000
0100
0000
1000
0010
1000
0000
,
0001
0000
0000
0000
0000
0000
0100
0000
0000
0000
0000
0000
0010
0000
0000
1000
0000
0000
0010
0000
0000
0000
0000
0000
0100
0000
0000
0000
0000
0000
0001
0000
0000
0000
0000
0000
1000
0000
0000
0000
0001
0000
0000
0000
0010
0000
0000
0000
,
0100
0000
0000
0000
0000
0000
1000
0000
0000
0000
0000
0000
0010
0000
0000
0100
0000
0000
0001
0000
0000
0000
0000
0000
1000
0000
0000
0000
0000
0000
0001
0000
0000
0000
0000
0000
0010
0000
0000
0000
0100
0000
0000
0000
1000
0000
0000
0000
,
0010
0000
0100
0000
0002
0000
0103
0010
2000
3000
1000
0000
0001
1000
0001
0000
,
0010
0000
0100
0000
1000
0001
1000
0000
0010
0000
0100
0000
0001
0010
0001
0000
,
1000
0000
0000
0000
0000
0000
0100
0000
0000
0000
0000
0000
0010
0000
0000
0001
0000
0000
0010
0000
0000
0000
0000
0000
0100
0000
0000
0000
0000
0000
1000
0000
0000
0000
0000
0000
0001
0000
0000
0000
1000
0000
0000
0000
0010
0000
0000
0000
,
0100
0000
0001
0000
0010
0100
1000
0000
0001
0000
1000
0000
2001
0000
0000
0000
,
3002
0000
0203
0000
0320
0000
0000
0000
1030
0000
0000
0000
0001
0010
0001
1000
,
0010
0100
0001
0000
1000
0001
0000
1000
0001
0100
0010
0000
1000
0001
1000
0001
,
1000
0001
0010
0100
1000
0010
0100
0000
0010
1000
0001
1000
0001
0010
0100
1000
,
0001
0000
1000
0000
0100
0010
0000
0100
1000
0100
0010
0001
0100
0010
1000
0001
,
0010
0100
1000
0001
1000
0010
0100
0001
0100
0010
1000
0001
0010
0100
1000
0001
,
1000
0010
0100
0000
0001
1000
0000
0001
1000
0100
0010
0000
0001
1000
0001
1000
,
0001
1000
0010
0100
0001
0010
0100
0000
0010
0001
1000
0001
1000
0010
0100
0001
,
1000
0000
0001
0000
0100
0010
0000
0100
0001
0100
0010
1000
0100
0010
0001
1000
,
0010
0100
0001
1000
0002
0000
0000
0000
1003
0000
0000
0000
1000
0010
1000
0001
,
1000
0100
0010
0000
0001
1000
0000
0001
1000
0010
0100
0000
0001
1000
0001
1000
,
0001
1000
0100
0010
0001
0100
0010
0000
0100
0001
1000
0001
1000
0100
0010
0001
,
1000
0000
0001
0000
0010
0100
0000
0010
0001
0010
0100
1000
0010
0100
0001
1000
,
0100
0010
0001
1000
0001
0100
0010
1000
0010
0100
0001
1000
0100
0010
0001
1000
,
0001
0100
0010
0000
1000
0001
0000
1000
0001
0010
0100
0000
1000
0001
1000
0001
,
1000
0001
0100
0010
1000
0100
0010
0000
0100
1000
0001
1000
0001
0100
0010
1000
,
0001
0000
1000
0000
0010
0100
0000
0010
1000
0010
0100
0001
0010
0100
1000
0001
,
0100
0010
1000
0001
2000
0000
0000
0000
3001
0000
0000
0000
1000
0010
1000
0001
,
1000
0100
0010
0000
0001
1000
0000
0001
1000
0010
0100
0000
0001
1000
0001
1000
,
0001
1000
0100
0010
0001
0100
0010
0000
0100
0001
1000
0001
1000
0100
0010
0001
,
1000
0000
0001
0000
0010
0100
0000
0010
0001
0010
0100
1000
0010
0100
0001
1000
,
0100
0010
0001
1000
0001
0100
0010
1000
0010
0100
0001
1000
0100
0010
0001
1000
,
0001
0100
0010
0000
1000
0001
0000
1000
0001
0010
0100
0000
1000
0001
1000
0001
,
1000
0001
0100
0010
1000
0100
0010
0000
0100
1000
0001
1000
0001
0100
0010
1000
,
0001
0000
1000
0000
0010
0100
0000
0010
1000
0010
0100
0001
0010
0100
1000
0001
,
0100
0010
1000
0001
2000
0000
0000
0000
3001
0000
0000
0000
0001
0100
0001
1000
,
0001
0010
0100
0000
1000
0001
0000
1000
0001
0100
0010
0000
1000
0001
1000
0001
,
1000
0001
0010
0100
1000
0010
0100
0000
0010
1000
0001
1000
0001
0010
0100
1000
,
0001
0000
1000
0000
0100
0010
0000
0100
1000
0100
0010
0001
0100
0010
1000
0001
,
0010
0100
1000
0001
1000
0010
0100
0001
0100
0010
1000
0001
0010
0100
1000
0001
,
1000
0010
0100
0000
0001
1000
0000
0001
1000
0100
0010
0000
0001
1000
0001
1000
,
0001
1000
0010
0100
0001
0010
0100
0000
0010
0001
1000
0001
1000
0010
0100
0001
,
1000
0000
0001
0000
0100
0010
0000
0100
0001
0100
0010
1000
0100
0010
0001
1000
,
0010
0100
0001
1000
0002
0000
0000
0000
1003
0000
0000
0000
0000
0000
0000
0000
;

//---------------dance-single - J.Nero 20ths----------------
#NOTES:
     dance-single:
     J.Nero 20ths:
     Edit:
     17:
     1.000,1.000,0.068,0.145,1.000,2840.000,18.000,38.000,0.000,0.000:
0000
0000
0000
0000
,
0000
0000
0000
0000
,
0000
0000
0000
0000
,
0000
0000
0000
0000
,
0000
0000
0000
0000
,
0000
0000
0000
0000
,
0000
0000
0000
0000
,
0000
0000
0000
0000
,
0001
0000
0010
0000
0100
0000
0010
0001
1000
0010
1000
0000
0010
0000
0100
0000
,
0001
0000
0010
0000
0100
0000
1000
0010
0100
0010
1000
0000
0001
0000
0100
0000
,
0010
0000
0100
0000
0001
0000
0010
0100
1000
0001
0100
0000
0010
0000
0100
0000
,
0001
0000
1000
0000
0100
0000
1000
0010
0200
0302
2003
3000
0020
0030
0200
0300
,
0001
0000
1000
0000
0001
0000
0100
0001
1000
0100
0010
0000
0100
0000
1000
0001
,
1000
0000
0001
0000
0100
0000
0010
0100
0001
1000
0001
0000
0010
0000
0100
0000
,
1000
0000
0001
0000
1000
0000
0001
0010
0100
1000
0001
0000
0100
0000
0010
0000
,
1000
0000
0100
0000
0010
0000
0001
0010
0100
1000
0001
0100
0010
0100
0001
1000
,
0004
0000
0000
0000
0000
0000
1003
1000
,
0001
0100
0100
0001
0010
0100
0010
0100
,
1000
0000
0001
0000
1000
0100
0010
0100
1000
0001
0100
0001
1000
0000
0010
0000
,
0100
0000
0001
0100
0010
0100
0001
0000
1000
0000
0100
0000
0010
0000
0100
0000
,
1000
0000
0001
0010
0100
1000
0001
0000
0100
0000
0010
0000
1000
0000
0100
0000
,
1000
0000
0001
0100
0001
1000
0100
0000
0010
0000
0100
0000
1000
0000
0001
0000
,
0100
0000
0001
1000
0100
1000
0001
0010
0100
0000
1000
0000
0001
0000
0100
0000
,
0010
0000
0100
0001
1000
0100
0010
0000
0001
0000
1000
0000
0100
0000
1000
0000
,
0010
0000
0100
0001
1000
0100
0010
0000
0100
0000
1000
0000
0001
0000
0100
0000
,
0010
0000
1000
0001
0010
0100
1000
0000
0001
0000
0100
0000
0101
0000
0000
0000
,
0001
0000
1000
0100
1000
0001
0100
0010
0100
0000
0001
0000
1000
0100
1000
0001
,
0100
0010
0100
0001
1000
0001
0100
0001
1000
0010
1000
0001
0100
0001
1000
0010
,
1000
0001
0010
0100
1000
0001
0010
0001
1000
0100
0010
0100
1000
0001
0100
0010
,
0100
0001
1000
0001
0100
0010
0100
0001
1000
0100
1000
0001
0010
0100
1000
0001
,
1000
0010
0100
0010
1000
0001
0100
0001
1000
0100
0010
0100
1000
0001
0010
0100
,
0010
0001
1000
0001
0100
0010
0100
0001
1000
0100
1000
0001
0010
0100
1000
0001
,
1000
0010
0100
0010
1000
0001
0100
0010
0100
0001
1000
0100
0010
0001
1000
0100
,
1000
0001
0010
0100
1000
0001
0100
0010
0100
0001
1000
0100
1000
0000
0001
0000
,
0100
0000
0001
1000
0001
0010
0100
0000
1000
0000
0000
0000
1001
0000
0001
0000
,
0100
0000
0010
1000
0001
0100
0001
0000
1000
0000
0100
0000
0010
0000
0100
0000
,
1000
0000
0001
0100
0001
1000
0001
0000
1000
0000
0100
0000
0010
0000
0100
0000
,
1000
0000
0010
0100
0010
1000
0001
0000
0100
0000
0001
0000
0010
0000
0100
0000
,
1000
0000
0001
0100
0010
0100
0001
0000
1000
0000
0100
0000
0010
0000
0001
0000
,
1000
0000
0100
0010
0100
1000
0001
0000
0100
0000
0010
0000
1000
0000
0100
0000
,
1000
0000
0001
0100
0001
1000
0100
0000
0010
0000
0100
0000
1000
0000
0001
0000
,
0100
0000
0001
1000
0001
0010
0100
0000
1000
0000
0001
0000
1000
0000
0000
0000
,
0000
0000
0000
0000
0000
0000
0000
0000
0000
0000
0000
0000
0000
0000
0000
0000
0000
0000
0000
0000
0000
0000
0000
0000
0000
0000
0000
0000
0000
0000
0000
0000
0000
0000
0000
0000
0000
0000
0000
0000
0000
0000
0000
0000
0000
0000
0000
0000
0000
0000
0000
0000
0000
0000
0000
0000
0000
0000
0000
0000
0000
0000
0000
0000
0000
0000
0000
0000
0000
0000
0000
0000
0000
0000
0000
0000
0000
0000
0000
0000
0000
0000
0000
0000
0000
0000
0000
0000
0000
0000
0000
0000
0000
0000
0000
0000
0001
0000
0000
0000
0000
0000
0000
0000
0000
0000
0100
0000
0000
0000
0000
0000
0000
0000
0000
0001
0000
0000
0000
0000
0000
0000
0000
0000
0000
1000
0000
0000
0000
0000
0000
0000
0000
0000
0100
0000
0000
0000
0000
0000
0000
0000
0000
0000
0010
0000
0000
0000
0000
0000
0000
0000
0000
0000
0000
0000
0000
0000
0000
0000
0000
0000
0000
0000
0000
0000
0000
0000
0001
0000
0000
0000
0000
0000
0000
0000
0000
0000
0000
0000
0000
0000
0000
0000
0000
0000
0000
0000
0000
0000
0000
0000
,
1000
0000
0000
0001
0000
0000
0100
0000
0000
0010
0000
0000
1000
0000
0000
0001
0100
0001
0100
0000
0000
0010
0000
0000
,
1000
0000
0001
0000
0100
0000
0010
1000
0001
1000
0100
0010
0001
0000
1000
0000
,
0001
0000
0000
0000
0000
0000
0000
0000
0000
0000
0000
0000
0000
0000
0000
0000
0000
0000
0000
0000
0000
0000
0000
0000
0100
0000
0000
0000
0000
0000
0000
0000
0000
0000
0000
0000
0000
0000
0000
0000
0000
0000
0000
0000
0000
0000
0000
0000
0010
0000
0000
0000
0000
0000
0000
0000
0000
0000
0000
0000
0000
0000
0000
0000
0000
0000
0000
0000
0000
0000
0000
0000
1000
0000
0000
0000
0000
0000
0000
0000
0000
0000
0000
0000
0000
0000
0000
0000
0000
0000
0000
0000
0000
0000
0000
0000
0001
0000
0000
0000
0000
0000
0000
0000
0000
0000
0010
0000
0000
0000
0000
0000
0000
0000
0000
0100
0000
0000
0000
0000
0000
0000
0000
0000
0000
1000
0000
0000
0000
0000
0000
0000
0000
0000
0001
0000
0000
0000
0000
0000
0000
0000
0000
0000
0100
0000
0000
0000
0000
0000
0000
0000
0000
0000
0000
0000
0000
0000
0000
0000
0000
0000
0000
0000
0000
0000
0000
0000
0010
0000
0000
0000
0000
0000
0000
0000
0000
0000
0000
0000
0000
0000
0000
0000
0000
0000
0000
0000
0000
0000
0000
0000
,
1000
0000
0000
0000
0000
0000
0001
0000
0000
0000
0000
0000
0100
0000
0000
0000
0000
0000
0001
0000
0000
0010
0000
0000
0100
0000
0000
0000
0000
0000
1000
0000
0100
0000
1000
0000
0100
0000
0000
0000
0000
0000
1000
0000
0000
0000
0000
0000
,
0001
0000
0000
0000
0000
0000
0100
0000
0000
0000
0000
0000
0010
0000
0000
0000
0000
0000
0100
0000
0000
0001
0000
0000
1000
0000
0000
0000
0000
0000
0001
0000
0100
0000
0001
0000
0100
0000
0000
0000
0000
0000
0010
0000
0000
0000
0000
0000
,
1000
0000
0001
0000
1000
0000
0100
0010
0001
1000
0001
0100
0010
0000
0100
0000
,
0001
0000
0000
0000
0000
0000
1000
0000
0000
0100
0000
0000
1000
0000
0000
0001
0000
0000
0010
0000
0000
0100
0000
0000
1000
0000
0000
0001
0000
0000
1000
0000
0100
0000
1000
0000
0100
0000
0000
0000
0000
0000
1000
0000
0001
0000
1000
0000
,
0001
0000
0000
0000
0000
0000
0000
0000
0000
0000
0000
0000
0000
0000
0000
0000
0000
0000
0000
0000
0000
0000
0000
0000
0100
0000
0000
0000
0000
0000
0000
0000
0001
0000
0000
0000
0000
0000
0000
0000
0100
0000
0000
0000
0000
0000
0000
0000
0001
0000
0000
0000
0000
0000
0000
0000
0000
0000
0000
0000
0000
0000
0000
0000
0000
0000
0000
0000
0000
0000
0000
0000
1000
0000
0000
0000
0000
0000
0000
0000
0001
0000
0000
0000
0000
0000
0000
0000
1000
0000
0000
0000
0000
0000
0000
0000
0001
0000
0000
0000
0000
0000
0000
0000
0000
0000
0100
0000
0000
0000
0000
0000
0000
0000
0000
0001
0000
0000
0000
0000
0000
0000
0000
0000
0000
1000
0000
0000
0000
0000
0000
0000
0000
0000
0010
0000
0000
0000
0000
0000
0000
0000
0000
0000
0100
0000
0000
0000
0000
0000
0000
0000
0000
0000
0000
0000
0010
0000
0000
0000
0000
0000
0000
0000
0000
0000
0000
0000
1000
0000
0000
0000
0000
0000
0000
0000
0000
0000
0000
0000
0001
0000
0000
0000
0000
0000
0000
0000
0000
0000
0000
0000
,
1000
0100
0010
0001
1000
0001
0100
0001
1000
0010
0100
0001
1000
0001
1000
0001
,
1000
0100
0010
0001
0100
0010
0100
0001
1000
0001
1000
0001
1000
0100
0010
0001
,
1000
0001
0010
0100
1000
0001
1000
0001
0100
0010
0100
0001
1000
0100
0010
0001
,
0100
0010
1000
0001
1000
0100
0010
0001
0010
0100
1000
0001
0100
0010
1000
0001
,
1000
0100
0010
0001
1000
0001
1000
0010
0100
0001
0100
0010
1000
0001
1000
0001
,
1000
0001
0100
0010
1000
0100
0010
0001
0100
0001
1000
0100
1000
0001
0100
0010
,
0100
0001
1000
0001
0010
0100
1000
0001
1000
0010
0100
0001
0010
0100
1000
0001
,
0100
0010
1000
0001
2000
0000
0000
0000
3001
0000
0000
0000
0001
0100
0001
1000
,
0001
0010
0100
1000
0001
0100
0010
1000
0001
0100
0010
1000
0001
1000
0001
1000
,
0001
0100
0010
0100
0001
0010
0100
1000
0010
1000
0001
1000
0001
0010
0100
1000
,
0001
1000
0100
0010
0001
1000
0100
1000
0100
1000
0001
0010
0100
0010
0001
1000
,
0010
0100
0001
1000
0001
0010
0100
1000
0100
0010
0001
1000
0010
0100
0001
1000
,
0001
0010
0100
1000
0001
1000
0001
1000
0010
0100
0010
0100
0001
1000
0001
1000
,
0001
1000
0010
0100
0001
0010
0100
1000
0010
1000
0001
0100
0001
1000
0100
0010
,
0001
1000
0001
0100
0010
0100
0010
1000
0001
0100
0010
1000
0100
0010
0001
1000
,
0010
0100
0001
1000
0002
0000
0000
0000
1003
0000
0000
0000
1100
0000
1000
0000
,
0001
0000
0100
0000
0010
0000
0100
0000
0001
0000
1000
0000
0100
0000
0010
0001
,
0010
0100
1000
0000
0001
0000
1000
0000
0100
0000
1000
0000
0001
0000
0001
0000
,
1000
0000
0010
0000
0100
0000
0010
0000
1000
0000
0001
0000
0010
0000
0100
1000
,
0100
0010
0001
0000
1000
0000
0001
0000
0010
0000
0001
0000
0101
0000
0100
0000
,
0010
0000
1000
0000
0100
0000
1000
0000
0001
0000
0010
0000
0001
0000
1000
0010
,
0100
0001
1000
0000
0010
0000
1000
0000
0100
0000
0010
0000
0001
0000
0001
0000
,
0100
0000
0010
0000
1000
0000
0010
0000
0100
0000
0001
0000
1001
0000
1000
0100
,
0010
0001
1000
0000
0100
0000
1000
0000
0010
0000
0100
0000
0101
0000
0001
0000
,
1000
0000
0100
0000
0010
0000
0100
0000
1000
0000
0001
0000
0100
0000
0010
1000
,
0010
0100
0001
0000
1000
0000
0001
0000
0100
0000
0001
0000
1000
0000
1000
0000
,
0001
0000
0010
0000
0100
0000
0010
0000
0001
0000
1000
0000
0010
0000
0100
0001
,
0100
0010
1000
0000
0001
0000
1000
0000
0010
0000
1000
0000
1100
0000
0100
0000
,
0010
0000
0001
0000
0100
0000
0001
0000
1000
0000
0010
0000
1000
0000
0001
0010
,
0100
1000
0001
0000
0010
0000
0001
0000
0100
0000
0010
0000
1000
0000
1000
0000
,
0100
0000
0010
0000
0001
0000
0010
0000
0100
0000
1000
0000
1001
0000
0001
0100
,
0010
1000
0001
0000
0100
0000
0001
0000
0010
0000
0100
0000
1100
0000
1000
0000
,
0001
0000
0100
0000
0010
0000
0100
0000
0001
0000
1000
0000
0100
0000
0010
0001
,
0010
0100
1000
0000
0001
0000
1000
0000
0100
0000
1000
0000
0001
0000
0001
0000
,
1000
0000
0010
0000
0100
0000
0010
0000
1000
0000
0001
0000
0010
0000
0100
1000
,
0100
0010
0001
0000
1000
0000
0001
0000
0010
0000
0001
0000
0101
0000
0100
0000
,
0010
0000
1000
0000
0100
0000
1000
0000
0001
0000
0010
0000
0001
0000
1000
0010
,
0100
0001
1000
0000
0010
0000
1000
0000
0100
0000
0010
0000
0001
1000
0001
0010
,
0100
0000
0000
0000
0000
0000
0000
0000
0000
0000
0000
0000
1000
0000
0000
0000
0000
0000
0000
0000
0000
0000
0000
0000
0100
0000
0000
0000
0000
0000
0000
0000
0000
0000
0000
0000
0010
0000
0000
0000
0000
0000
0000
0000
0000
0000
0000
0000
0001
0000
0000
0000
0000
0000
0000
0000
0000
0000
0000
0000
1000
0000
0000
0000
0000
0000
0000
0000
0000
0000
0000
0000
0001
0000
0000
0000
0000
0000
0000
0000
0000
0000
0000
0000
0100
0000
0000
0000
0000
0000
0000
0000
0000
0000
0000
0000
0010
0000
0000
0000
0000
0000
0000
0000
0000
0000
0000
0000
1000
0000
0000
0000
0000
0000
0000
0000
0000
0000
0000
0000
0001
0000
0000
0000
0000
0000
0000
0000
0000
0000
0000
0000
0010
0000
0000
0000
0000
0000
0000
0000
0000
0000
0000
0000
0100
0000
0000
0000
0000
0000
0000
0000
0000
0000
1000
0000
0000
0000
0000
0000
0000
0000
0000
0001
0000
0000
0000
0000
0000
0000
0000
0000
0000
0100
0000
0000
0000
0000
0000
0000
0000
0000
0010
0000
0000
0000
0000
0000
0000
0000
0000
0000
,
1000
0000
0000
0000
0000
0000
0000
0000
0000
0000
0001
0000
0000
0000
0000
0000
0000
0000
0000
0100
0000
0000
0000
0000
0000
0000
0000
0000
0000
0010
0000
0000
0000
0000
0000
0000
0000
0000
1000
0000
0000
0000
0000
0000
0000
0000
0000
0000
0001
0000
0000
0000
0000
0000
0000
0000
0000
0000
0010
0000
0000
0000
0000
0000
0000
0000
0000
0100
0000
0000
0000
0000
0000
0000
0000
0000
0000
0010
0000
0000
0000
0000
0000
0000
0000
0000
0001
0000
0000
0000
0000
0000
0000
0000
0000
0000
1000
0000
0000
0000
0000
0000
0000
0000
0000
0000
0010
0000
0000
0000
0000
0000
0000
0000
0000
0100
0000
0000
0000
0000
0000
0000
0000
0000
0000
0001
0000
0000
0000
0000
0000
0000
0000
0000
1000
0000
0000
0000
0000
0000
0000
0000
0000
0000
0002
0000
0000
0000
0000
0000
0000
0000
0000
0000
0000
0000
0000
0000
0000
0000
0000
0000
0000
0000
0000
0000
0000
0000
0000
0000
0000
0000
0000
0000
0000
0000
0000
0000
0000
0000
0000
0000
0000
0000
0000
0000
0000
0000
0000
0000
0000
0000
,
0000
0000
0000
0000
0000
0000
0000
0000
0000
0000
0000
0000
1003
0100
1000
0100
,
0010
0001
0010
0001
1000
0001
0100
0010
1000
0100
0010
0001
0100
0000
0001
0000
,
0010
0000
0100
1000
0001
1000
0010
0000
0100
0000
0001
0000
0010
0000
0001
1000
,
0010
0100
0001
1000
0100
1000
0001
0000
0100
0000
0010
0000
0100
0000
0001
0000
,
1000
0000
0100
0010
0001
1000
0001
0000
0100
0000
0010
0000
1000
0000
0001
0010
,
0100
1000
0001
0100
0010
0100
0001
1000
0100
0000
1000
0000
0001
0000
0100
0000
,
0010
0000
1000
0100
0010
0100
1000
0000
0001
0000
0100
0000
0001
0000
0010
0100
,
1000
0001
0100
0010
0100
0001
1000
0000
0100
0000
1000
0000
0001
0000
0100
0000
,
0001
0000
0010
0100
1000
0001
1000
0000
0010
0000
0100
0000
0001
0000
0010
0100
,
1000
0001
0100
0010
0100
0001
1000
0100
1000
0000
0001
0000
0010
0000
0100
0000
,
1000
0000
0001
0010
0100
1000
0001
0000
1000
0000
0010
0000
0100
0000
0010
0100
,
0001
1000
0100
0010
0001
1000
0001
0000
0100
0000
0010
0000
1000
0000
0001
0000
,
0100
0000
0001
0010
0001
1000
0001
0000
0100
0000
0010
0000
1000
0000
0100
1000
,
0001
0010
0100
1000
0001
0100
0001
1000
0010
0000
0100
0000
0001
0000
0010
0000
,
0100
0000
1000
0001
0100
0010
0100
0000
0001
0000
1000
0000
0001
0000
0100
0010
,
1000
0001
0100
0001
1000
0100
1000
0000
0001
0000
0100
0000
0010
0000
1000
0000
,
0001
0000
1000
0100
0010
0001
1000
0000
0001
0000
0100
0000
0020
0000
0000
0000
,
0230
0000
0320
0000
2030
3100
0020
0000
0031
0000
0000
0000
1000
0000
0001
0000
,
0100
0000
0010
0100
0010
1000
0001
0000
0010
0000
0100
0000
1000
0000
0001
1000
,
0100
0010
0001
1000
0001
0100
0010
0000
0100
0000
0001
0000
0010
0000
0100
0000
,
1000
0000
0001
0100
0001
1000
0100
0000
0010
0000
0001
0000
1000
0000
0001
0010
,
0100
1000
0001
0100
0010
1000
0001
0100
0001
0000
1000
0000
0100
0000
1000
0000
,
0001
0000
0100
0001
1000
0100
1000
0000
0100
0000
0010
0000
0001
0000
1000
0100
,
0010
0100
1000
0001
0100
0010
0100
0000
0001
0000
1000
0000
0001
0000
0100
0000
,
0001
0000
1000
0100
1000
0001
0010
0000
0100
0000
1000
0000
0001
0000
0100
0010
,
1000
0001
0010
0100
1000
0001
1000
0010
0100
0000
0001
0000
1000
0000
0010
0000
,
0100
0000
0001
0100
0001
1000
0100
0000
0010
0000
0001
0000
1000
0000
0010
0100
,
0001
1000
0100
1000
0001
0100
0001
0000
0010
0000
0100
0000
1000
0000
0001
0000
,
0100
0000
0001
0010
0100
1000
0001
0000
0100
0000
0010
0000
1000
0000
0100
1000
,
0001
0100
0010
0100
0001
1000
0001
0100
0010
0000
1000
0000
0001
0000
0100
0000
,
0001
0000
0010
0100
1000
0001
0100
0000
0010
0000
0100
0000
0001
0000
0010
0100
,
1000
0001
0010
0100
1000
0001
1000
0000
0010
0000
0100
0000
0001
0000
1000
0000
,
0001
0000
0100
0001
1000
0100
1000
0000
0001
0000
1000
0000
0200
0000
0000
0000
,
0320
0000
0230
0000
2300
0000
0000
0000
3001
0000
0000
0000
1000
0100
1000
0001
,
0010
0001
0100
0001
1000
0010
1000
0001
0100
0001
1000
0001
0010
0100
0010
0001
,
1000
0001
0100
0001
0010
0100
0010
0001
1000
0001
0010
0100
1000
0001
1000
0100
,
1000
0000
0000
0000
0000
0000
0000
0000
0000
0000
0000
0000
0001
0000
0000
0000
0000
0000
0000
0000
0000
0000
0000
0000
0010
0000
0000
0000
0000
0000
0000
0000
0000
0000
0000
0000
0001
0000
0000
0000
0000
0000
0000
0000
0000
0000
0000
0000
0100
0000
0000
0000
0000
0000
0000
0000
0000
0000
0000
0000
0010
0000
0000
0000
0000
0000
0000
0000
0000
0000
0000
0000
1000
0000
0000
0000
0000
0000
0000
0000
0000
0000
0000
0000
0001
0000
0000
0000
0000
0000
0000
0000
0000
0000
0000
0000
0100
0000
0000
0000
0000
0000
0000
0000
0000
0000
0001
0000
0000
0000
0000
0000
0000
0000
0000
1000
0000
0000
0000
0000
0000
0000
0000
0000
0000
0100
0000
0000
0000
0000
0000
0000
0000
0000
1000
0000
0000
0000
0000
0000
0000
0000
0000
0000
0001
0000
0000
0000
0000
0000
0000
0000
0000
0000
0100
0000
0000
0000
0000
0000
0000
0000
0000
0010
0000
0000
0000
0000
0000
0000
0000
0000
0000
0100
0000
0000
0000
0000
0000
0000
0000
0000
0001
0000
0000
0000
0000
0000
0000
0000
0000
0000
,
1000
0000
0000
0000
0000
0000
0000
0000
0000
0000
0100
0000
0000
0000
0000
0000
0000
0000
0000
0010
0000
0000
0000
0000
0000
0000
0000
0000
0000
0001
0000
0000
0000
0000
0000
0000
0000
0000
1000
0000
0000
0000
0000
0000
0000
0000
0000
0000
0001
0000
0000
0000
0000
0000
0000
0000
0000
0000
0000
0000
0010
0000
0000
0000
0000
0000
0000
0000
0000
0000
0000
0000
0100
0000
0000
0000
0000
0000
0000
0000
0000
0000
0000
0000
1000
0000
0000
0000
0000
0000
0000
0000
0000
0000
0000
0000
0001
0000
0000
0000
0000
0000
0000
0000
0000
0000
0100
0000
0000
0000
0000
0000
0000
0000
0000
0010
0000
0000
0000
0000
0000
0000
0000
0000
0000
0100
0000
0000
0000
0000
0000
0000
0000
0000
0001
0000
0000
0000
0000
0000
0000
0000
0000
0000
1000
0000
0000
0000
0000
0000
0000
0000
0000
0000
0000
0000
0010
0000
0000
0000
0000
0000
0000
0000
0000
0000
0000
0000
1000
0000
0000
0000
0000
0000
0000
0000
0000
0000
0000
0000
0001
0000
0000
0000
0000
0000
0000
0000
0000
0000
0000
0000
,
0100
0000
0000
0000
0000
0000
0000
0000
0000
0000
0000
0000
0001
0000
0000
0000
0000
0000
0000
0000
0000
0000
0000
0000
0010
0000
0000
0000
0000
0000
0000
0000
0000
0000
0000
0000
0001
0000
0000
0000
0000
0000
0000
0000
0000
0000
0000
0000
1000
0000
0000
0000
0000
0000
0000
0000
0000
0000
0100
0000
0000
0000
0000
0000
0000
0000
0000
0010
0000
0000
0000
0000
0000
0000
0000
0000
0000
0001
0000
0000
0000
0000
0000
0000
0000
0000
1000
0000
0000
0000
0000
0000
0000
0000
0000
0000
0001
0000
0000
0000
0000
0000
0000
0000
0000
0000
0100
0000
0000
0000
0000
0000
0000
0000
0000
0001
0000
0000
0000
0000
0000
0000
0000
0000
0000
1000
0000
0000
0000
0000
0000
0000
0000
0000
0100
0000
0000
0000
0000
0000
0000
0000
0000
0000
0010
0000
0000
0000
0000
0000
0000
0000
0000
0000
0000
0000
0001
0000
0000
0000
0000
0000
0000
0000
0000
0000
0000
0000
0100
0000
0000
0000
0000
0000
0000
0000
0000
0000
0000
0000
0001
0000
0000
0000
0000
0000
0000
0000
0000
0000
0000
0000
,
1000
0000
0000
0000
0000
0000
0000
0000
0000
0000
0000
0000
0001
0000
0000
0000
0000
0000
0000
0000
0000
0000
0000
0000
0100
0000
0000
0000
0000
0000
0000
0000
0000
0000
0000
0000
0001
0000
0000
0000
0000
0000
0000
0000
0000
0000
0000
0000
0010
0000
0000
0000
0000
0000
0000
0000
0000
0000
0000
0000
0100
0000
0000
0000
0000
0000
0000
0000
0000
0000
0000
0000
0010
0000
0000
0000
0000
0000
0000
0000
0000
0000
0000
0000
0001
0000
0000
0000
0000
0000
0000
0000
0000
0000
0000
0000
1000
0000
0000
0000
0000
0000
0000
0000
0000
0000
0000
0000
0001
0000
0000
0000
0000
0000
0000
0000
0000
0000
0000
0000
0010
0000
0000
0000
0000
0000
0000
0000
0000
0000
0000
0000
0100
0000
0000
0000
0000
0000
0000
0000
0000
0000
0000
0000
1000
0000
0000
0000
0000
0000
0000
0000
0000
0000
0001
0000
0000
0000
0000
0000
0000
0000
0000
0010
0000
0000
0000
0000
0000
0000
0000
0000
0000
0001
0000
0000
0000
0000
0000
0000
0000
0000
1000
0000
0000
0000
0000
0000
0000
0000
0000
0000
,
0010
0000
0000
0000
0000
0000
0000
0000
0000
0000
0100
0000
0000
0000
0000
0000
0000
0000
0000
0001
0000
0000
0000
0000
0000
0000
0000
0000
0000
1000
0000
0000
0000
0000
0000
0000
0000
0000
0100
0000
0000
0000
0000
0000
0000
0000
0000
0000
0010
0000
0000
0000
0000
0000
0000
0000
0000
0000
0000
0000
0001
0000
0000
0000
0000
0000
0000
0000
0000
0000
0000
0000
0100
0000
0000
0000
0000
0000
0000
0000
0000
0000
0000
0000
0001
0000
0000
0000
0000
0000
0000
0000
0000
0000
0000
0000
0010
0000
0000
0000
0000
0000
0000
0000
0000
0000
0000
0000
0001
0000
0000
0000
0000
0000
0000
0000
0000
0000
0000
0000
1000
0000
0000
0000
0000
0000
0000
0000
0000
0000
0000
0000
0001
0000
0000
0000
0000
0000
0000
0000
0000
0000
0000
0000
0100
0000
0000
0000
0000
0000
0000
0000
0000
0000
0000
0000
0010
0000
0000
0000
0000
0000
0000
0000
0000
0000
0000
0000
1000
0000
0000
0000
0000
0000
0000
0000
0000
0000
0000
0000
0001
0000
0000
0000
0000
0000
0000
0000
0000
0000
0000
0000
,
0100
0001
1000
0001
0010
0100
0010
0001
1000
0010
1000
0001
1000
0100
1000
0001
,
0010
0001
0100
0001
1000
0010
1000
0001
0100
0001
1000
0001
0010
0100
0010
0001
,
1000
0001
0100
0001
0010
0100
0010
0001
1000
0001
0010
0100
1000
0001
1000
0100
,
1000
0000
0000
0000
0000
0000
0000
0000
0000
0000
0000
0000
0001
0000
0000
0000
0000
0000
0000
0000
0000
0000
0000
0000
0010
0000
0000
0000
0000
0000
0000
0000
0000
0000
0000
0000
0001
0000
0000
0000
0000
0000
0000
0000
0000
0000
0000
0000
0100
0000
0000
0000
0000
0000
0000
0000
0000
0000
0000
0000
0010
0000
0000
0000
0000
0000
0000
0000
0000
0000
0000
0000
1000
0000
0000
0000
0000
0000
0000
0000
0000
0000
0000
0000
0001
0000
0000
0000
0000
0000
0000
0000
0000
0000
0000
0000
0100
0000
0000
0000
0000
0000
0000
0000
0000
0000
0001
0000
0000
0000
0000
0000
0000
0000
0000
0010
0000
0000
0000
0000
0000
0000
0000
0000
0000
0100
0000
0000
0000
0000
0000
0000
0000
0000
1000
0000
0000
0000
0000
0000
0000
0000
0000
0000
0001
0000
0000
0000
0000
0000
0000
0000
0000
0000
0100
0000
0000
0000
0000
0000
0000
0000
0000
0010
0000
0000
0000
0000
0000
0000
0000
0000
0000
0100
0000
0000
0000
0000
0000
0000
0000
0000
0001
0000
0000
0000
0000
0000
0000
0000
0000
0000
,
1000
0000
0000
0000
0000
0000
0000
0000
0000
0000
0100
0000
0000
0000
0000
0000
0000
0000
0000
0010
0000
0000
0000
0000
0000
0000
0000
0000
0000
0001
0000
0000
0000
0000
0000
0000
0000
0000
1000
0000
0000
0000
0000
0000
0000
0000
0000
0000
0001
0000
0000
0000
0000
0000
0000
0000
0000
0000
0000
0000
0100
0000
0000
0000
0000
0000
0000
0000
0000
0000
0000
0000
0010
0000
0000
0000
0000
0000
0000
0000
0000
0000
0000
0000
1000
0000
0000
0000
0000
0000
0000
0000
0000
0000
0000
0000
0001
0000
0000
0000
0000
0000
0000
0000
0000
0000
0010
0000
0000
0000
0000
0000
0000
0000
0000
0100
0000
0000
0000
0000
0000
0000
0000
0000
0000
1000
0000
0000
0000
0000
0000
0000
0000
0000
0001
0000
0000
0000
0000
0000
0000
0000
0000
0000
0100
0000
0000
0000
0000
0000
0000
0000
0000
0000
0000
0000
0010
0000
0000
0000
0000
0000
0000
0000
0000
0000
0000
0000
1000
0000
0000
0000
0000
0000
0000
0000
0000
0000
0000
0000
0001
0000
0000
0000
0000
0000
0000
0000
0000
0000
0000
0000
,
0100
0000
0000
0000
0000
0000
0000
0000
0000
0000
0000
0000
0001
0000
0000
0000
0000
0000
0000
0000
0000
0000
0000
0000
0010
0000
0000
0000
0000
0000
0000
0000
0000
0000
0000
0000
0001
0000
0000
0000
0000
0000
0000
0000
0000
0000
0000
0000
1000
0000
0000
0000
0000
0000
0000
0000
0000
0000
0100
0000
0000
0000
0000
0000
0000
0000
0000
0010
0000
0000
0000
0000
0000
0000
0000
0000
0000
0001
0000
0000
0000
0000
0000
0000
0000
0000
1000
0000
0000
0000
0000
0000
0000
0000
0000
0000
0001
0000
0000
0000
0000
0000
0000
0000
0000
0000
0100
0000
0000
0000
0000
0000
0000
0000
0000
0010
0000
0000
0000
0000
0000
0000
0000
0000
0000
0100
0000
0000
0000
0000
0000
0000
0000
0000
0001
0000
0000
0000
0000
0000
0000
0000
0000
0000
1000
0000
0000
0000
0000
0000
0000
0000
0000
0000
0000
0000
0010
0000
0000
0000
0000
0000
0000
0000
0000
0000
0000
0000
0100
0000
0000
0000
0000
0000
0000
0000
0000
0000
0000
0000
0001
0000
0000
0000
0000
0000
0000
0000
0000
0000
0000
0000
,
1000
0000
0000
0000
0000
0000
0000
0000
0000
0000
0000
0000
0001
0000
0000
0000
0000
0000
0000
0000
0000
0000
0000
0000
0010
0000
0000
0000
0000
0000
0000
0000
0000
0000
0000
0000
0001
0000
0000
0000
0000
0000
0000
0000
0000
0000
0000
0000
0100
0000
0000
0000
0000
0000
0000
0000
0000
0000
0000
0000
0010
0000
0000
0000
0000
0000
0000
0000
0000
0000
0000
0000
0100
0000
0000
0000
0000
0000
0000
0000
0000
0000
0000
0000
0001
0000
0000
0000
0000
0000
0000
0000
0000
0000
0000
0000
1000
0000
0000
0000
0000
0000
0000
0000
0000
0000
0000
0000
0001
0000
0000
0000
0000
0000
0000
0000
0000
0000
0000
0000
0100
0000
0000
0000
0000
0000
0000
0000
0000
0000
0000
0000
0010
0000
0000
0000
0000
0000
0000
0000
0000
0000
0000
0000
1000
0000
0000
0000
0000
0000
0000
0000
0000
0000
0100
0000
0000
0000
0000
0000
0000
0000
0000
0010
0000
0000
0000
0000
0000
0000
0000
0000
0000
0001
0000
0000
0000
0000
0000
0000
0000
0000
1000
0000
0000
0000
0000
0000
0000
0000
0000
0000
,
0001
0000
0000
0000
0000
0000
0000
0000
0000
0000
0100
0000
0000
0000
0000
0000
0000
0000
0000
0010
0000
0000
0000
0000
0000
0000
0000
0000
0000
1000
0000
0000
0000
0000
0000
0000
0000
0000
0001
0000
0000
0000
0000
0000
0000
0000
0000
0000
1000
0000
0000
0000
0000
0000
0000
0000
0000
0000
0000
0000
0100
0000
0000
0000
0000
0000
0000
0000
0000
0000
0000
0000
1000
0000
0000
0000
0000
0000
0000
0000
0000
0000
0000
0000
0001
0000
0000
0000
0000
0000
0000
0000
0000
0000
0000
0000
0010
0000
0000
0000
0000
0000
0000
0000
0000
0000
0000
0000
0001
0000
0000
0000
0000
0000
0000
0000
0000
0000
0000
0000
1000
0000
0000
0000
0000
0000
0000
0000
0000
0000
0000
0000
0001
0000
0000
0000
0000
0000
0000
0000
0000
0000
0000
0000
0200
0000
0000
0000
0000
0000
0000
0000
0000
0000
0000
0000
0000
0000
0000
0000
0000
0000
0000
0000
0000
0000
0000
0000
0000
0000
0000
0000
0000
0000
0000
0000
0000
0000
0000
0000
0000
0000
0000
0000
0000
0000
0000
0000
0000
0000
0000
0000
,
0320
0000
2030
0000
3002
0000
0000
0003
1001
0000
0000
0000
0001
0010
0001
1000
,
0100
1000
0010
1000
0001
0100
0001
1000
0010
1000
0001
1000
0100
0010
0100
1000
,
0001
1000
0010
1000
0100
0010
0100
1000
0001
1000
0100
0010
0001
1000
0001
0010
,
0001
0000
0000
0000
0000
0000
0000
0000
0000
0000
0000
0000
1000
0000
0000
0000
0000
0000
0000
0000
0000
0000
0000
0000
0100
0000
0000
0000
0000
0000
0000
0000
0000
0000
0000
0000
1000
0000
0000
0000
0000
0000
0000
0000
0000
0000
0000
0000
0010
0000
0000
0000
0000
0000
0000
0000
0000
0000
0000
0000
0100
0000
0000
0000
0000
0000
0000
0000
0000
0000
0000
0000
0001
0000
0000
0000
0000
0000
0000
0000
0000
0000
0000
0000
1000
0000
0000
0000
0000
0000
0000
0000
0000
0000
0000
0000
0010
0000
0000
0000
0000
0000
0000
0000
0000
0000
1000
0000
0000
0000
0000
0000
0000
0000
0000
0001
0000
0000
0000
0000
0000
0000
0000
0000
0000
0010
0000
0000
0000
0000
0000
0000
0000
0000
0001
0000
0000
0000
0000
0000
0000
0000
0000
0000
1000
0000
0000
0000
0000
0000
0000
0000
0000
0000
0010
0000
0000
0000
0000
0000
0000
0000
0000
0100
0000
0000
0000
0000
0000
0000
0000
0000
0000
0010
0000
0000
0000
0000
0000
0000
0000
0000
1000
0000
0000
0000
0000
0000
0000
0000
0000
0000
,
0001
0000
0000
0000
0000
0000
0000
0000
0000
0000
0010
0000
0000
0000
0000
0000
0000
0000
0000
0100
0000
0000
0000
0000
0000
0000
0000
0000
0000
1000
0000
0000
0000
0000
0000
0000
0000
0000
0001
0000
0000
0000
0000
0000
0000
0000
0000
0000
1000
0000
0000
0000
0000
0000
0000
0000
0000
0000
0000
0000
0100
0000
0000
0000
0000
0000
0000
0000
0000
0000
0000
0000
0010
0000
0000
0000
0000
0000
0000
0000
0000
0000
0000
0000
0001
0000
0000
0000
0000
0000
0000
0000
0000
0000
0000
0000
1000
0000
0000
0000
0000
0000
0000
0000
0000
0000
0010
0000
0000
0000
0000
0000
0000
0000
0000
0100
0000
0000
0000
0000
0000
0000
0000
0000
0000
0010
0000
0000
0000
0000
0000
0000
0000
0000
1000
0000
0000
0000
0000
0000
0000
0000
0000
0000
0001
0000
0000
0000
0000
0000
0000
0000
0000
0000
0000
0000
0100
0000
0000
0000
0000
0000
0000
0000
0000
0000
0000
0000
0001
0000
0000
0000
0000
0000
0000
0000
0000
0000
0000
0000
1000
0000
0000
0000
0000
0000
0000
0000
0000
0000
0000
0000
,
0010
0000
0000
0000
0000
0000
0000
0000
0000
0000
0000
0000
1000
0000
0000
0000
0000
0000
0000
0000
0000
0000
0000
0000
0100
0000
0000
0000
0000
0000
0000
0000
0000
0000
0000
0000
1000
0000
0000
0000
0000
0000
0000
0000
0000
0000
0000
0000
0001
0000
0000
0000
0000
0000
0000
0000
0000
0000
0010
0000
0000
0000
0000
0000
0000
0000
0000
0100
0000
0000
0000
0000
0000
0000
0000
0000
0000
1000
0000
0000
0000
0000
0000
0000
0000
0000
0001
0000
0000
0000
0000
0000
0000
0000
0000
0000
1000
0000
0000
0000
0000
0000
0000
0000
0000
0000
0010
0000
0000
0000
0000
0000
0000
0000
0000
1000
0000
0000
0000
0000
0000
0000
0000
0000
0000
0001
0000
0000
0000
0000
0000
0000
0000
0000
0010
0000
0000
0000
0000
0000
0000
0000
0000
0000
0100
0000
0000
0000
0000
0000
0000
0000
0000
0000
0000
0000
1000
0000
0000
0000
0000
0000
0000
0000
0000
0000
0000
0000
0010
0000
0000
0000
0000
0000
0000
0000
0000
0000
0000
0000
1000
0000
0000
0000
0000
0000
0000
0000
0000
0000
0000
0000
,
0001
0000
0000
0000
0000
0000
0000
0000
0000
0000
0000
0000
1000
0000
0000
0000
0000
0000
0000
0000
0000
0000
0000
0000
0010
0000
0000
0000
0000
0000
0000
0000
0000
0000
0000
0000
1000
0000
0000
0000
0000
0000
0000
0000
0000
0000
0000
0000
0100
0000
0000
0000
0000
0000
0000
0000
0000
0000
0000
0000
0010
0000
0000
0000
0000
0000
0000
0000
0000
0000
0000
0000
0100
0000
0000
0000
0000
0000
0000
0000
0000
0000
0000
0000
1000
0000
0000
0000
0000
0000
0000
0000
0000
0000
0000
0000
0001
0000
0000
0000
0000
0000
0000
0000
0000
0000
0000
0000
1000
0000
0000
0000
0000
0000
0000
0000
0000
0000
0000
0000
0100
0000
0000
0000
0000
0000
0000
0000
0000
0000
0000
0000
0010
0000
0000
0000
0000
0000
0000
0000
0000
0000
0000
0000
0001
0000
0000
0000
0000
0000
0000
0000
0000
0000
1000
0000
0000
0000
0000
0000
0000
0000
0000
0100
0000
0000
0000
0000
0000
0000
0000
0000
0000
1000
0000
0000
0000
0000
0000
0000
0000
0000
0001
0000
0000
0000
0000
0000
0000
0000
0000
0000
,
0100
0000
0000
0000
0000
0000
0000
0000
0000
0000
0010
0000
0000
0000
0000
0000
0000
0000
0000
1000
0000
0000
0000
0000
0000
0000
0000
0000
0000
0001
0000
0000
0000
0000
0000
0000
0000
0000
0010
0000
0000
0000
0000
0000
0000
0000
0000
0000
0100
0000
0000
0000
0000
0000
0000
0000
0000
0000
0000
0000
1000
0000
0000
0000
0000
0000
0000
0000
0000
0000
0000
0000
0010
0000
0000
0000
0000
0000
0000
0000
0000
0000
0000
0000
1000
0000
0000
0000
0000
0000
0000
0000
0000
0000
0000
0000
0100
0000
0000
0000
0000
0000
0000
0000
0000
0000
0000
0000
1000
0000
0000
0000
0000
0000
0000
0000
0000
0000
0000
0000
0001
0000
0000
0000
0000
0000
0000
0000
0000
0000
0000
0000
1000
0000
0000
0000
0000
0000
0000
0000
0000
0000
0000
0000
0010
0000
0000
0000
0000
0000
0000
0000
0000
0000
0000
0000
0100
0000
0000
0000
0000
0000
0000
0000
0000
0000
0000
0000
0001
0000
0000
0000
0000
0000
0000
0000
0000
0000
0000
0000
1000
0000
0000
0000
0000
0000
0000
0000
0000
0000
0000
0000
,
0010
1000
0001
1000
0100
0010
0100
1000
0001
0100
0001
1000
0001
0010
0001
1000
,
0100
1000
0010
1000
0001
0100
0001
1000
0010
1000
0001
1000
0100
0010
0100
1000
,
0001
1000
0010
1000
0100
0010
0100
1000
0001
1000
0100
0010
0001
1000
0001
0010
,
0001
0000
0000
0000
0000
0000
0000
0000
0000
0000
0000
0000
1000
0000
0000
0000
0000
0000
0000
0000
0000
0000
0000
0000
0100
0000
0000
0000
0000
0000
0000
0000
0000
0000
0000
0000
1000
0000
0000
0000
0000
0000
0000
0000
0000
0000
0000
0000
0010
0000
0000
0000
0000
0000
0000
0000
0000
0000
0000
0000
0100
0000
0000
0000
0000
0000
0000
0000
0000
0000
0000
0000
0001
0000
0000
0000
0000
0000
0000
0000
0000
0000
0000
0000
1000
0000
0000
0000
0000
0000
0000
0000
0000
0000
0000
0000
0010
0000
0000
0000
0000
0000
0000
0000
0000
0000
1000
0000
0000
0000
0000
0000
0000
0000
0000
0100
0000
0000
0000
0000
0000
0000
0000
0000
0000
0010
0000
0000
0000
0000
0000
0000
0000
0000
0001
0000
0000
0000
0000
0000
0000
0000
0000
0000
1000
0000
0000
0000
0000
0000
0000
0000
0000
0000
0010
0000
0000
0000
0000
0000
0000
0000
0000
0100
0000
0000
0000
0000
0000
0000
0000
0000
0000
0010
0000
0000
0000
0000
0000
0000
0000
0000
1000
0000
0000
0000
0000
0000
0000
0000
0000
0000
,
0001
0000
0000
0000
0000
0000
0000
0000
0000
0000
0010
0000
0000
0000
0000
0000
0000
0000
0000
0100
0000
0000
0000
0000
0000
0000
0000
0000
0000
1000
0000
0000
0000
0000
0000
0000
0000
0000
0001
0000
0000
0000
0000
0000
0000
0000
0000
0000
1000
0000
0000
0000
0000
0000
0000
0000
0000
0000
0000
0000
0010
0000
0000
0000
0000
0000
0000
0000
0000
0000
0000
0000
0100
0000
0000
0000
0000
0000
0000
0000
0000
0000
0000
0000
0001
0000
0000
0000
0000
0000
0000
0000
0000
0000
0000
0000
1000
0000
0000
0000
0000
0000
0000
0000
0000
0000
0100
0000
0000
0000
0000
0000
0000
0000
0000
0010
0000
0000
0000
0000
0000
0000
0000
0000
0000
0001
0000
0000
0000
0000
0000
0000
0000
0000
1000
0000
0000
0000
0000
0000
0000
0000
0000
0000
0010
0000
0000
0000
0000
0000
0000
0000
0000
0000
0000
0000
0100
0000
0000
0000
0000
0000
0000
0000
0000
0000
0000
0000
0001
0000
0000
0000
0000
0000
0000
0000
0000
0000
0000
0000
1000
0000
0000
0000
0000
0000
0000
0000
0000
0000
0000
0000
,
0010
0000
0000
0000
0000
0000
0000
0000
0000
0000
0000
0000
1000
0000
0000
0000
0000
0000
0000
0000
0000
0000
0000
0000
0100
0000
0000
0000
0000
0000
0000
0000
0000
0000
0000
0000
1000
0000
0000
0000
0000
0000
0000
0000
0000
0000
0000
0000
0001
0000
0000
0000
0000
0000
0000
0000
0000
0000
0010
0000
0000
0000
0000
0000
0000
0000
0000
0100
0000
0000
0000
0000
0000
0000
0000
0000
0000
1000
0000
0000
0000
0000
0000
0000
0000
0000
0001
0000
0000
0000
0000
0000
0000
0000
0000
0000
1000
0000
0000
0000
0000
0000
0000
0000
0000
0000
0010
0000
0000
0000
0000
0000
0000
0000
0000
0100
0000
0000
0000
0000
0000
0000
0000
0000
0000
0010
0000
0000
0000
0000
0000
0000
0000
0000
1000
0000
0000
0000
0000
0000
0000
0000
0000
0000
0001
0000
0000
0000
0000
0000
0000
0000
0000
0000
0000
0000
0100
0000
0000
0000
0000
0000
0000
0000
0000
0000
0000
0000
0010
0000
0000
0000
0000
0000
0000
0000
0000
0000
0000
0000
1000
0000
0000
0000
0000
0000
0000
0000
0000
0000
0000
0000
,
0001
0000
0000
0000
0000
0000
0000
0000
0000
0000
0000
0000
1000
0000
0000
0000
0000
0000
0000
0000
0000
0000
0000
0000
0100
0000
0000
0000
0000
0000
0000
0000
0000
0000
0000
0000
1000
0000
0000
0000
0000
0000
0000
0000
0000
0000
0000
0000
0010
0000
0000
0000
0000
0000
0000
0000
0000
0000
0000
0000
0100
0000
0000
0000
0000
0000
0000
0000
0000
0000
0000
0000
0010
0000
0000
0000
0000
0000
0000
0000
0000
0000
0000
0000
1000
0000
0000
0000
0000
0000
0000
0000
0000
0000
0000
0000
0001
0000
0000
0000
0000
0000
0000
0000
0000
0000
0000
0000
1000
0000
0000
0000
0000
0000
0000
0000
0000
0000
0000
0000
0010
0000
0000
0000
0000
0000
0000
0000
0000
0000
0000
0000
0100
0000
0000
0000
0000
0000
0000
0000
0000
0000
0000
0000
0001
0000
0000
0000
0000
0000
0000
0000
0000
0000
0010
0000
0000
0000
0000
0000
0000
0000
0000
0100
0000
0000
0000
0000
0000
0000
0000
0000
0000
1000
0000
0000
0000
0000
0000
0000
0000
0000
0001
0000
0000
0000
0000
0000
0000
0000
0000
0000
,
1000
0000
0000
0000
0000
0000
0000
0000
0000
0000
0010
0000
0000
0000
0000
0000
0000
0000
0000
0100
0000
0000
0000
0000
0000
0000
0000
0000
0000
0001
0000
0000
0000
0000
0000
0000
0000
0000
1000
0000
0000
0000
0000
0000
0000
0000
0000
0000
0001
0000
0000
0000
0000
0000
0000
0000
0000
0000
0000
0000
0010
0000
0000
0000
0000
0000
0000
0000
0000
0000
0000
0000
0001
0000
0000
0000
0000
0000
0000
0000
0000
0000
0000
0000
1000
0000
0000
0000
0000
0000
0000
0000
0000
0000
0000
0000
0100
0000
0000
0000
0000
0000
0000
0000
0000
0000
0000
0000
1000
0000
0000
0000
0000
0000
0000
0000
0000
0000
0000
0000
0001
0000
0000
0000
0000
0000
0000
0000
0000
0000
0000
0000
1000
0000
0000
0000
0000
0000
0000
0000
0000
0000
0000
0000
0020
0000
0000
0000
0000
0000
0000
0000
0000
0000
0000
0000
0000
0000
0000
0000
0000
0000
0000
0000
0000
0000
0000
0000
0000
0000
0000
0000
0000
0000
0000
0000
0000
0000
0000
0000
0000
0000
0000
0000
0000
0000
0000
0000
0000
0000
0000
0000
,
0230
0000
0302
0000
2003
0000
3000
0000
1002
0000
0000
0000
1003
0100
1000
0001
,
0100
0001
0010
0100
1000
0001
0100
0001
1000
0100
0010
0100
1000
0001
0100
0001
,
1000
0010
1000
0001
0010
0100
1000
0001
0100
0001
1000
0100
0010
0100
1000
0010
,
0100
0000
0000
0000
0000
0000
0000
0000
0000
0000
0000
0000
0001
0000
0000
0000
0000
0000
0000
0000
0000
0000
0000
0000
0010
0000
0000
0000
0000
0000
0000
0000
0000
0000
0000
0000
0001
0000
0000
0000
0000
0000
0000
0000
0000
0000
0000
0000
0100
0000
0000
0000
0000
0000
0000
0000
0000
0000
0000
0000
0010
0000
0000
0000
0000
0000
0000
0000
0000
0000
0000
0000
1000
0000
0000
0000
0000
0000
0000
0000
0000
0000
0000
0000
0100
0000
0000
0000
0000
0000
0000
0000
0000
0000
0000
0000
0010
0000
0000
0000
0000
0000
0000
0000
0000
0000
0001
0000
0000
0000
0000
0000
0000
0000
0000
1000
0000
0000
0000
0000
0000
0000
0000
0000
0000
0001
0000
0000
0000
0000
0000
0000
0000
0000
0100
0000
0000
0000
0000
0000
0000
0000
0000
0000
0010
0000
0000
0000
0000
0000
0000
0000
0000
0000
0100
0000
0000
0000
0000
0000
0000
0000
0000
0001
0000
0000
0000
0000
0000
0000
0000
0000
0000
1000
0000
0000
0000
0000
0000
0000
0000
0000
0100
0000
0000
0000
0000
0000
0000
0000
0000
0000
,
0010
0000
0000
0000
0000
0000
0000
0000
0000
0000
0001
0000
0000
0000
0000
0000
0000
0000
0000
1000
0000
0000
0000
0000
0000
0000
0000
0000
0000
0010
0000
0000
0000
0000
0000
0000
0000
0000
0100
0000
0000
0000
0000
0000
0000
0000
0000
0000
0001
0000
0000
0000
0000
0000
0000
0000
0000
0000
0000
0000
0010
0000
0000
0000
0000
0000
0000
0000
0000
0000
0000
0000
0100
0000
0000
0000
0000
0000
0000
0000
0000
0000
0000
0000
1000
0000
0000
0000
0000
0000
0000
0000
0000
0000
0000
0000
0001
0000
0000
0000
0000
0000
0000
0000
0000
0000
0100
0000
0000
0000
0000
0000
0000
0000
0000
0010
0000
0000
0000
0000
0000
0000
0000
0000
0000
0100
0000
0000
0000
0000
0000
0000
0000
0000
0001
0000
0000
0000
0000
0000
0000
0000
0000
0000
1000
0000
0000
0000
0000
0000
0000
0000
0000
0000
0000
0000
0010
0000
0000
0000
0000
0000
0000
0000
0000
0000
0000
0000
1000
0000
0000
0000
0000
0000
0000
0000
0000
0000
0000
0000
0001
0000
0000
0000
0000
0000
0000
0000
0000
0000
0000
0000
,
0010
0000
0000
0000
0000
0000
0000
0000
0000
0000
0000
0000
0001
0000
0000
0000
0000
0000
0000
0000
0000
0000
0000
0000
0100
0000
0000
0000
0000
0000
0000
0000
0000
0000
0000
0000
0010
0000
0000
0000
0000
0000
0000
0000
0000
0000
0000
0000
1000
0000
0000
0000
0000
0000
0000
0000
0000
0000
0001
0000
0000
0000
0000
0000
0000
0000
0000
0010
0000
0000
0000
0000
0000
0000
0000
0000
0000
0100
0000
0000
0000
0000
0000
0000
0000
0000
1000
0000
0000
0000
0000
0000
0000
0000
0000
0000
0001
0000
0000
0000
0000
0000
0000
0000
0000
0000
0100
0000
0000
0000
0000
0000
0000
0000
0000
0010
0000
0000
0000
0000
0000
0000
0000
0000
0000
0100
0000
0000
0000
0000
0000
0000
0000
0000
0001
0000
0000
0000
0000
0000
0000
0000
0000
0000
1000
0000
0000
0000
0000
0000
0000
0000
0000
0000
0000
0000
0001
0000
0000
0000
0000
0000
0000
0000
0000
0000
0000
0000
0010
0000
0000
0000
0000
0000
0000
0000
0000
0000
0000
0000
0001
0000
0000
0000
0000
0000
0000
0000
0000
0000
0000
0000
,
1000
0000
0000
0000
0000
0000
0000
0000
0000
0000
0000
0000
0100
0000
0000
0000
0000
0000
0000
0000
0000
0000
0000
0000
1000
0000
0000
0000
0000
0000
0000
0000
0000
0000
0000
0000
0001
0000
0000
0000
0000
0000
0000
0000
0000
0000
0000
0000
0100
0000
0000
0000
0000
0000
0000
0000
0000
0000
0000
0000
0010
0000
0000
0000
0000
0000
0000
0000
0000
0000
0000
0000
1000
0000
0000
0000
0000
0000
0000
0000
0000
0000
0000
0000
0001
0000
0000
0000
0000
0000
0000
0000
0000
0000
0000
0000
0010
0000
0000
0000
0000
0000
0000
0000
0000
0000
0000
0000
0001
0000
0000
0000
0000
0000
0000
0000
0000
0000
0000
0000
1000
0000
0000
0000
0000
0000
0000
0000
0000
0000
0000
0000
0010
0000
0000
0000
0000
0000
0000
0000
0000
0000
0000
0000
0100
0000
0000
0000
0000
0000
0000
0000
0000
0000
0001
0000
0000
0000
0000
0000
0000
0000
0000
1000
0000
0000
0000
0000
0000
0000
0000
0000
0000
0001
0000
0000
0000
0000
0000
0000
0000
0000
0010
0000
0000
0000
0000
0000
0000
0000
0000
0000
,
0100
0000
0000
0000
0000
0000
0000
0000
0000
0000
1000
0000
0000
0000
0000
0000
0000
0000
0000
0010
0000
0000
0000
0000
0000
0000
0000
0000
0000
0100
0000
0000
0000
0000
0000
0000
0000
0000
0001
0000
0000
0000
0000
0000
0000
0000
0000
0000
1000
0000
0000
0000
0000
0000
0000
0000
0000
0000
0000
0000
0100
0000
0000
0000
0000
0000
0000
0000
0000
0000
0000
0000
1000
0000
0000
0000
0000
0000
0000
0000
0000
0000
0000
0000
0010
0000
0000
0000
0000
0000
0000
0000
0000
0000
0000
0000
0100
0000
0000
0000
0000
0000
0000
0000
0000
0000
0000
0000
0001
0000
0000
0000
0000
0000
0000
0000
0000
0000
0000
0000
0010
0000
0000
0000
0000
0000
0000
0000
0000
0000
0000
0000
0100
0000
0000
0000
0000
0000
0000
0000
0000
0000
0000
0000
1000
0000
0000
0000
0000
0000
0000
0000
0000
0000
0000
0000
0001
0000
0000
0000
0000
0000
0000
0000
0000
0000
0000
0000
1000
0000
0000
0000
0000
0000
0000
0000
0000
0000
0000
0000
0100
0000
0000
0000
0000
0000
0000
0000
0000
0000
0000
0000
,
0010
0001
0100
0010
1000
0010
0100
0001
0010
0001
1000
0001
1000
0100
1000
0001
,
0100
0001
0010
0100
1000
0001
0100
0001
1000
0100
0010
0100
1000
0001
0100
0001
,
1000
0010
1000
0001
0010
0100
1000
0001
0100
0001
1000
0100
0010
0100
1000
0010
,
0100
0000
0000
0000
0000
0000
0000
0000
0000
0000
0000
0000
0001
0000
0000
0000
0000
0000
0000
0000
0000
0000
0000
0000
0010
0000
0000
0000
0000
0000
0000
0000
0000
0000
0000
0000
0001
0000
0000
0000
0000
0000
0000
0000
0000
0000
0000
0000
0100
0000
0000
0000
0000
0000
0000
0000
0000
0000
0000
0000
0010
0000
0000
0000
0000
0000
0000
0000
0000
0000
0000
0000
1000
0000
0000
0000
0000
0000
0000
0000
0000
0000
0000
0000
0100
0000
0000
0000
0000
0000
0000
0000
0000
0000
0000
0000
0010
0000
0000
0000
0000
0000
0000
0000
0000
0000
0001
0000
0000
0000
0000
0000
0000
0000
0000
1000
0000
0000
0000
0000
0000
0000
0000
0000
0000
0001
0000
0000
0000
0000
0000
0000
0000
0000
0100
0000
0000
0000
0000
0000
0000
0000
0000
0000
0010
0000
0000
0000
0000
0000
0000
0000
0000
0000
0100
0000
0000
0000
0000
0000
0000
0000
0000
0001
0000
0000
0000
0000
0000
0000
0000
0000
0000
1000
0000
0000
0000
0000
0000
0000
0000
0000
0100
0000
0000
0000
0000
0000
0000
0000
0000
0000
,
0010
0000
0000
0000
0000
0000
0000
0000
0000
0000
0001
0000
0000
0000
0000
0000
0000
0000
0000
1000
0000
0000
0000
0000
0000
0000
0000
0000
0000
0010
0000
0000
0000
0000
0000
0000
0000
0000
0100
0000
0000
0000
0000
0000
0000
0000
0000
0000
0001
0000
0000
0000
0000
0000
0000
0000
0000
0000
0000
0000
0010
0000
0000
0000
0000
0000
0000
0000
0000
0000
0000
0000
0100
0000
0000
0000
0000
0000
0000
0000
0000
0000
0000
0000
1000
0000
0000
0000
0000
0000
0000
0000
0000
0000
0000
0000
0001
0000
0000
0000
0000
0000
0000
0000
0000
0000
0100
0000
0000
0000
0000
0000
0000
0000
0000
0010
0000
0000
0000
0000
0000
0000
0000
0000
0000
0100
0000
0000
0000
0000
0000
0000
0000
0000
0001
0000
0000
0000
0000
0000
0000
0000
0000
0000
1000
0000
0000
0000
0000
0000
0000
0000
0000
0000
0000
0000
0010
0000
0000
0000
0000
0000
0000
0000
0000
0000
0000
0000
1000
0000
0000
0000
0000
0000
0000
0000
0000
0000
0000
0000
0001
0000
0000
0000
0000
0000
0000
0000
0000
0000
0000
0000
,
0010
0000
0000
0000
0000
0000
0000
0000
0000
0000
0000
0000
0001
0000
0000
0000
0000
0000
0000
0000
0000
0000
0000
0000
0100
0000
0000
0000
0000
0000
0000
0000
0000
0000
0000
0000
0010
0000
0000
0000
0000
0000
0000
0000
0000
0000
0000
0000
1000
0000
0000
0000
0000
0000
0000
0000
0000
0000
0001
0000
0000
0000
0000
0000
0000
0000
0000
0010
0000
0000
0000
0000
0000
0000
0000
0000
0000
0100
0000
0000
0000
0000
0000
0000
0000
0000
1000
0000
0000
0000
0000
0000
0000
0000
0000
0000
0001
0000
0000
0000
0000
0000
0000
0000
0000
0000
0100
0000
0000
0000
0000
0000
0000
0000
0000
0010
0000
0000
0000
0000
0000
0000
0000
0000
0000
0100
0000
0000
0000
0000
0000
0000
0000
0000
0001
0000
0000
0000
0000
0000
0000
0000
0000
0000
1000
0000
0000
0000
0000
0000
0000
0000
0000
0000
0000
0000
0001
0000
0000
0000
0000
0000
0000
0000
0000
0000
0000
0000
0010
0000
0000
0000
0000
0000
0000
0000
0000
0000
0000
0000
0001
0000
0000
0000
0000
0000
0000
0000
0000
0000
0000
0000
,
1000
0000
0000
0000
0000
0000
0000
0000
0000
0000
0000
0000
0100
0000
0000
0000
0000
0000
0000
0000
0000
0000
0000
0000
1000
0000
0000
0000
0000
0000
0000
0000
0000
0000
0000
0000
0001
0000
0000
0000
0000
0000
0000
0000
0000
0000
0000
0000
0100
0000
0000
0000
0000
0000
0000
0000
0000
0000
0000
0000
0010
0000
0000
0000
0000
0000
0000
0000
0000
0000
0000
0000
1000
0000
0000
0000
0000
0000
0000
0000
0000
0000
0000
0000
0001
0000
0000
0000
0000
0000
0000
0000
0000
0000
0000
0000
0010
0000
0000
0000
0000
0000
0000
0000
0000
0000
0000
0000
0001
0000
0000
0000
0000
0000
0000
0000
0000
0000
0000
0000
1000
0000
0000
0000
0000
0000
0000
0000
0000
0000
0000
0000
0010
0000
0000
0000
0000
0000
0000
0000
0000
0000
0000
0000
0100
0000
0000
0000
0000
0000
0000
0000
0000
0000
0001
0000
0000
0000
0000
0000
0000
0000
0000
1000
0000
0000
0000
0000
0000
0000
0000
0000
0000
0001
0000
0000
0000
0000
0000
0000
0000
0000
0010
0000
0000
0000
0000
0000
0000
0000
0000
0000
,
0100
0000
0000
0000
0000
0000
0000
0000
0000
0000
1000
0000
0000
0000
0000
0000
0000
0000
0000
0010
0000
0000
0000
0000
0000
0000
0000
0000
0000
0100
0000
0000
0000
0000
0000
0000
0000
0000
0001
0000
0000
0000
0000
0000
0000
0000
0000
0000
1000
0000
0000
0000
0000
0000
0000
0000
0000
0000
0000
0000
0100
0000
0000
0000
0000
0000
0000
0000
0000
0000
0000
0000
1000
0000
0000
0000
0000
0000
0000
0000
0000
0000
0000
0000
0010
0000
0000
0000
0000
0000
0000
0000
0000
0000
0000
0000
0100
0000
0000
0000
0000
0000
0000
0000
0000
0000
0000
0000
0001
0000
0000
0000
0000
0000
0000
0000
0000
0000
0000
0000
0010
0000
0000
0000
0000
0000
0000
0000
0000
0000
0000
0000
0100
0000
0000
0000
0000
0000
0000
0000
0000
0000
0000
0000
2000
0000
0000
0000
0000
0000
0000
0000
0000
0000
0000
0000
0000
0000
0000
0000
0000
0000
0000
0000
0000
0000
0000
0000
0000
0000
0000
0000
0000
0000
0000
0000
0000
0000
0000
0000
0000
0000
0000
0000
0000
0000
0000
0000
0000
0000
0000
0000
,
3002
0000
0203
0000
0320
0000
0130
0001
1000
0000
0001
0000
1000
0100
1000
0001
,
0010
0001
0100
0001
1000
0010
1000
0001
0100
0001
1000
0001
0010
0100
0010
0001
,
1000
0001
0100
0001
0010
0100
0010
0001
1000
0001
0010
0100
1000
0001
1000
0100
,
1000
0000
0000
0000
0000
0000
0000
0000
0000
0000
0000
0000
0001
0000
0000
0000
0000
0000
0000
0000
0000
0000
0000
0000
0010
0000
0000
0000
0000
0000
0000
0000
0000
0000
0000
0000
0001
0000
0000
0000
0000
0000
0000
0000
0000
0000
0000
0000
0100
0000
0000
0000
0000
0000
0000
0000
0000
0000
0000
0000
0010
0000
0000
0000
0000
0000
0000
0000
0000
0000
0000
0000
1000
0000
0000
0000
0000
0000
0000
0000
0000
0000
0000
0000
0001
0000
0000
0000
0000
0000
0000
0000
0000
0000
0000
0000
0100
0000
0000
0000
0000
0000
0000
0000
0000
0000
0001
0000
0000
0000
0000
0000
0000
0000
0000
1000
0000
0000
0000
0000
0000
0000
0000
0000
0000
0100
0000
0000
0000
0000
0000
0000
0000
0000
1000
0000
0000
0000
0000
0000
0000
0000
0000
0000
0001
0000
0000
0000
0000
0000
0000
0000
0000
0000
0100
0000
0000
0000
0000
0000
0000
0000
0000
0010
0000
0000
0000
0000
0000
0000
0000
0000
0000
0100
0000
0000
0000
0000
0000
0000
0000
0000
0001
0000
0000
0000
0000
0000
0000
0000
0000
0000
,
1000
0000
0000
0000
0000
0000
0000
0000
0000
0000
0100
0000
0000
0000
0000
0000
0000
0000
0000
0010
0000
0000
0000
0000
0000
0000
0000
0000
0000
0001
0000
0000
0000
0000
0000
0000
0000
0000
1000
0000
0000
0000
0000
0000
0000
0000
0000
0000
0001
0000
0000
0000
0000
0000
0000
0000
0000
0000
0000
0000
0010
0000
0000
0000
0000
0000
0000
0000
0000
0000
0000
0000
0100
0000
0000
0000
0000
0000
0000
0000
0000
0000
0000
0000
1000
0000
0000
0000
0000
0000
0000
0000
0000
0000
0000
0000
0001
0000
0000
0000
0000
0000
0000
0000
0000
0000
0100
0000
0000
0000
0000
0000
0000
0000
0000
0010
0000
0000
0000
0000
0000
0000
0000
0000
0000
0100
0000
0000
0000
0000
0000
0000
0000
0000
0001
0000
0000
0000
0000
0000
0000
0000
0000
0000
1000
0000
0000
0000
0000
0000
0000
0000
0000
0000
0000
0000
0010
0000
0000
0000
0000
0000
0000
0000
0000
0000
0000
0000
1000
0000
0000
0000
0000
0000
0000
0000
0000
0000
0000
0000
0001
0000
0000
0000
0000
0000
0000
0000
0000
0000
0000
0000
,
0100
0000
0000
0000
0000
0000
0000
0000
0000
0000
0000
0000
0001
0000
0000
0000
0000
0000
0000
0000
0000
0000
0000
0000
0010
0000
0000
0000
0000
0000
0000
0000
0000
0000
0000
0000
0001
0000
0000
0000
0000
0000
0000
0000
0000
0000
0000
0000
1000
0000
0000
0000
0000
0000
0000
0000
0000
0000
0100
0000
0000
0000
0000
0000
0000
0000
0000
0010
0000
0000
0000
0000
0000
0000
0000
0000
0000
0001
0000
0000
0000
0000
0000
0000
0000
0000
1000
0000
0000
0000
0000
0000
0000
0000
0000
0000
0001
0000
0000
0000
0000
0000
0000
0000
0000
0000
0100
0000
0000
0000
0000
0000
0000
0000
0000
0001
0000
0000
0000
0000
0000
0000
0000
0000
0000
1000
0000
0000
0000
0000
0000
0000
0000
0000
0100
0000
0000
0000
0000
0000
0000
0000
0000
0000
0010
0000
0000
0000
0000
0000
0000
0000
0000
0000
0000
0000
0001
0000
0000
0000
0000
0000
0000
0000
0000
0000
0000
0000
0100
0000
0000
0000
0000
0000
0000
0000
0000
0000
0000
0000
0001
0000
0000
0000
0000
0000
0000
0000
0000
0000
0000
0000
,
1000
0000
0000
0000
0000
0000
0000
0000
0000
0000
0000
0000
0001
0000
0000
0000
0000
0000
0000
0000
0000
0000
0000
0000
0100
0000
0000
0000
0000
0000
0000
0000
0000
0000
0000
0000
0001
0000
0000
0000
0000
0000
0000
0000
0000
0000
0000
0000
0010
0000
0000
0000
0000
0000
0000
0000
0000
0000
0000
0000
0100
0000
0000
0000
0000
0000
0000
0000
0000
0000
0000
0000
0010
0000
0000
0000
0000
0000
0000
0000
0000
0000
0000
0000
0001
0000
0000
0000
0000
0000
0000
0000
0000
0000
0000
0000
1000
0000
0000
0000
0000
0000
0000
0000
0000
0000
0000
0000
0001
0000
0000
0000
0000
0000
0000
0000
0000
0000
0000
0000
0010
0000
0000
0000
0000
0000
0000
0000
0000
0000
0000
0000
0100
0000
0000
0000
0000
0000
0000
0000
0000
0000
0000
0000
1000
0000
0000
0000
0000
0000
0000
0000
0000
0000
0001
0000
0000
0000
0000
0000
0000
0000
0000
0010
0000
0000
0000
0000
0000
0000
0000
0000
0000
0001
0000
0000
0000
0000
0000
0000
0000
0000
1000
0000
0000
0000
0000
0000
0000
0000
0000
0000
,
0010
0000
0000
0000
0000
0000
0000
0000
0000
0000
0100
0000
0000
0000
0000
0000
0000
0000
0000
0001
0000
0000
0000
0000
0000
0000
0000
0000
0000
1000
0000
0000
0000
0000
0000
0000
0000
0000
0100
0000
0000
0000
0000
0000
0000
0000
0000
0000
0010
0000
0000
0000
0000
0000
0000
0000
0000
0000
0000
0000
0001
0000
0000
0000
0000
0000
0000
0000
0000
0000
0000
0000
0100
0000
0000
0000
0000
0000
0000
0000
0000
0000
0000
0000
0001
0000
0000
0000
0000
0000
0000
0000
0000
0000
0000
0000
0010
0000
0000
0000
0000
0000
0000
0000
0000
0000
0000
0000
0001
0000
0000
0000
0000
0000
0000
0000
0000
0000
0000
0000
1000
0000
0000
0000
0000
0000
0000
0000
0000
0000
0000
0000
0001
0000
0000
0000
0000
0000
0000
0000
0000
0000
0000
0000
0100
0000
0000
0000
0000
0000
0000
0000
0000
0000
0000
0000
0010
0000
0000
0000
0000
0000
0000
0000
0000
0000
0000
0000
1000
0000
0000
0000
0000
0000
0000
0000
0000
0000
0000
0000
0001
0000
0000
0000
0000
0000
0000
0000
0000
0000
0000
0000
,
0100
0001
1000
0001
0010
0100
0010
0001
1000
0010
1000
0001
1000
0100
1000
0001
,
0010
0001
0100
0001
1000
0010
1000
0001
0100
0001
1000
0001
0010
0100
0010
0001
,
1000
0001
0100
0001
0010
0100
0010
0001
1000
0001
0010
0100
1000
0001
1000
0100
,
1000
0000
0000
0000
0000
0000
0000
0000
0000
0000
0000
0000
0001
0000
0000
0000
0000
0000
0000
0000
0000
0000
0000
0000
0010
0000
0000
0000
0000
0000
0000
0000
0000
0000
0000
0000
0001
0000
0000
0000
0000
0000
0000
0000
0000
0000
0000
0000
0100
0000
0000
0000
0000
0000
0000
0000
0000
0000
0000
0000
0010
0000
0000
0000
0000
0000
0000
0000
0000
0000
0000
0000
1000
0000
0000
0000
0000
0000
0000
0000
0000
0000
0000
0000
0001
0000
0000
0000
0000
0000
0000
0000
0000
0000
0000
0000
0100
0000
0000
0000
0000
0000
0000
0000
0000
0000
0001
0000
0000
0000
0000
0000
0000
0000
0000
0010
0000
0000
0000
0000
0000
0000
0000
0000
0000
0100
0000
0000
0000
0000
0000
0000
0000
0000
1000
0000
0000
0000
0000
0000
0000
0000
0000
0000
0001
0000
0000
0000
0000
0000
0000
0000
0000
0000
0100
0000
0000
0000
0000
0000
0000
0000
0000
0010
0000
0000
0000
0000
0000
0000
0000
0000
0000
0100
0000
0000
0000
0000
0000
0000
0000
0000
0001
0000
0000
0000
0000
0000
0000
0000
0000
0000
,
1000
0000
0000
0000
0000
0000
0000
0000
0000
0000
0100
0000
0000
0000
0000
0000
0000
0000
0000
0010
0000
0000
0000
0000
0000
0000
0000
0000
0000
0001
0000
0000
0000
0000
0000
0000
0000
0000
1000
0000
0000
0000
0000
0000
0000
0000
0000
0000
0001
0000
0000
0000
0000
0000
0000
0000
0000
0000
0000
0000
0100
0000
0000
0000
0000
0000
0000
0000
0000
0000
0000
0000
0010
0000
0000
0000
0000
0000
0000
0000
0000
0000
0000
0000
1000
0000
0000
0000
0000
0000
0000
0000
0000
0000
0000
0000
0001
0000
0000
0000
0000
0000
0000
0000
0000
0000
0010
0000
0000
0000
0000
0000
0000
0000
0000
0100
0000
0000
0000
0000
0000
0000
0000
0000
0000
1000
0000
0000
0000
0000
0000
0000
0000
0000
0001
0000
0000
0000
0000
0000
0000
0000
0000
0000
0100
0000
0000
0000
0000
0000
0000
0000
0000
0000
0000
0000
0010
0000
0000
0000
0000
0000
0000
0000
0000
0000
0000
0000
1000
0000
0000
0000
0000
0000
0000
0000
0000
0000
0000
0000
0001
0000
0000
0000
0000
0000
0000
0000
0000
0000
0000
0000
,
0100
0000
0000
0000
0000
0000
0000
0000
0000
0000
0000
0000
0001
0000
0000
0000
0000
0000
0000
0000
0000
0000
0000
0000
0010
0000
0000
0000
0000
0000
0000
0000
0000
0000
0000
0000
0001
0000
0000
0000
0000
0000
0000
0000
0000
0000
0000
0000
1000
0000
0000
0000
0000
0000
0000
0000
0000
0000
0100
0000
0000
0000
0000
0000
0000
0000
0000
0010
0000
0000
0000
0000
0000
0000
0000
0000
0000
0001
0000
0000
0000
0000
0000
0000
0000
0000
1000
0000
0000
0000
0000
0000
0000
0000
0000
0000
0001
0000
0000
0000
0000
0000
0000
0000
0000
0000
0100
0000
0000
0000
0000
0000
0000
0000
0000
0010
0000
0000
0000
0000
0000
0000
0000
0000
0000
0100
0000
0000
0000
0000
0000
0000
0000
0000
0001
0000
0000
0000
0000
0000
0000
0000
0000
0000
1000
0000
0000
0000
0000
0000
0000
0000
0000
0000
0000
0000
0010
0000
0000
0000
0000
0000
0000
0000
0000
0000
0000
0000
0100
0000
0000
0000
0000
0000
0000
0000
0000
0000
0000
0000
0001
0000
0000
0000
0000
0000
0000
0000
0000
0000
0000
0000
,
1000
0000
0000
0000
0000
0000
0000
0000
0000
0000
0000
0000
0001
0000
0000
0000
0000
0000
0000
0000
0000
0000
0000
0000
0010
0000
0000
0000
0000
0000
0000
0000
0000
0000
0000
0000
0001
0000
0000
0000
0000
0000
0000
0000
0000
0000
0000
0000
0100
0000
0000
0000
0000
0000
0000
0000
0000
0000
0000
0000
0010
0000
0000
0000
0000
0000
0000
0000
0000
0000
0000
0000
0100
0000
0000
0000
0000
0000
0000
0000
0000
0000
0000
0000
0001
0000
0000
0000
0000
0000
0000
0000
0000
0000
0000
0000
1000
0000
0000
0000
0000
0000
0000
0000
0000
0000
0000
0000
0001
0000
0000
0000
0000
0000
0000
0000
0000
0000
0000
0000
0100
0000
0000
0000
0000
0000
0000
0000
0000
0000
0000
0000
0010
0000
0000
0000
0000
0000
0000
0000
0000
0000
0000
0000
1000
0000
0000
0000
0000
0000
0000
0000
0000
0000
0100
0000
0000
0000
0000
0000
0000
0000
0000
0010
0000
0000
0000
0000
0000
0000
0000
0000
0000
0001
0000
0000
0000
0000
0000
0000
0000
0000
1000
0000
0000
0000
0000
0000
0000
0000
0000
0000
,
0001
0000
0000
0000
0000
0000
0000
0000
0000
0000
0100
0000
0000
0000
0000
0000
0000
0000
0000
0010
0000
0000
0000
0000
0000
0000
0000
0000
0000
1000
0000
0000
0000
0000
0000
0000
0000
0000
0001
0000
0000
0000
0000
0000
0000
0000
0000
0000
1000
0000
0000
0000
0000
0000
0000
0000
0000
0000
0000
0000
0100
0000
0000
0000
0000
0000
0000
0000
0000
0000
0000
0000
1000
0000
0000
0000
0000
0000
0000
0000
0000
0000
0000
0000
0001
0000
0000
0000
0000
0000
0000
0000
0000
0000
0000
0000
0010
0000
0000
0000
0000
0000
0000
0000
0000
0000
0000
0000
0001
0000
0000
0000
0000
0000
0000
0000
0000
0000
0000
0000
1000
0000
0000
0000
0000
0000
0000
0000
0000
0000
0000
0000
0001
0000
0000
0000
0000
0000
0000
0000
0000
0000
0000
0000
0200
0000
0000
0000
0000
0000
0000
0000
0000
0000
0000
0000
0000
0000
0000
0000
0000
0000
0000
0000
0000
0000
0000
0000
0000
0000
0000
0000
0000
0000
0000
0000
0000
0000
0000
0000
0000
0000
0000
0000
0000
0000
0000
0000
0000
0000
0000
0000
,
0320
0000
2030
0000
3002
0000
0000
0003
1001
0000
0000
0000
1000
0100
1000
0001
,
0100
0010
1000
0001
0100
0001
1000
0001
1000
0010
0100
0001
1000
0100
1000
0100
,
1000
0100
0010
0001
1000
0100
0010
0001
0100
0001
1000
0001
1000
0100
0010
0001
,
1000
0001
0100
0010
0100
0001
1000
0010
0100
0001
0100
0001
1000
0100
0010
0001
,
1000
0100
1000
0001
0100
0001
1000
0100
0010
0001
1000
0100
1000
0010
0100
0001
,
1000
0001
0010
0100
1000
0001
0100
0001
1000
0010
0100
0001
1000
0001
1000
0001
,
1000
0001
0100
0010
1000
0100
0010
0001
0100
0010
0100
0001
1000
0100
0010
0001
,
1000
0010
1000
0001
0100
0010
1000
0001
1000
0010
0100
0001
0010
0100
1000
0001
,
0100
0000
0000
0000
0010
0000
0000
0000
1000
0000
0000
0000
0001
0000
0000
0000
2000
0000
0000
0000
0000
0000
0000
0000
0000
0000
0000
0000
0000
0000
0000
3000
1001
0000
0000
0000
0000
0000
0000
0000
0000
0000
0000
0000
0000
0000
0000
0000
0001
0000
0000
0000
0100
0000
0000
0000
0001
0000
0000
0000
1000
0000
0000
0000
,
0001
0010
0100
1000
0001
0100
0010
1000
0001
0100
0010
0100
0001
1000
0001
1000
,
0001
1000
0100
0010
0001
1000
0100
1000
0010
0100
0001
1000
0001
0010
0100
1000
,
0001
0100
0001
1000
0100
0010
0001
0100
0001
1000
0010
0100
0010
1000
0001
0100
,
0010
0100
0001
1000
0001
0010
0100
1000
0001
0100
0010
0100
0001
1000
0100
0010
,
0001
1000
0100
1000
0001
0100
0010
0100
0001
1000
0010
0100
0001
1000
0001
1000
,
0001
1000
0010
0100
0001
0010
0100
1000
0010
0100
0001
1000
0001
0010
0100
1000
,
0001
0100
0001
0100
0010
1000
0010
0100
0001
0100
0010
1000
0100
0010
0001
1000
,
0010
0000
0000
0000
0100
0000
0000
0000
0001
0000
0000
0000
1000
0000
0000
0000
0002
0000
0000
0000
0000
0000
0000
0000
0000
0000
0000
0000
0000
0000
0000
0003
1001
0000
0000
0000
0000
0000
0000
0000
0000
0000
0000
0000
0000
0000
0000
0000
0001
0000
0000
0000
0100
0000
0000
0000
0001
0000
0000
0000
1000
0000
0000
0000
,
0001
0010
0100
1000
0001
0100
0010
0100
0001
1000
0010
0100
0001
1000
0001
1000
,
0001
1000
0010
0100
0001
0100
0010
1000
0010
0100
0001
1000
0001
0010
0100
1000
,
0001
0100
0001
1000
0100
0010
0001
1000
0100
1000
0001
0010
0100
1000
0001
0100
,
0010
0100
0001
1000
0001
0010
0100
1000
0001
0100
0001
1000
0010
0100
0001
1000
,
0001
0100
0010
1000
0001
1000
0010
0100
0001
1000
0010
0100
0001
1000
0001
1000
,
0001
1000
0010
0100
0001
0010
0100
1000
0010
1000
0001
1000
0001
0100
0010
0100
,
0001
1000
0001
0100
0010
1000
0001
0100
0001
0100
0010
1000
0100
0010
0001
1000
,
0010
0000
0000
0000
0100
0000
0000
0000
0001
0000
0000
0000
1000
0000
0000
0000
0002
0000
0000
0000
0000
0000
0000
0000
0000
0000
0000
0000
0000
0000
0000
0003
1001
0000
0000
0000
0000
0000
0000
0000
0000
0000
0000
0000
0000
0000
0000
0000
1000
0000
0000
0000
0010
0000
0000
0000
1000
0000
0000
0000
0001
0000
0000
0000
,
1000
0100
0010
0000
0001
1000
0000
0001
1000
0010
0100
0000
0001
1000
0001
1000
,
0001
1000
0100
0010
0001
0100
0010
0000
0100
0001
1000
0001
1000
0100
0010
0001
,
1000
0000
0001
0000
0010
0100
0000
0010
0001
0010
0100
1000
0010
0100
0001
1000
,
0100
0010
0001
1000
0001
0100
0010
1000
0010
0100
0001
1000
0100
0010
0001
1000
,
0001
0100
0010
0000
1000
0001
0000
1000
0001
0010
0100
0000
1000
0001
1000
0001
,
1000
0001
0100
0010
1000
0100
0010
0000
0100
1000
0001
1000
0001
0100
0010
1000
,
0001
0000
1000
0000
0010
0100
0000
0010
1000
0010
0100
0001
0010
0100
1000
0001
,
0100
0000
0000
0000
0010
0000
0000
0000
1000
0000
0000
0000
0001
0000
0000
0000
2000
0000
0000
0000
0000
0000
0000
0000
0000
0000
0000
0000
0000
0000
0000
3000
1001
0000
0000
0000
0000
0000
0000
0000
0000
0000
0000
0000
0000
0000
0000
0000
0000
0000
0000
0000
0000
0000
0000
0000
0000
0000
0000
0000
0000
0000
0000
0000
;
