#TITLE:BUTTERFLY;
#SUBTITLE:(UPSWING MIX);
#ARTIST:SMILE.dk;
#TITLETRANSLIT:;
#SUBTITLETRANSLIT:;
#ARTISTTRANSLIT:;
#CREDIT:;
#BANNER:BUTTERFLY (UPSWING MIX).png;
#BACKGROUND:BUTTERFLY (UPSWING MIX)-bg.PNG;
#LYRICSPATH:;
#CDTITLE:./CDTITLES/DANCE MANIA SPEED 2.PNG;
#MUSIC:BUTTERFLY (UPSWING MIX).mp3;
#OFFSET:-0.035;
#SAMPLESTART:5.630;
#SAMPLELENGTH:12.000;
#SELECTABLE:YES;
#DISPLAYBPM:170.000;
#BPMS:0.000=170.020;
#STOPS:47.000=0.265
,79.250=1.059
;
#BGCHANGES:;
// cache tags:
#FIRSTBEAT:0.500;
#LASTBEAT:244.250;
#SONGFILENAME:Songs/IzzySM Keyboard Mega Pack/Butterfly mixx/BUTTERFLY (UPSWING MIX).sm;
#HASMUSIC:1;
#HASBANNER:1;
#MUSICLENGTH:87.774;
// end cache tags

//---------------dance-single - ----------------
#NOTES:
     dance-single:
     :
     Challenge:
     15:
     1.000,1.000,0.034,0.125,1.000,917.000,3.000,11.000,0.000,0.000:  // measure 1
0000
0100
0010
0001
0010
0100
2002
0000
,  // measure 2
3003
0100
0010
0001
0010
0100
2002
0000
,  // measure 3
3003
0100
0010
0001
0010
0100
2000
0000
,  // measure 4
3001
0001
0010
0100
2000
0000
3001
0000
,  // measure 5
0001
0010
0100
1000
0001
0010
0100
1000
0001
0010
0100
1000
0001
0010
0100
0010
,  // measure 6
0001
1000
0100
0010
0001
1000
0100
0010
0001
1000
0100
0010
0001
1000
0100
0010
,  // measure 7
0100
1000
0001
0010
0100
1000
0001
1000
0001
0010
0100
1000
0001
0010
0100
1000
,  // measure 8
0001
1000
0100
0010
0001
0010
0100
1000
0100
0010
0001
1000
0001
0010
0100
1000
,  // measure 9
0001
1000
0100
0010
0001
0100
0010
1000
0100
0010
0001
0100
0010
1000
0100
0010
,  // measure 10
0001
1000
0100
0010
0001
0100
0010
1000
0100
0010
0001
1000
0001
0010
0100
1000
,  // measure 11
0001
0010
0100
1000
0100
0010
0001
1000
0001
0010
0100
1000
0001
1000
0100
0010
,  // measure 12
0100
0000
0000
1000
0000
0000
0001
0000
0000
0100
0000
0000
0001
0000
0000
0010
0000
0000
0100
0000
0000
1000
0000
0000
0100
0000
0000
0010
0000
0000
0001
0000
0000
0010
0000
0000
0200
0000
0300
1000
0000
0000
0100
0000
0000
0010
0000
0000
,  // measure 13
0001
1000
0100
0010
0001
0010
0100
1000
0001
0010
0100
1000
0100
0010
0100
1000
,  // measure 14
0001
1000
0001
0010
0100
1000
0100
0010
0001
0010
0001
0010
0100
1000
0100
0010
,  // measure 15
0001
1000
0001
0010
0100
1000
0001
1000
0100
0010
0001
0010
0100
1000
0100
0010
,  // measure 16
0001
1000
0100
0010
0001
1000
0100
0010
0001
1000
0001
0010
0100
1000
0001
0010
,  // measure 17
0100
1000
0001
0010
0100
0010
0001
1000
0100
0010
0001
1000
0100
0010
0001
1000
,  // measure 18
0100
0010
0100
1000
0001
1000
0001
0010
0100
1000
0001
0010
0100
1000
0001
0010
,  // measure 19
0100
0010
0001
1000
0001
1000
0100
0010
0001
1000
0100
0010
0001
0010
0100
1000
,  // measure 20
0100
0010
0001
0010
0001
0010
0100
1000
0100
0010
0100
1000
0100
0020
0030
0000
,  // measure 21
0001
0010
0100
1000
0100
0010
0001
1000
0100
0010
0001
1000
0100
0010
0001
1000
,  // measure 22
0100
0010
0001
1000
0100
0010
0001
1000
0001
0010
0100
1000
0001
0010
0100
1000
,  // measure 23
0001
1000
0100
0010
0001
1000
0001
1000
0001
1000
0010
1000
0010
1000
0100
1000
,  // measure 24
0100
0010
0001
1000
0100
0010
0100
1000
0001
1000
0001
0010
0100
0010
0001
1000
,  // measure 25
0001
1000
0100
0010
0100
1000
0001
0010
0100
1000
0001
0010
0100
1000
0001
0010
,  // measure 26
0100
1000
0100
0010
0001
1000
0100
0010
0001
1000
0100
0010
0001
1000
0001
0010
,  // measure 27
0100
1000
0001
0010
0100
1000
0001
1000
0001
1000
0100
0010
0001
1000
0100
0010
,  // measure 28
0100
1000
0001
0010
0100
1000
0001
1000
0100
0010
0001
1000
0001
0010
0100
1000
,  // measure 29
0001
1000
0010
1000
0100
0010
0001
1000
0001
1000
0001
0010
0100
1000
0100
0010
,  // measure 30
0001
1000
0100
0010
0001
0010
0100
1000
0001
0010
0100
1000
0100
0010
0001
1000
,  // measure 31
0100
0010
0001
0010
0100
1000
0001
0010
0100
1000
0001
0010
0100
0010
0001
0010
,  // measure 32
0100
1000
0100
0010
0001
1000
0001
0010
0100
1000
0001
0010
0100
0002
0000
0003
,  // measure 33
0001
0010
0100
1000
0001
0010
0100
1000
0001
0010
0100
0010
0001
1000
0100
0010
,  // measure 34
0001
1000
0001
0010
0100
1000
0100
0010
0001
0010
0100
1000
0100
0010
0001
0010
,  // measure 35
0100
1000
0100
0010
0100
0010
0100
1000
0100
0010
0001
0000
1000
0100
0010
0001
,  // measure 36
1000
0100
0010
0001
1000
0001
1000
0001
0010
0100
1000
0001
0010
0001
0100
0001
,  // measure 37
1000
0001
0010
0100
1000
0100
0010
0001
1000
0100
0010
0001
1000
0100
0010
0100
,  // measure 38
0010
0001
1000
0100
0010
0001
1000
0100
0010
0001
1000
0100
0010
0001
0010
0100
,  // measure 39
1000
0100
0010
0001
0100
0010
1000
0100
0010
0001
1000
0100
0010
0001
0100
0010
,  // measure 40
1000
0100
0010
0001
1000
0100
0010
0001
1000
0100
0010
0001
0100
0010
1000
0100
,  // measure 41
0010
0001
0010
0100
1000
0100
0010
0001
1000
0001
0010
0100
1000
0100
0010
0001
,  // measure 42
1000
0001
1000
0100
0010
0001
0100
0010
1000
0100
0010
0001
1000
0001
1000
0001
,  // measure 43
0010
0100
1000
0100
0010
0001
1000
0100
0010
0001
0010
0100
1000
0001
0010
0100
,  // measure 44
1000
0100
0010
0001
0100
0010
1000
0100
0010
0001
1000
0001
1000
0001
0010
0100
,  // measure 45
1000
0100
0010
0001
1000
0001
1000
0001
0010
0100
1000
0100
0010
0001
1000
0100
,  // measure 46
0010
0001
1000
0100
0010
0100
1000
0001
1000
0001
0010
0100
0010
0001
1000
0001
,  // measure 47
1000
0100
0010
0100
1000
0001
0010
0100
1000
0001
0010
0100
1000
0001
1000
0001
,  // measure 48
1000
0100
0010
0001
0010
0100
1000
0100
0010
0001
1000
0100
0010
0001
1000
0100
,  // measure 49
0010
0001
1000
0100
0010
0001
0010
0100
1000
0100
0010
0001
1000
0100
0010
0001
,  // measure 50
1000
0001
1000
0001
0010
0100
0010
0001
1000
0100
0010
0001
0100
0010
1000
0100
,  // measure 51
0010
0001
1000
0100
0010
0001
1000
0100
0010
0001
0100
0010
1000
0100
0010
0001
,  // measure 52
1000
0100
0010
0100
1000
0001
0010
0100
1000
0100
0010
0001
1000
0001
0010
0100
,  // measure 53
1000
0001
1000
0001
0010
0001
0100
0001
1000
0001
1000
0001
1000
0001
0010
0100
,  // measure 54
1000
0001
0010
0100
1000
0100
0010
0001
1000
0100
0010
0100
1000
0001
0010
0100
,  // measure 55
1000
0001
0010
0100
1000
0100
0010
0001
1000
0100
0010
0001
0100
0010
1000
0100
,  // measure 56
0010
0001
0010
0100
1000
0100
0010
0100
1000
0001
0010
0100
1000
0001
0010
0100
,  // measure 57
1000
0100
0010
0001
0010
0100
1000
0100
0010
0001
1000
0100
0010
0001
1000
0100
,  // measure 58
0010
0001
1000
0001
0010
0100
1000
0100
0010
0001
0010
0100
1000
0001
0100
0010
,  // measure 59
0100
0001
1000
0010
0100
0001
1000
0001
0010
0100
1000
0001
1000
0001
1000
0100
,  // measure 60
0010
0001
1000
0100
0010
0001
1000
0100
0010
0001
1000
0100
0010
0001
1000
0100
,  // measure 61
0010
2002
0000
0000
0000
0000
0000
0000
0000
0000
0000
0000
0000
0000
0000
0000
,  // measure 62
0000
3003
0000
0000
0000
0000
0000
0000
0000
0000
0000
0000
0000
0000
0000
0000
;
