#TITLE:Blue Army;
#SUBTITLE:Hard Edit;
#ARTIST:DJ Sharpnel;
#TITLETRANSLIT:;
#SUBTITLETRANSLIT:;
#ARTISTTRANSLIT:;
#CREDIT:;
#BANNER:banner.jpg;
#BACKGROUND:background.jpg;
#LYRICSPATH:;
#CDTITLE:!razorflametitle.png;
#MUSIC:14 BLUE ARMY.mp3;
#OFFSET:-0.732;
#SAMPLESTART:337.940;
#SAMPLELENGTH:15.000;
#SELECTABLE:YES;
#BPMS:0.000=182.200,132.000=91.100,166.000=182.200,290.000=91.100,368.000=182.200;
#STOPS:;
#BGCHANGES:;
// cache tags:
#FIRSTBEAT:0.000;
#LASTBEAT:1064.625;
#SONGFILENAME:Songs/cedric step/Razorflame-Blue Army (Hard Edit)/Blue Army.sm;
#HASMUSIC:1;
#HASBANNER:1;
#MUSICLENGTH:396.225;
// end cache tags

//---------------dance-single - ----------------
#NOTES:
     dance-single:
     :
     Easy:
     10:
     0.833,1.000,0.119,0.053,0.671,2242.000,47.000,21.000,0.000,3.000:
2002
0000
0000
0000
,
0000
0000
0000
0000
0000
0000
0000
3003
,
1000
0001
1000
0010
0000
1000
0000
0001
,
0010
0100
0001
0000
1000
0010
1000
0000
,
0001
0010
0100
1000
0000
1000
0000
1000
,
0100
0010
0001
0000
0001
0010
0100
0000
,
1000
0010
1000
0010
0000
1000
0000
0001
,
0010
0100
0001
0000
1000
0010
1000
0000
,
0001
0010
0100
1000
0000
1000
0000
1000
,
0100
0010
0001
0000
0001
0010
0100
0000
,
0001
1000
0010
1000
0000
0001
0000
0100
,
0001
1000
0010
0000
1000
0001
1000
0000
,
0010
0100
0001
1000
0000
0010
0000
1000
,
0001
1000
0010
0000
1000
0001
0100
0000
,
0001
0010
0100
1000
0000
1000
0000
1000
,
0100
0010
0001
0000
0001
0010
0100
0000
,
1000
0010
1000
0001
0000
1000
0000
0001
,
0010
0100
0001
1000
0010
1000
0001
0100
,
0010
1000
0001
0100
0000
0010
0000
1000
,
0100
0010
0001
0000
0001
0010
0100
0000
,
1000
0100
0010
0001
0000
0001
0000
0001
,
0010
0100
1000
0000
1000
0100
0010
0000
,
0100
0001
0100
0010
0000
1000
0000
0010
,
1000
0001
1000
0000
0010
0100
0001
0000
,
1000
0100
0001
0010
0000
0100
0000
0010
,
1000
0001
1000
0000
0001
0010
0100
0000
,
1000
0100
0010
0001
0000
0001
0000
0001
,
0010
0100
1000
0000
1000
0100
0010
0000
,
0001
0100
0001
1000
0000
0010
0000
1000
,
0001
0100
0010
0000
1000
0001
1000
0000
,
1000
0100
0010
0100
0010
0001
0010
0100
1000
0010
0100
0001
0010
1000
0010
0100
,
0010
0001
1000
0100
0010
0001
0100
0010
1000
0001
0010
0100
0010
0001
0010
0100
,
1000
0010
0100
0001
0010
0100
1000
0100
0010
0001
0100
0010
0001
0010
0100
1000
,
0220
0000
0000
0000
0000
0000
0000
0000
0330
1000
0100
0010
0001
0010
1000
0100
,
0001
1000
0010
1000
0001
0100
0010
1000
0001
1000
0010
0100
0001
0010
0001
0010
,
0100
1000
0100
0010
0001
0100
0010
1000
0001
1000
0010
0100
0001
1000
0100
0010
,
0100
0001
1000
0010
0100
0001
0010
1000
0010
0100
0001
0010
0100
1000
0010
0100
,
0001
0010
1000
0010
0100
0001
0010
0100
1000
0010
0100
0010
0001
0010
0100
1000
,
0100
0010
0001
0010
0100
1000
0100
0010
1000
0001
0100
0010
0001
0010
0100
1000
,
0100
0010
0001
0010
0100
1000
0010
0100
0001
0010
1000
0010
0100
0001
0010
1000
,
0010
0100
0001
0010
1000
0010
0100
0001
0010
1000
0010
0100
0001
0010
0100
1000
,
0100
0010
0001
0010
0100
1000
0100
0010
0100
0000
1000
0000
0100
0000
0010
0000
,
0000
0001
0000
0010
0100
0001
1000
0000
,
0010
1000
0001
0000
1000
0010
1000
0001
,
0000
0001
0000
0001
0010
0100
1000
0000
,
1000
0100
0010
0000
0001
0100
0010
0100
,
0000
0001
0000
0001
0010
0100
1000
0000
,
1000
0100
0010
0000
0001
0100
0010
0100
,
0000
0001
0000
0001
0010
1000
1000
0000
,
1000
1000
0010
0000
0100
0001
0100
0001
,
0000
0001
0000
0001
0010
0100
1000
0000
,
1000
0100
0010
0000
0001
0100
0001
0100
,
0000
0010
0000
0001
0010
1000
0100
0000
,
0010
0001
0010
0000
0100
0001
1000
0010
,
0000
1000
0000
0001
0010
0100
1000
0000
,
1000
0100
0010
0000
0100
0001
1000
0010
,
0000
0000
1000
0000
0100
0010
0001
0010
0100
0010
0001
0010
0100
1000
0100
0010
,
1000
0100
0010
0001
0010
0000
0000
0000
0100
0000
1000
0000
0100
0000
0010
0000
,
0000
1000
0000
0001
0010
0100
1000
0000
,
1000
0100
0010
0000
0100
0001
0010
0001
,
0000
0100
0000
0010
1000
0001
1000
0000
,
0001
0010
0100
0000
1000
0100
0010
0001
,
0000
0001
0000
0001
0010
0100
0001
0000
,
1000
0010
1000
0000
0001
0010
0100
1000
,
0000
1000
0000
1000
0100
0010
0001
0000
,
0001
0100
0010
0000
1000
0001
1000
0010
,
0000
0100
0000
0001
0010
0100
1000
0000
,
1000
0100
0010
0000
0100
0001
0010
0001
,
0000
0001
0000
0001
0010
0100
1000
0000
,
1000
0100
0010
1000
0001
0100
0010
0001
0010
0100
1000
0010
0100
0001
0010
1000
,
0010
0100
0010
0001
0100
0010
1000
0100
0010
0001
0010
1000
0010
0100
0010
0001
,
0010
0100
1000
0100
0010
0001
0010
0100
0010
1000
0001
0100
0010
1000
0001
0010
,
0100
1000
0100
0010
0001
0100
0010
1000
2020
0000
0000
0000
3000
0000
0000
0000
,
2000
0000
0000
0030
,
0002
0000
0000
3000
,
2000
0000
0000
0000
,
3013
0100
0010
1000
0001
0100
0010
0001
0010
0100
0010
0001
0010
0100
0010
0001
,
1000
0010
0100
1000
0010
0100
0001
1000
0010
0000
0000
0000
1001
0010
0100
1000
,
1001
0000
0000
0000
1001
0100
0010
0001
0110
0000
0000
0000
1001
0010
0100
1000
,
0011
0000
1010
0100
1010
0000
0101
1000
0110
0000
0000
0010
0101
0010
0100
1000
,
0101
0010
0000
0000
1001
0010
0100
1000
0110
0000
0000
0000
1001
0010
0100
1000
,
0011
0000
1100
1000
0010
0001
0010
0000
0101
0000
0000
0000
1001
0010
0100
1000
,
0110
0000
0000
0000
0010
0100
0001
1000
0010
0000
0000
0000
1000
0100
0010
0001
,
0010
0000
0001
0010
0100
0000
1000
0000
0100
0000
0000
0010
0001
0010
0100
0001
,
1000
0000
0000
0001
0010
0100
1000
1000
0010
0000
0000
0000
1000
0000
0001
0000
,
0010
0000
0100
0000
1000
0000
0100
0000
0010
0000
0000
0000
0001
0010
0100
1000
,
1000
0000
0000
0000
1000
0100
0010
0001
0001
0000
0000
0000
0001
0010
0100
1000
,
0010
0000
1000
0001
1000
0000
0010
0000
0100
0000
0000
0001
0010
0100
1000
0100
,
0010
0000
0000
0100
0001
0100
0010
1000
0001
0000
0000
0000
0001
0000
0010
0000
,
0100
0000
1000
0000
0100
0000
0010
0000
0001
0000
0010
0000
1000
0001
0100
0010
,
0100
0001
1000
0010
1000
0001
0100
0001
0000
0000
0000
2002
0000
3003
0220
0000
,
2332
3003
2020
0000
0000
0000
0000
3030
,
0001
0000
0000
0010
0000
0000
0100
0000
0001
0000
0000
1000
0000
0000
0010
0000
,
1000
0000
0000
0001
0000
0000
0100
0000
0010
0000
0000
1000
0000
0000
0001
0000
,
1000
0000
0000
0100
0000
0000
0001
0000
0100
0000
0000
1000
0000
0000
0100
0000
,
0010
0000
0000
0100
0000
0000
1000
0000
0100
0000
0000
0010
0000
0000
0001
0000
,
0010
0000
0000
0100
0000
0000
1000
0000
0100
0000
0000
0010
0000
0000
0100
0000
,
0010
0000
0000
1000
0000
0000
0100
0000
0001
0000
0000
0010
0000
0000
0100
0000
,
1000
0000
0000
0100
0000
0000
0010
0000
1000
0000
0000
0010
0000
0000
0001
0000
,
0010
0000
0000
0100
0000
0000
1000
0000
0100
0000
0000
0010
0000
0000
0100
0000
,
0010
0000
0000
1000
0000
0000
0100
0000
1000
0000
0000
0001
0000
0000
0010
0000
,
0100
0000
0000
1000
0000
0000
0100
0000
0010
0000
0000
0001
0000
0000
0010
0000
,
0100
0000
0000
1000
0000
0000
0100
0000
0001
0000
0000
0100
0000
0000
1000
0000
,
0010
0000
0000
0001
0000
0000
0100
0000
0010
0000
0000
1000
0000
0000
0100
0000
,
0010
0000
0000
0001
0000
0000
0100
0000
0010
0000
0000
1000
0000
0000
0100
0000
,
0010
0000
0000
0100
0000
0000
0001
0000
0010
0000
0000
0100
0000
0000
1000
0000
,
0100
0000
0000
0001
0000
0000
0100
0000
1000
0000
0000
0010
0000
0000
0001
0000
,
0100
0000
0000
1000
0000
0000
0010
0000
0100
0000
0000
0001
0000
0000
0010
0000
,
0100
0000
0000
1000
0000
0000
0100
0000
0010
0000
0000
0001
0000
0000
0100
0000
,
0010
0000
0000
1000
0000
0000
0001
0000
0100
0000
0000
0010
0000
0000
0001
0000
,
0100
0000
0000
1000
0000
0000
0010
0000
0001
0000
0000
0100
0000
0000
0001
0000
,
0010
0000
0000
1000
0000
0000
0100
0000
0010
0000
0000
1000
0000
0000
0001
0000
,
0100
0000
0000
0010
0000
0000
1000
0000
0001
0000
0000
0100
0000
0000
0010
0000
,
0001
0000
0000
0100
0000
0000
1000
0000
0010
0000
0000
0100
0000
0000
0001
0000
,
0100
0000
0000
1000
0000
0000
0010
0000
0100
0000
0000
0001
0000
0000
0100
0000
,
0001
0000
0000
1000
0000
0000
0100
0000
0001
0000
0000
0010
0000
0000
0100
0000
,
1000
0000
0000
0100
0000
0000
0001
0000
0010
0000
0000
0100
0000
0000
1000
0000
,
0100
0000
0000
0010
0000
0000
0001
0000
0100
0000
0000
0010
0000
0000
0001
0000
,
1000
0100
0010
0001
1000
0010
0100
0001
0010
0100
1000
0100
0010
0001
0100
0010
,
1000
0001
0010
0100
0001
1000
0010
0100
0001
0010
1000
0100
0010
0001
0100
0010
,
1000
0001
0010
0100
1000
0100
0010
0001
0100
0010
1000
0001
0010
0100
1000
0010
,
0100
0001
0010
1000
0010
0100
0001
0010
1000
0010
0001
0100
0010
0001
1000
0100
,
0010
1000
0010
0100
0010
0001
0100
0010
1000
0001
0100
0010
0001
1000
0100
0010
,
0100
0000
1000
0000
0100
0000
0010
0100
0001
0000
0010
0000
0100
0000
0001
0010
,
1000
0000
0010
0000
1000
0000
0001
1000
0100
0000
0010
0000
0100
0000
0001
0010
,
1000
0000
0010
0000
1000
0000
0001
0100
1000
0000
0010
0000
1000
0000
0001
1000
,
0100
0000
0001
0000
0010
0000
1000
0001
0100
0000
0010
0000
0001
0000
0100
1000
,
0001
0000
0010
0000
0001
0000
0100
0001
0010
0000
1000
0000
0001
0000
1000
0010
,
0100
0000
0001
0000
0010
0000
0100
1000
0001
0000
0010
0000
0001
0000
0100
1000
,
0010
0000
1000
0000
0001
0000
1000
0100
0010
0000
1000
0000
0100
0000
0001
1000
,
0010
0000
0100
0000
0001
0000
0010
1000
0001
0000
0100
0000
0010
0000
1000
0001
,
0100
0000
0001
0000
0100
0000
0001
1000
0010
0000
0001
0000
1000
0000
0010
0001
,
1000
0000
0100
0000
0001
0000
0100
0010
0001
0000
0010
0000
0001
0000
0010
1000
,
0100
0000
1000
0000
0100
0000
0010
0100
0001
0000
0100
0000
0001
0000
1000
0100
,
0010
0000
0000
0000
1001
0000
0010
1000
0100
0000
0000
0000
0001
0000
0000
0010
,
1001
0000
0000
0000
0000
0000
0001
0100
0010
0000
0100
0000
1000
0000
0100
0001
,
0010
0000
0100
0000
0001
0000
0010
0100
1000
0000
0001
0000
1000
0000
0010
0001
,
0100
0000
0001
0000
1000
0000
0010
0100
1000
0000
0001
0000
0100
0000
0001
1000
,
0010
0000
0001
0000
0100
0000
0010
0001
1000
0000
0001
0000
1000
0000
0010
0001
,
1000
0000
0100
0000
0001
0000
0010
1000
0100
0000
0001
0000
0010
0000
0001
0010
,
0100
0000
0010
0000
1000
0000
0001
0100
1000
0000
0010
0000
0100
0000
0001
1000
,
0010
0000
0001
0000
0100
0000
0010
0001
1000
0000
0001
0000
1000
0000
0010
0001
,
0100
0000
0001
0000
0010
0000
0001
1000
0100
0000
0010
0000
1000
0000
0100
1000
,
0001
0000
0010
0000
0100
0000
0001
1000
0010
0000
0001
0000
0100
0000
0010
0001
,
1000
0000
0100
0000
0001
0000
0100
1000
0001
0000
0010
0000
0001
0000
0100
0001
,
0010
0000
1000
0000
0001
0000
1000
0010
0100
0000
0001
0000
0010
0000
0100
1000
,
0001
0000
0010
0000
0001
0000
0100
0001
0010
0000
1000
0000
0001
0000
1000
0100
,
0010
0000
0100
0000
0001
0000
0010
0100
0001
0000
0010
0000
1000
0000
0100
0010
,
0001
0000
0100
0000
0001
0000
0010
1000
0001
0000
0100
0000
0010
0000
1000
0100
,
0001
0000
1000
0000
0010
0000
1000
0010
1001
0000
0010
0000
0100
0000
0001
0010
,
1000
0000
0100
0000
0001
0000
0010
1000
0100
0000
1000
0000
0001
0000
0100
1000
,
0010
0000
0100
0000
0001
0000
0100
0010
0001
0000
1000
0000
0010
0000
1000
0100
,
0001
0000
0100
0000
0001
0000
0010
1000
0100
0000
1000
0000
0001
0000
1000
0010
,
0001
0000
0100
0000
0001
0000
0010
1000
0100
0000
1000
0000
0100
0000
0010
0100
,
0001
0000
0100
0000
0001
0000
1000
0100
0010
0000
0100
0000
0001
0000
0100
1000
,
0010
0000
1000
0000
0100
0000
0001
0100
0010
0000
0100
0000
0001
0000
1000
0100
,
0010
0000
0001
0000
0010
0000
0100
0001
1000
0000
0100
0000
0010
0000
0001
0010
,
0100
1000
0100
0010
0001
0010
0100
1000
0100
0010
0001
0010
0100
1000
0010
0100
,
1000
0000
0100
0000
0010
0000
1000
0100
0001
0000
0010
0000
0100
0000
0001
0010
,
1000
0000
0010
0000
0100
0000
0001
0100
1000
0000
0010
0000
0100
0000
0001
1000
,
0010
0000
1000
0000
0100
0000
0010
0001
1000
0000
0001
0000
0100
0000
0010
0100
,
0001
0000
0100
0000
1000
0000
0010
0001
0100
0000
0010
0000
0001
0000
1000
0100
,
0010
0000
0100
0000
0001
0000
1000
0001
0010
0000
0100
0000
0001
0000
1000
0010
,
0100
0000
0010
0000
0100
0000
0001
0010
1000
0000
0010
0000
0100
0000
0001
0100
,
1000
0000
0010
0000
0001
0000
0100
1000
0010
0000
0001
0000
0100
0000
0010
1000
,
0001
0000
1000
0000
0010
0000
0100
0010
0001
0000
1000
0000
0010
0000
0100
1000
,
0001
0000
0010
0000
0100
0000
1000
0001
0100
0000
0010
0000
0001
0000
0100
1000
,
0010
0000
1000
0000
0001
0000
0100
0001
0010
0000
1000
0000
0001
0000
0010
0001
,
0100
0000
0001
0000
0010
0000
0100
0010
1000
0000
0010
0000
0001
0000
0100
1000
,
0010
0000
0001
0000
0100
0000
1000
0100
0010
0000
0100
0000
0001
0000
0010
0001
,
0100
0000
1000
0000
0100
0000
0010
0100
1000
0000
0001
0000
0100
0000
0010
0001
,
1000
0000
0010
0000
0100
0000
0001
0100
1000
0000
0010
0000
0100
0000
0001
0100
,
0010
0000
0100
0000
1000
0000
0100
0001
0010
0000
0001
0000
0100
0000
0010
0100
,
0001
0000
1000
0000
0010
0000
0001
1000
0100
0000
0010
0000
0001
0000
0100
0010
,
1000
0000
0100
0000
0010
0000
0001
0100
1000
0000
0010
0000
0100
0000
0001
0010
,
0100
0000
1000
0000
0010
0000
0100
0010
0001
0000
0010
0000
1000
0000
0010
0100
,
0001
0000
0100
0000
0010
0000
1000
0100
0001
0000
0010
0000
0100
0000
0001
1000
,
0010
0000
1000
0000
0010
0000
0100
0010
0001
0000
1000
0000
0010
0000
0100
1000
,
0001
0000
0010
0000
1000
0000
0100
0001
0010
0000
0100
0000
0001
0000
1000
0100
,
0010
0000
0100
0000
0001
0000
0010
0001
1000
0000
0100
0000
0001
0000
0010
0100
,
1000
0000
0010
0000
0100
0000
1000
0100
0010
0000
0001
0000
0100
0000
0001
0010
,
1000
0000
0010
0000
0100
0000
0001
0010
1000
0000
0010
0000
0100
0000
1000
0100
,
0001
0000
0010
0000
0100
0000
1000
0100
0010
0000
0001
0000
0100
0000
0010
0001
,
1000
0000
0001
0000
0100
0000
0010
0100
1000
0000
0001
0000
0010
0000
0100
1000
,
0001
0000
0100
0000
0010
0000
0001
0010
1000
0000
0010
0000
0100
0000
0001
1000
,
0010
0000
0100
0000
1000
0000
0010
0001
0100
0000
0001
0000
0010
0000
1000
0001
,
0010
0000
0100
0000
0001
0000
1000
0100
0010
0000
0100
0000
0001
0000
0100
0001
,
1000
0000
0010
0000
0100
0000
0001
0010
0100
0000
1000
0000
0100
0000
0010
1000
,
0001
0000
0100
0000
0010
0000
0001
1000
0010
0000
0100
0000
1000
0000
0100
0001
,
0010
0000
1000
0000
0001
0000
0100
1000
0010
0000
0001
0000
0100
0000
0010
0100
,
0001
0000
0100
0000
1000
0000
0100
0001
0010
0000
0001
0000
0010
0000
0100
0000
,
1000
0100
0010
0100
0001
1000
0010
0100
0001
0010
1000
0001
0100
0010
0001
1000
,
0010
0100
0001
0010
1000
0100
0010
0100
0001
1000
0010
0100
0001
0010
1000
0001
,
0100
0010
0001
1000
0100
0010
1000
0001
0010
0100
0010
0001
0010
0100
1000
0100
,
0010
0001
0100
0010
1000
0001
0010
0100
0010
0001
0010
0100
1000
0000
0100
0010
,
0100
1000
0100
0010
0001
0010
0100
1000
0010
1000
0001
0010
0100
1000
0100
0010
,
0100
0000
1000
0100
0000
0010
0000
0001
,
0010
0100
0001
0000
1000
0010
1000
0000
,
0001
0010
0100
1000
0000
1000
0000
1000
,
0100
0010
0001
0000
0001
0010
0100
0000
,
0001
1000
0010
1000
0000
0001
0000
0100
,
0001
1000
0010
0000
0001
1000
0010
0000
,
0001
0010
0100
1000
0000
1000
0000
1000
,
0100
0010
0001
0000
0001
0010
0100
0000
,
0001
1000
0010
1000
0000
0001
0000
0100
,
0001
1000
0010
0000
1000
0001
1000
0000
,
0001
0010
0100
1000
0000
1000
0000
1000
,
0100
0010
0001
0000
0100
0001
0010
0000
,
0001
0010
0100
1000
0000
1000
0000
1000
,
0010
0100
0001
0000
0001
0010
0100
0000
,
0001
0000
1000
0000
0010
0000
1000
0000
0000
0000
0001
0000
0000
0000
0100
1000
,
0100
0010
0001
0010
0001
0010
0001
0010
0100
0010
0100
0010
0001
0100
0010
0100
,
1000
0001
0010
0100
0000
0001
0000
1000
,
0010
1000
0001
0000
0001
0010
0100
0000
,
1000
0100
0010
0001
0000
0001
0000
0001
,
0010
0100
1000
0000
1000
0010
1000
0000
,
0001
0010
0100
1000
0000
1000
0000
1000
,
0100
0010
0100
0000
0001
0100
0001
0000
,
0001
0010
0100
1000
0000
1000
0000
1000
,
0010
1000
0001
0000
0001
0010
0100
0000
,
0001
1000
0010
1000
0000
0001
0000
0010
,
0100
0001
1000
0000
0010
1000
0001
0000
,
1000
0100
0010
0001
0000
0001
0000
0000
,
1000
0100
0010
1000
0001
0010
0100
0010
0001
0010
0100
1000
0100
0010
0001
0100
,
0010
1000
0001
0010
0100
0001
1000
0010
0100
0001
0010
0100
1000
0100
0010
0001
,
0010
0100
0001
1000
0010
0100
1000
0001
0010
0100
0001
0010
1000
0010
0100
0010
,
0001
1000
0100
0010
0001
0010
0100
1000
0010
0100
0001
0010
0100
1000
0010
0001
,
2200
0000
0000
0000
,
3311
0000
0000
0000
1000
0100
0010
0001
,
0010
0000
0000
0000
0001
0010
0100
1000
,
1000
0000
1000
0100
0010
0000
0001
0000
,
0010
0000
0000
1000
0100
0010
0001
0010
,
0100
0000
0000
0001
0010
0100
1000
0001
,
1000
1001
0101
1100
,
0001
0010
0100
1000
0100
0010
0001
0100
,
0001
0000
0001
0010
0100
1000
0001
1000
,
0010
0000
0000
0000
0001
0010
0100
1000
,
0100
0000
0000
0000
0001
0010
0100
1000
,
0001
0000
0001
0010
1000
0000
0100
0000
,
0010
0000
0001
0010
0100
0001
1000
0010
,
1000
0000
0001
0010
0100
1000
0100
0010
,
0001
0000
0001
0010
0100
1000
0001
1000
,
0010
0100
0001
0100
0010
1000
0001
0100
,
0010
1000
0001
0000
0001
1000
0010
1000
,
0001
0000
0001
0010
0100
1000
0100
0010
,
0001
0000
0001
0100
0010
1000
0001
0100
,
0010
0000
1001
0010
0100
0000
0001
0000
,
1001
0000
0000
0001
0010
0100
1000
0100
,
0010
0000
1001
0010
0100
0001
1000
0010
,
1000
0000
0101
0010
1000
0001
1000
0010
,
0101
1010
1001
0101
,
1001
0000
0010
0100
0001
1000
0010
1000
,
0001
0000
0001
0010
0100
1000
0100
0010
,
0001
0000
0001
0010
0100
0001
0010
0001
,
0100
0000
0001
1000
0010
0000
1001
0000
,
1010
0000
0000
0001
0010
0100
1000
0100
,
0010
0000
0000
0001
0010
0100
0001
1000
,
0010
0000
0000
1000
0100
0010
0001
0010
,
0100
1000
0100
0010
0001
0010
0100
1000
0100
0010
0100
1000
0100
0010
0001
0100
,
1000
0100
0010
0001
0010
0100
1000
0010
0100
0010
0001
0010
0100
1000
0010
0100
,
0001
0010
0100
1000
0010
0001
0100
0010
0001
0100
0010
0001
0010
0100
1000
0010
,
0100
0001
0100
0010
1000
0001
0010
0100
1000
0100
0010
0001
0010
0100
1000
0100
,
2020
0000
0000
0000
,
0000
0000
0000
0000
3030
0000
0100
0010
,
1000
0001
0100
0010
0000
1000
0000
0001
,
0010
0100
1000
0100
0010
0001
0010
0100
;

//---------------dance-single - ----------------
#NOTES:
     dance-single:
     :
     Medium:
     12:
     1.000,1.000,1.000,0.053,1.000,2778.000,397.000,21.000,0.000,3.000:
0022
0000
0000
0000
,
0000
0000
0000
0000
0000
0000
0000
0033
,
1010
0001
0010
1100
0000
0110
0000
0011
,
1000
0100
0011
0000
0110
1000
0110
0000
,
0011
1000
0100
0011
0000
0110
0000
0011
,
0100
1000
0011
0000
0011
1000
0110
0000
,
0110
1000
0010
1100
0000
0110
0000
0011
,
1000
0100
0011
0000
0110
1000
0110
0000
,
0011
1000
0100
0011
0000
0110
0000
0011
,
0100
1000
0011
0000
0011
1000
0110
0000
,
1001
0010
1000
0110
0000
0011
0000
1100
,
0001
0010
1100
0000
0110
0001
0110
0000
,
1010
0100
0001
0110
0000
1010
0000
0110
,
0001
0010
1100
0000
1010
0001
0110
0000
,
0011
1000
0100
0011
0000
0110
0000
0011
,
0100
1000
0011
0000
0011
1000
0101
0000
,
0110
1000
0010
1001
0000
0110
0000
0011
,
1000
0010
0100
1000
0001
0100
0010
0001
1000
0100
0010
1000
0001
0010
0100
0000
,
1010
0010
0001
0110
0000
1100
0000
0011
,
0100
1000
0011
0000
0101
1000
0110
0000
,
0011
0100
1000
0101
0000
0101
0000
0011
,
1000
0100
0011
0000
0011
0100
1010
0000
,
0110
0001
0100
1010
0000
0110
0000
1100
,
0010
0001
0110
0000
1010
0100
1001
0000
,
0011
0100
0001
1100
0000
0110
0000
1100
,
0010
0001
0110
0000
0011
1000
0110
0000
,
0011
0100
1000
0101
0000
0011
0000
0011
,
1000
0100
0011
0000
0011
0100
1010
0000
,
1001
0100
0001
0110
0000
1010
0000
0110
,
0001
0100
1001
0000
0110
0001
0110
0000
,
0010
0100
1000
0100
1000
0001
1000
0100
0010
1000
0100
0001
1000
0010
1000
0100
,
1000
0001
0010
0100
1000
0001
0100
1000
0010
0001
1000
0100
1000
0001
1000
0100
,
0010
1000
0100
0001
1000
0100
0010
0100
1000
0001
0100
1000
0001
1000
0100
0010
,
2200
0000
0000
0000
0000
0000
0000
0000
0000
0000
0000
0000
0000
0000
0000
0000
3300
0001
0010
0001
0100
0010
1000
0000
0001
0000
1000
0000
0010
0000
0100
0000
,
0001
0000
0010
0000
1000
0000
0010
0000
0001
0000
0100
0000
1000
0000
0010
0000
0001
0100
0010
0001
1000
0010
0100
0000
0001
0000
1000
0000
0001
0000
1000
0000
,
0100
0000
0010
0000
0100
0000
1000
0000
0001
0000
0100
0000
1000
0000
0010
0000
0001
0100
0010
0001
1000
0010
0100
0000
0001
0000
0010
0000
0100
0000
1000
0000
,
0100
0000
0001
0000
0010
0000
1000
0000
0100
0000
0001
0000
1000
0000
0010
0000
1000
0001
0100
0010
0001
0100
1000
0000
0100
0000
0010
0000
1000
0000
0100
0000
,
0001
0000
1000
0000
0010
0000
1000
0000
0100
0000
0001
0000
1000
0000
0100
0000
0010
0001
1000
0001
0100
0010
1000
0000
0001
0000
1000
0000
0100
0000
0010
0000
,
0100
0000
1000
0000
0001
0000
1000
0000
0100
0000
0010
0000
0100
0000
1000
0000
0010
0100
0001
0010
0100
0010
1000
0000
0001
0000
1000
0000
0100
0000
0010
0000
,
0100
0000
1000
0000
0001
0000
1000
0000
0100
0000
0010
0000
1000
0000
0100
0000
0001
0100
1000
0001
0010
0001
1000
0000
0100
0000
0001
0000
1000
0000
0010
0000
,
1000
0000
0100
0000
0001
0000
1000
0000
0010
0000
1000
0000
0100
0000
0001
0000
1000
0100
0010
0001
1000
0010
0100
0000
0001
0000
1000
0000
0100
0000
0010
0000
,
0100
1000
0001
1000
0100
0010
0100
1000
0001
0100
0010
1000
0100
0001
0010
0100
,
1000
0010
0001
0100
0010
0001
1000
0001
0100
1000
0001
0100
0010
1000
0010
0001
,
0100
1000
0010
0100
0001
0010
0001
0010
0100
0001
1000
0100
0010
1000
0001
0100
,
0010
0100
0001
0010
0100
0010
0001
0010
1000
0001
0100
1000
0010
0100
1000
0001
,
0010
1000
0100
0010
1000
0001
0010
0100
0001
1000
0100
0010
1000
0001
0100
1000
,
0010
0100
0001
1000
0100
0010
0001
0100
1000
0010
0100
0001
0010
1000
0001
0100
,
0010
0001
0100
0010
1000
0100
0010
1000
0001
0010
0100
0001
1000
0010
0100
0001
,
0010
1000
0001
1000
0100
1000
0001
0100
1000
0001
0100
0001
0010
1000
0001
1000
,
0100
1000
0010
0001
1000
0001
0010
1000
0100
0010
0001
0010
0100
0010
0001
0100
,
1000
0010
0001
0010
0100
1000
0001
0010
1000
0001
0100
1000
0010
0100
0001
1000
,
0010
0001
0100
0001
1000
0001
0010
0100
0001
1000
0100
0010
0001
0010
0100
0001
,
0010
0100
1000
0010
0100
0010
0001
0100
1000
0001
0010
0001
0100
0010
0001
0100
,
1000
0010
0001
0100
1000
0001
0010
1000
0100
0010
0001
0100
0010
0001
1000
0001
,
0100
0001
0010
0100
1000
0010
0001
0100
1000
0010
0100
0001
0010
0100
0001
1000
,
0010
0001
0100
0001
1000
0100
0010
1000
0100
0010
0001
0100
0010
0001
1000
0010
,
0100
0001
0010
1000
0100
1000
0001
1000
0100
1000
0001
1000
0100
0010
0100
1000
,
0010
0100
1000
0001
1000
0000
0000
0000
1100
0000
0010
0000
0100
0000
1001
0000
,
0000
0110
0000
0011
1000
0100
0011
0000
,
0011
0100
1010
0000
0110
0001
1000
0011
,
0000
0110
0000
1100
0010
0001
0110
0000
,
0011
1000
0110
0000
0011
0100
1000
0101
,
0000
0011
0000
0011
1000
0100
0011
0000
,
0110
1000
0110
0000
0011
1000
0100
0011
,
0000
0011
0000
0011
0100
1000
0101
0000
,
0011
0100
1001
0000
0110
0001
0010
1001
,
0000
0110
0000
0011
1000
0100
0110
0000
,
1010
0100
1001
0000
0110
0001
1000
0011
,
0000
1001
0000
1001
1000
0100
1010
0000
,
0010
0100
1000
0010
0001
0100
1000
0001
1000
0100
0010
1000
0100
0001
1000
0010
,
1000
0100
1000
0001
0100
1000
0010
0100
1000
0001
1000
0010
1000
0100
1000
0001
,
1000
0100
0010
0100
1000
0001
1000
0100
1000
0010
0001
0100
1000
0010
0001
1000
,
0100
0010
0100
1000
0001
0100
1000
0010
2020
0000
0000
0000
0030
0000
0000
0000
,
0020
0000
0000
3000
,
0002
0000
0000
0030
,
0020
0000
0000
0000
,
1033
0100
1000
0010
0001
0100
1000
0001
1000
0100
1000
0001
1000
0100
1000
0001
,
0010
1000
0100
0010
1000
0100
0001
0010
1000
0000
0000
0000
0011
1000
0100
0010
,
0011
0000
0000
0000
0011
0100
1000
0001
1100
0000
0000
0000
0011
1000
0100
0010
,
1001
0000
1010
0100
1010
0000
0101
0010
1100
0000
0000
1000
0101
1000
0100
0010
,
0101
1000
0000
0000
0011
1000
0100
0010
1100
0000
0000
0000
0011
1000
0100
0010
,
1001
0000
0110
0010
1000
0001
1000
0010
0101
0000
0000
0000
0011
1000
0100
0010
,
1100
0000
0000
0000
1010
0100
0001
0010
1100
0000
0000
0000
0011
0100
1000
0001
,
1010
0000
0011
1000
0110
0000
1010
0000
0110
0000
0000
1100
0001
1000
0100
0001
,
0110
0000
0000
0011
1000
0100
0010
0010
1001
0000
0000
0000
1010
0100
0001
0010
,
1001
0010
0100
1000
0110
0001
0100
0010
1100
0000
0000
0000
0011
1000
0100
0010
,
0110
0000
0000
0000
1010
0100
1000
0001
0011
0000
0000
0000
0011
1000
0100
0010
,
1100
0000
0110
0001
0110
0000
1010
0000
0110
0000
0000
0011
1000
0100
0010
0100
,
1001
0000
0000
0000
0000
0000
0110
0000
0001
0000
0100
0000
1000
0000
0010
0000
0101
0000
0000
0000
0000
0000
0000
0000
0001
0000
0010
0000
1000
0000
0001
0010
,
0100
0010
1000
0001
0010
0001
1000
0010
0100
0010
0001
0100
1000
0010
0001
0100
0010
0100
0001
0010
1010
0001
0100
1000
0010
1000
0001
0010
0001
0010
1000
0010
,
0100
1000
0001
0100
0010
0100
1000
0001
0010
0100
0001
1000
0100
0010
0001
0000
0000
0000
0000
0000
0000
0000
0022
0000
0000
0000
0033
0000
2200
0000
0000
0000
,
3322
0033
2020
0000
0000
0000
0000
3030
,
1001
0000
0000
1010
0000
0000
1100
0000
0011
0000
0000
0011
0000
0000
1100
0000
,
0110
0000
0000
1001
0000
0000
0110
0000
1001
0000
0000
0110
0000
0000
1001
0000
,
0110
0000
0000
0101
0000
0000
0101
0000
1100
0000
0000
0011
0000
0000
0110
0000
,
1001
0000
0000
0110
0000
0000
1010
0000
0101
0000
0000
1010
0000
0000
0101
0000
,
1010
0000
0000
0101
0000
0000
0011
0000
0110
0000
0000
1001
0000
0000
0110
0000
,
1001
0000
0000
0110
0000
0000
1100
0000
0011
0000
0000
1100
0000
0000
0101
0000
,
1010
0000
0000
0110
0000
0000
1001
0000
0110
0000
0000
1001
0000
0000
0101
0000
,
1010
0000
0000
0101
0000
0000
1010
0000
0101
0000
0000
1010
0000
0000
1100
0000
,
0011
0000
0000
0101
0000
0000
1100
0000
0011
0000
0000
1100
0000
0000
1001
0000
,
0110
0000
0000
1001
0000
0000
0110
0000
1010
0000
0000
0101
0000
0000
0101
0000
,
0011
0000
0000
1100
0000
0000
0110
0000
0101
0000
0000
1000
0000
0000
0100
0000
,
1000
0000
0000
0100
0000
0000
0001
0000
1000
0000
0000
0010
0000
0000
0100
0000
,
1000
0000
0000
0100
0000
0000
0001
0000
0010
0000
0000
1000
0000
0000
0100
0000
,
0010
0000
0000
1000
0000
0000
0100
0000
0001
0000
0000
0010
0000
0000
0100
0000
,
1000
0000
0000
0001
0000
0000
0100
0000
1000
0000
0000
0010
0000
0000
0100
0000
,
0010
0000
0000
0001
0000
0000
1000
0000
0100
0000
0000
0001
0000
0000
0010
0000
,
0100
0000
0000
0001
0000
0000
0100
0000
1000
0000
0000
0010
0000
0000
0100
0000
,
0001
0000
0000
0100
0000
0000
0010
0000
1000
0000
0000
0001
0000
0000
0100
0000
,
0010
0000
0000
1000
0000
0000
0100
0000
0010
0000
0000
0001
0000
0000
0100
0000
,
1000
0000
0000
0010
0000
0000
0100
0000
0001
0000
0000
0010
0000
0000
0001
0000
,
1000
0000
0000
0100
0000
0000
1000
0000
0010
0000
0000
0100
0000
0000
0001
0000
,
0010
0000
0000
0100
0000
0000
1000
0000
0010
0000
0000
0001
0000
0000
0100
0000
,
0010
0000
0000
0001
0000
0000
0100
0000
1000
0000
0000
0010
0000
0000
0001
0000
,
0100
0000
0000
0010
0000
0000
1000
0000
0010
0000
0000
0100
0000
0000
0001
0000
,
1100
0000
0000
0011
0000
0000
1100
0000
1100
0000
0000
0101
0000
0000
0011
0000
,
0110
0000
0000
1001
0000
0000
1010
0000
0101
0000
0000
1010
0000
0000
0001
0000
,
0010
0100
1000
0001
0010
1000
0100
0001
1000
0100
0010
0100
1000
0001
0100
1000
,
0010
0001
1000
0100
0001
0010
1000
0100
0001
1000
0010
0100
1000
0001
0100
1000
,
0010
0001
1000
0100
0010
0100
1000
0001
0100
1000
0010
0001
1000
0100
0010
1000
,
0100
0001
1000
0010
1000
0100
0001
1000
0010
1000
0001
0100
1000
0001
0010
0100
,
1000
0010
1000
0100
1000
0001
0100
1000
0010
0001
0100
1000
0001
0010
0100
1000
,
0100
0000
0010
1000
0100
0000
1000
0010
0001
0000
1000
0010
0100
0000
0001
1000
,
0010
0000
1000
0010
0100
0000
0001
0010
0100
0000
1000
0100
0001
0000
0001
0100
,
0010
0000
1000
0100
0010
0000
0001
0100
0010
0000
1000
0001
0100
0000
0001
1000
,
0100
0000
0001
0100
1000
0000
0010
0001
0100
0000
1000
0010
0001
0000
0100
0010
,
0001
0000
1000
0100
0001
0000
0100
0001
1000
0000
0010
0100
0001
0000
0010
1000
,
0100
0000
0001
0010
1000
0000
0100
0010
0001
0000
1000
0010
0001
0000
0100
0001
,
1000
0000
0010
0000
0001
0000
0010
0100
1000
0000
0010
0000
0100
0000
0001
0010
,
1000
0000
0100
0000
0001
0000
1000
0100
0001
0000
0100
0000
1000
0000
0010
0001
,
0100
0000
0001
0000
0100
0000
0001
0100
1000
0000
0001
0000
0010
0000
1000
0001
,
0010
0000
0100
0000
0001
0000
0100
1000
0001
0000
1000
0000
0001
0000
1000
0010
,
0100
0000
0010
0000
0100
0000
1000
0010
0001
0000
0100
0000
0001
0000
0010
0100
,
1000
0000
0100
0000
0001
0000
1000
0001
0100
0000
0010
0000
0001
0000
0100
1000
,
0010
0000
0100
0000
0010
0000
0001
0010
1000
0000
0100
0000
0010
0000
0100
0001
,
1000
0000
0010
0000
0001
0000
1000
0100
0010
0000
0001
0000
0010
0000
1000
0001
,
0100
0000
0001
0000
0010
0000
1000
0100
0010
0000
0001
0000
0100
0000
0001
0010
,
1000
0000
0001
0000
0100
0000
1000
0100
0010
0000
0001
0000
0010
0000
1000
0001
,
0010
0000
0100
0000
0001
0000
1000
0010
0100
0000
0001
0000
1000
0000
0001
0010
,
0100
0000
1000
0000
0010
0000
0001
0100
0010
0000
1000
0000
0100
0000
0001
0010
,
1000
0000
0001
0000
0100
0000
1000
0001
0010
0000
0001
0000
0010
0000
1000
0010
,
0100
0000
0001
0000
1000
0000
0001
0010
0100
0000
1000
0000
0010
0000
0100
1000
,
0001
0000
1000
0000
0100
0000
0001
0010
1000
0000
0001
0000
0100
0000
1000
0001
,
0010
0000
0100
0000
0001
0000
0100
0010
0001
0000
1000
0000
0001
0000
0100
0001
,
1000
0000
0010
0000
0001
0000
0010
1000
0100
0000
0001
0000
1000
0000
0100
0010
,
0001
0000
1000
0000
0001
0000
0100
0001
1000
0000
0010
0000
0001
0000
0010
0100
,
1000
0000
0100
0000
0001
0000
1000
0010
0001
0000
1000
0000
0010
0000
0100
1000
,
0001
0000
0100
0000
0001
0000
1000
0010
0001
0000
0100
0000
1000
0000
0010
0100
,
0001
0000
0010
0000
1000
0000
0010
0100
0001
0000
1000
0000
0100
0000
0001
1000
,
0010
0000
0100
0000
0001
0000
1000
0001
0100
0000
0010
0000
0001
0000
0100
0010
,
1000
0000
0100
0000
0001
0000
0100
1000
0001
0000
0010
0000
1000
0000
0010
0100
,
0001
0000
0100
0000
0001
0000
1000
0010
0100
0000
0010
0000
0001
0000
0010
1000
,
0001
0000
0100
0000
0001
0000
1000
0010
0100
0000
0010
0000
0100
0000
1000
0100
,
0001
0000
0100
0000
0001
0000
0010
0001
1000
0000
0100
0000
0001
0000
0100
0010
,
1000
0000
0010
0000
0100
0000
0001
0100
1000
0000
0100
0000
0001
0000
0010
0100
,
1000
0000
0001
0000
1000
0000
0100
0001
0010
0000
0100
0000
1000
0000
0001
0000
,
0100
0010
0100
1000
0001
1000
0100
0010
0100
1000
0001
1000
0100
0010
1000
0100
,
0010
0001
0100
0010
1000
0100
0010
1000
0001
0010
1000
0001
0100
0010
0001
0100
,
0010
0001
1000
0010
0100
1000
0001
0100
0010
0001
1000
0010
0100
0010
0001
0100
,
1000
0001
0010
0001
0100
0010
1000
0100
0010
1000
0001
0010
0100
0001
1000
0010
,
0001
0010
0100
0001
0010
0100
1000
0010
0100
0001
1000
0100
0001
1000
0010
0100
,
1000
0010
0100
1000
0001
1000
0010
0100
1000
0001
0100
1000
0001
1000
0010
0001
,
0100
0010
1000
0010
0100
0010
0001
0100
0010
0001
1000
0010
0100
1000
0001
0100
,
0010
0100
1000
0010
0001
0010
0100
0001
1000
0010
0001
0010
0100
0001
1000
0100
,
0001
0100
0010
0001
1000
0010
0100
0010
0001
0100
0010
0001
1000
0010
0100
0010
,
0001
0010
1000
0001
0100
0001
0010
0001
0100
0010
1000
0010
0001
1000
0100
0010
,
1000
0001
0010
0100
0001
0010
0100
0001
1000
0100
0010
1000
0001
0100
1000
0010
,
0100
0010
0001
0100
1000
0001
0100
0001
0010
0001
1000
0100
0001
0010
0100
0001
,
1000
0010
0001
0010
0100
0001
0010
0001
1000
0010
0100
0010
0001
0100
1000
0001
,
0100
1000
0010
0001
0100
0010
1000
0100
0010
1000
0001
1000
0100
0001
1000
0100
,
0010
0001
1000
0010
0100
1000
0001
0100
0010
0001
1000
0010
0100
1000
0001
0010
,
1000
0001
0100
1000
0010
1000
0100
0001
1000
0010
0001
0010
0100
0001
1000
0100
,
0001
0100
0010
0100
1000
0010
0001
0010
0100
0001
1000
0010
0001
1000
0100
0001
,
0010
1000
0100
0001
1000
0100
0001
0100
0010
0001
1000
0010
0100
1000
0001
0010
,
0100
1000
0010
0001
1000
0010
0100
0010
0001
0100
1000
0001
0010
0100
1000
0010
,
0001
0010
0100
0001
1000
0100
0010
1000
0001
0100
1000
0010
0100
0010
0001
0100
,
1000
0001
0010
0100
1000
0001
0100
0010
0001
1000
0010
0001
1000
0010
0100
0010
,
0001
0100
1000
0001
0010
1000
0100
0010
1000
0001
0100
0010
0001
0100
0010
0001
,
1000
0010
0100
0010
0001
0100
1000
0001
0010
0001
0100
0010
0001
0100
1000
0001
,
0010
0001
1000
0001
0100
0001
0010
0001
1000
0100
0001
0010
0100
1000
0001
1000
,
0010
0100
1000
0010
0100
1000
0001
0100
0010
0001
1000
0010
0100
1000
0010
0100
,
0001
0010
1000
0001
0100
1000
0010
0100
1000
0010
0001
1000
0100
0010
1000
0001
,
0010
0100
0001
0010
0100
0001
1000
0100
0010
0100
0001
0010
1000
0010
0100
0010
,
0001
0010
0100
0001
1000
0010
0001
0100
0010
0001
1000
0010
0100
0010
0001
0100
,
1000
0010
0100
0001
0010
0100
1000
0010
0100
0010
0001
0100
1000
0001
0010
0100
,
1000
0010
0100
0010
0001
0100
0010
0001
1000
0010
0100
1000
0001
0010
0100
1000
,
0010
0001
1000
0001
0100
0010
0001
1000
0100
0001
0010
0001
0100
0010
1000
0100
,
0001
0010
0100
0001
1000
0010
0001
0100
1000
0010
0100
0001
0010
1000
0100
0010
,
1000
0010
0001
0100
1000
0001
0100
1000
,
0001
0100
0010
0100
1000
0001
1000
0100
,
0010
0100
1000
0100
0001
0010
1000
0100
0001
1000
0010
0001
0100
1000
0001
0010
,
1000
0100
0001
1000
0010
0100
1000
0100
0001
0010
1000
0100
0001
1000
0010
0001
,
0100
1000
0001
0010
0100
1000
0010
0001
1000
0100
1000
0001
1000
0100
0010
0100
,
1000
0001
0100
1000
0010
0001
1000
0100
1000
0001
1000
0100
0010
0000
0100
1000
,
0100
0010
0100
1000
0001
1000
0100
0010
1000
0010
0001
1000
0100
0010
0100
1000
,
0110
0001
0010
0101
0000
1100
0000
0011
,
1000
0100
0101
0000
0011
1000
0110
0000
,
0011
1000
0100
0011
0000
0110
0000
1010
,
0100
1000
0011
0000
0011
1000
0110
0000
,
1001
0010
1000
0011
0000
0011
0000
1100
,
0001
0010
1100
0000
0011
0010
1100
0000
,
0011
1000
0100
0011
0000
0110
0000
0011
,
0100
1000
0101
0000
0011
1000
1100
0000
,
0011
0010
1000
0110
0000
1001
0000
0110
,
0001
0010
1100
0000
1010
0001
0011
0000
,
0101
1000
0100
0011
0000
0110
0000
0011
,
0100
1000
0101
0000
0110
0001
1100
0000
,
0011
1000
0100
0011
0000
1010
0000
0011
,
1000
0100
0011
0000
0011
1000
1100
0000
,
0011
0000
0010
0000
1000
0000
0110
0000
0000
0000
0011
0000
0000
0000
0100
0010
,
0100
1000
0001
1000
0001
1000
0001
1000
0100
1000
0100
1000
0001
0100
1000
0100
,
0010
1000
0001
0100
1000
0010
0100
0001
0010
1000
0001
0010
0100
1000
0010
0001
,
1000
0100
0010
1000
0001
0010
0100
0010
0001
0100
1000
0001
0100
1000
0001
0100
,
0010
0001
0100
0010
1000
0100
0001
1000
0010
0100
0001
1000
0100
0010
0001
0010
,
1000
0001
0100
1000
0010
0100
0001
0100
0010
0100
1000
0001
0010
0001
0100
0010
,
0001
0100
1000
0010
0100
1000
0010
0100
0001
1000
0010
0001
0100
0001
0010
0001
,
0100
0010
1000
0001
0100
1000
0010
0100
0001
1000
0100
0010
0001
0100
1000
0010
,
0001
0100
1000
0001
0100
1000
0010
0100
0001
1000
0010
0001
0100
0001
0010
0100
,
1000
0001
0010
1000
0001
0010
0100
0010
0001
0010
1000
0001
0100
1000
0010
0100
,
0001
0100
0010
0100
1000
0001
0010
1000
0100
0010
0001
0100
0010
0001
1000
0010
,
0100
1000
0001
0100
0010
0001
0100
0010
1000
0100
0010
1000
0001
0010
0100
0001
,
0010
1000
0100
0010
1000
0100
0001
0010
0100
1000
0001
0010
1000
0001
0100
1000
,
0010
0100
1000
0010
0001
1000
0100
1000
0001
1000
0100
0010
0100
1000
0001
0100
,
1000
0010
0001
1000
0100
0001
0010
1000
0100
0001
1000
0100
0010
0100
1000
0001
,
1000
0100
0001
0010
1000
0100
0010
0001
1000
0100
0001
1000
0010
1000
0100
1000
,
0001
0010
0100
1000
0001
1000
0100
0010
1000
0100
0001
1000
0100
0010
1000
0001
,
0220
0000
0000
0000
,
1331
0000
0000
0000
1010
0100
1000
0001
,
1100
0000
0000
0000
0011
1000
0100
0010
,
0011
0000
0011
0100
1010
0000
0101
1000
,
1010
0000
0000
0011
0100
1000
0011
1000
,
0110
0000
0000
0011
1000
0100
0010
0001
,
0110
1000
0011
1000
0101
0010
0110
0000
,
0011
1000
0100
0010
0100
1000
0001
0100
,
0011
0000
0011
1000
0100
0010
0001
0010
,
1100
0000
0000
0000
0011
1000
0100
0010
,
0101
0000
0000
0000
0011
1000
0100
0010
,
0101
0000
0101
1000
0011
0000
0110
0000
,
1100
0000
0011
1000
0100
0001
0010
1000
,
0110
0000
0011
1000
0100
0010
0100
1000
,
0011
0000
0011
1000
0100
0010
0001
0010
,
1000
0100
0001
0100
1000
0010
0001
0100
,
1000
0010
1001
0000
0101
0010
1000
0010
,
0101
0000
0011
1000
0100
0010
0100
1000
,
0011
0000
0011
0100
1000
0010
0001
0100
,
1010
0000
0011
1000
0110
0000
1001
0000
,
0011
0000
0000
0011
1000
0100
0010
0100
,
1001
0000
0011
1000
0100
0001
0010
1000
,
0110
0000
0101
1000
0010
0001
0010
1000
,
0101
0000
1010
0100
0011
1000
0101
0010
,
0011
0000
1010
0100
0001
0010
1000
0010
,
0101
0000
0011
1000
0100
0010
0100
1000
,
0011
0000
0011
1000
0100
0001
1000
0001
,
0110
0000
0101
0010
1001
0000
0011
0100
,
1010
0000
0000
0011
1000
0100
0010
0100
,
1001
0000
0000
0011
1000
0100
0001
0010
,
1001
0000
0000
0011
0100
1000
0001
1000
,
0100
0010
0100
1000
0001
1000
0100
0010
0100
1000
0100
0010
0100
1000
0001
0100
,
0010
0100
1000
0001
1000
0100
0010
1000
0100
1000
0001
1000
0100
0010
1000
0100
,
0001
1000
0100
0010
1000
0001
0100
1000
0001
0100
1000
0001
1000
0100
0010
1000
,
0100
0001
0100
1000
0010
0001
1000
0100
0010
0100
1000
0001
1000
0100
0010
0100
,
2020
0000
0000
0000
,
0000
0000
0000
0000
3030
0000
0110
1000
,
0010
0001
0100
1010
0000
0110
0000
0011
,
1000
0100
0010
0100
1000
0001
1000
0110
;

//---------------dance-single - ----------------
#NOTES:
     dance-single:
     :
     Hard:
     14:
     1.000,1.000,1.000,0.469,1.000,3337.000,571.000,186.000,0.000,12.000:
0022
0000
0000
0000
,
0000
0000
0000
0000
0000
0000
0000
0033
,
0101
1000
0010
0100
0001
0010
1100
0000
0000
0000
1001
0000
0000
0000
0011
1000
,
0100
0010
1000
0100
0011
0000
0000
0000
1001
0010
0100
0010
1001
0000
0000
0000
,
0011
1000
0100
0010
1000
0100
0011
0000
0000
0000
1001
0000
0000
0000
0011
0100
,
1000
0010
0100
1000
0011
0000
0000
0000
0011
1000
0100
0010
1001
0000
0000
0000
,
1001
0010
0100
0010
0001
0010
1100
0000
0000
0000
1001
0000
0000
0000
0011
1000
,
0100
0001
1000
0100
0011
0000
0000
0000
1001
0010
0100
0010
1001
0000
0000
0000
,
0011
1000
0100
0010
1000
0100
0011
0000
0000
0000
1001
0000
0000
0000
0011
0100
,
1000
0010
0100
1000
0011
0000
0000
0000
0011
1000
0100
0010
1001
0000
0000
0000
,
0110
1000
0001
0010
0100
0010
1001
0000
0000
0000
0011
0000
0000
0000
1100
0001
,
0010
0100
0001
0010
1100
0000
0000
0000
1001
0100
0010
0100
1001
0000
0000
0000
,
0101
0010
1000
0100
0010
0100
1001
0000
0000
0000
0101
0000
0000
0000
1001
0100
,
0010
1000
0001
0010
1100
0000
0000
0000
0101
1000
0010
0100
1001
0000
0000
0000
,
0011
1000
0100
0001
1000
0100
0011
0000
0000
0000
1001
0000
0000
0000
0011
0100
,
1000
0010
0100
1000
0011
0000
0000
0000
0011
1000
0100
0001
1010
0000
0000
0000
,
1001
0010
0100
1000
0001
1000
0110
0000
0000
0000
1001
0000
0000
0000
0011
0000
,
0100
0001
1000
0100
0010
1000
0001
0010
0100
1000
0001
0100
0010
0001
1000
0000
,
0101
1000
0001
0100
0010
0100
1001
0000
0000
0000
1100
0000
0000
0000
0011
0100
,
1000
0010
0100
1000
0011
0000
0000
0000
1010
0001
0100
0010
1001
0000
0000
0000
,
0011
0100
1000
0001
0100
0001
1010
0000
0000
0000
1010
0000
0000
0000
0011
1000
,
0100
0010
1000
0100
0011
0000
0000
0000
0011
0100
1000
0010
0101
0000
0000
0000
,
1001
0100
0010
0100
1000
0010
0101
0000
0000
0000
1001
0000
0000
0000
1100
0010
,
0001
0100
0010
0100
1001
0000
0000
0000
0101
0010
1000
0001
0110
0000
0000
0000
,
0011
0100
1000
0001
0010
0001
1100
0000
0000
0000
1001
0000
0000
0000
1100
0010
,
0001
0100
0010
0100
1001
0000
0000
0000
0011
1000
0100
0010
1001
0000
0000
0000
,
0011
0100
1000
0001
0100
0001
1010
0000
0000
0000
0011
0000
0000
0000
0011
1000
,
0100
0001
1000
0100
0011
0000
0000
0000
0011
0100
1000
0010
0101
0000
0000
0000
,
0110
0001
1000
0100
0010
0100
1001
0000
0000
0000
0101
0000
0000
0000
1001
0100
,
0010
0100
1000
0001
0110
0000
0000
0000
1001
0100
0010
0100
1001
0000
0000
0000
,
0001
1000
0100
1000
0100
0010
0100
1000
0001
0100
1000
0010
0100
0001
0100
1000
,
0100
0010
0001
1000
0100
0010
1000
0100
0001
0010
0100
1000
0100
0010
0100
1000
,
0001
0100
1000
0010
0100
1000
0001
1000
0100
0010
1000
0100
0010
0100
1000
0001
,
2200
0000
0000
0000
0000
0000
0000
0000
0000
0000
0000
0000
0000
0000
0000
0000
3300
0010
0001
0010
1000
0001
0100
0000
0010
0000
0100
0000
0001
0000
1000
0000
,
0010
0000
0001
0000
0100
0000
0001
0000
0010
0000
1000
0000
0100
0000
0001
0000
0010
1000
0001
0010
0100
0001
1000
0000
0010
0000
0100
0000
0010
0000
0100
0000
,
1000
0000
0001
0000
1000
0000
0100
0000
0010
0000
1000
0000
0100
0000
0001
0000
0010
1000
0001
0010
0100
0001
1000
0000
0010
0000
0001
0000
1000
0000
0100
0000
,
1000
0000
0010
0000
0001
0000
0100
0000
1000
0000
0010
0000
0100
0000
0001
0000
0100
0010
1000
0001
0010
1000
0100
0000
1000
0000
0001
0000
0100
0000
1000
0000
,
0010
0000
0100
0000
0001
0000
0100
0000
1000
0000
0010
0000
0100
0000
1000
0000
0001
0010
0100
0010
1000
0001
0100
0000
0010
0000
0100
0000
1000
0000
0001
0000
,
1000
0000
0100
0000
0010
0000
0100
0000
1000
0000
0001
0000
1000
0000
0100
0000
0001
1000
0010
0001
1000
0001
0100
0000
0010
0000
0100
0000
1000
0000
0001
0000
,
1000
0000
0100
0000
0010
0000
0100
0000
1000
0000
0001
0000
0100
0000
1000
0000
0010
1000
0100
0010
0001
0010
0100
0000
1000
0000
0010
0000
0100
0000
0001
0000
,
0100
0000
1000
0000
0010
0000
0100
0000
0001
0000
0100
0000
1000
0000
0010
0000
0100
1000
0001
0010
0100
0001
1000
0000
0010
0000
0100
0000
1000
0000
0001
0000
,
1000
0100
0010
0100
1000
0001
1000
0100
0010
1000
0001
0100
1000
0010
0001
1000
,
0100
0001
0010
1000
0001
0010
0100
0010
1000
0100
0010
1000
0001
0100
0001
0010
,
1000
0100
0001
1000
0010
0001
0010
0001
1000
0010
0100
1000
0001
0100
0010
1000
,
0001
1000
0010
0001
1000
0001
0010
0001
0100
0010
1000
0100
0001
1000
0100
0010
,
0001
0100
1000
0001
0100
0010
0001
1000
0010
0100
1000
0001
0100
0010
1000
0100
,
0001
1000
0010
0100
1000
0001
0010
1000
0100
0001
1000
0010
0001
0100
0010
1000
,
0001
0010
1000
0001
0100
1000
0001
0100
0010
0001
1000
0010
0100
0001
1000
0010
,
0001
0100
0010
0100
1000
0100
0010
1000
0100
0010
1000
0010
0001
0100
0010
0100
,
1000
0100
0001
0010
0100
0010
0001
0100
1000
0001
0010
0001
1000
0001
0010
1000
,
0100
0001
0010
0001
1000
0100
0010
0001
0100
0010
1000
0100
0001
1000
0010
0100
,
0001
0010
1000
0010
0100
0010
0001
1000
0010
0100
1000
0001
0010
0001
1000
0010
,
0001
1000
0100
0001
1000
0001
0010
1000
0100
0010
0001
0010
1000
0001
0010
1000
,
0100
0001
0010
1000
0100
0010
0001
0100
1000
0001
0010
1000
0001
0010
0100
0010
,
1000
0010
0001
1000
0100
0001
0010
1000
0100
0001
1000
0010
0001
1000
0010
0100
,
0001
0010
1000
0010
0100
1000
0001
0100
1000
0001
0010
1000
0001
0010
0100
0001
,
1000
0010
0001
0100
1000
0100
0010
0100
1000
0100
0010
0100
1000
0001
1000
0100
,
0001
1000
0100
0010
0100
0001
0010
0100
1000
0010
0001
0100
1000
0001
0010
0100
,
1000
0010
0001
1000
0010
0100
0001
0010
0100
0001
1000
0010
0001
0100
0010
1000
,
0001
0100
1000
0010
0001
1000
0100
0010
0001
0100
0010
0001
0100
0010
0001
0100
,
1000
0010
0001
0010
0100
0001
1000
0100
0001
0100
0010
0100
1000
0001
0010
0100
,
0001
1000
0100
0010
0001
0100
1000
0010
0001
0100
1000
0010
0100
0001
1000
0100
,
0001
1000
0010
0001
0100
0010
0001
0010
0100
0010
1000
0100
0001
1000
0010
1000
,
0001
0010
0100
0001
1000
0100
0010
1000
0001
0010
0100
0010
1000
0010
0001
1000
,
0100
1000
0010
1000
0100
1000
0001
0010
1000
0010
0100
0001
1000
0100
0010
1000
,
0001
0100
1000
0001
0010
0001
0100
0001
1000
0100
0010
1000
0001
0100
0010
0100
,
1000
0010
0001
0010
0100
0001
0010
0001
0100
0001
1000
0010
0001
0100
0010
1000
,
0100
0010
1000
0001
0010
1000
0100
0010
0001
0100
0010
1000
0100
0010
0001
0100
,
1000
0100
0010
1000
0001
0100
0010
0001
0100
0001
1000
0001
0100
0001
0010
0100
,
0001
1000
0100
0001
0010
1000
0100
0010
0100
1000
0001
0100
1000
0010
0100
0001
,
0100
1000
0100
0010
1000
0100
0001
1000
0100
0010
0100
0001
0100
1000
0100
0010
,
0100
1000
0001
1000
0100
0010
0100
1000
0100
0001
0010
1000
0100
0001
0010
0100
,
1000
0001
1000
0100
0010
1000
0100
0000
0202
0000
0000
0000
0003
0000
0000
0000
,
2002
0000
0000
0300
,
3220
0000
2300
0003
,
3202
0000
2300
0000
,
3133
0010
1000
0010
0100
1000
0001
0100
0010
0001
1000
0001
0100
0001
0010
0001
0100
0001
1000
0001
0100
0001
0010
0001
0100
0001
1000
0001
0100
0001
0010
0000
,
0001
0100
1000
0001
0100
1000
0010
0001
0100
1000
0100
0010
0022
0133
1000
0001
,
0022
0133
1000
0100
0022
1033
0100
0010
2200
3300
0000
0000
0022
0133
1000
0001
,
0220
0000
0330
0000
0202
0303
1000
0000
0202
0303
0000
0000
2020
3030
0001
0000
2200
3300
0000
0000
0000
0000
0100
0000
2020
3030
0100
0000
1000
0000
0001
0000
,
2020
3030
0100
0000
0000
0000
0000
0000
0022
0033
0100
0000
1000
0000
0001
0000
2200
3300
0000
0000
0000
0000
0000
0000
0022
0033
0100
0000
1000
0000
0001
0000
,
0220
0330
0000
0000
2002
3003
0001
0000
0100
0000
0010
0000
0100
0000
0001
0000
2020
3030
0000
0000
0000
0000
0000
0000
0022
0033
0100
0000
1000
0000
0001
0000
,
2200
3300
0000
0000
0000
0000
0000
0000
0202
0303
1000
0000
0010
0000
0001
0000
2200
3300
0000
0000
0000
0000
0000
0000
0022
0033
1000
0000
0100
0000
0010
0000
,
0220
0000
0000
0000
0000
0000
0330
0000
0000
0000
0000
0000
0000
0000
0000
0000
0000
0000
0000
0000
0000
0000
0000
0000
0022
0000
0000
0000
0000
0000
0033
0000
0000
0000
0000
0000
0100
0000
0000
0000
0000
0000
0000
0000
0000
0000
0000
0000
2002
0000
0000
0000
0000
0000
3003
0000
0000
0000
0000
0000
0000
0000
0000
0000
0000
0000
0000
0000
0000
0000
0000
0000
0202
0000
0000
0000
0000
0000
0303
0000
0000
0000
0000
0000
0000
0000
0000
0000
0000
0000
0000
0000
0000
0000
0000
0000
2002
0000
0000
0000
0000
0000
3003
0000
0000
0000
0000
0000
0000
0000
0000
0000
0000
0000
0000
0000
0000
0000
0000
0000
0000
0000
0000
0000
0000
0000
0000
0000
0000
0000
0000
0000
2200
0000
0000
0000
0000
0000
3300
0000
0000
0000
0000
0000
0010
0000
0000
0000
0000
0000
0000
0000
0000
0000
0000
0000
0100
0000
0000
0000
0000
0000
0000
0000
0000
0000
0000
0000
2002
0000
0000
0000
0000
0000
3000
0000
0003
0000
0000
0000
0010
0000
0000
0000
0000
0000
0000
0000
0000
0000
0000
0000
,
2002
0000
3003
0000
0000
0000
0022
0033
0100
0000
2200
3300
0010
0000
0001
0000
0220
0330
0000
0000
0000
0000
0000
0000
0202
0303
1000
0000
0010
0000
0001
0000
,
0110
0000
0001
0000
1000
0000
0100
0000
1001
0000
0010
0000
1000
0000
0001
0000
2200
3300
0000
0000
0000
0000
0000
0000
0022
0033
0100
0000
1000
0000
0001
0000
,
2002
3003
0000
0000
0000
0000
0000
0000
0202
0303
1000
0000
0100
0000
0010
0000
0022
0033
0000
0000
0000
0000
0000
0000
0022
0033
0100
0000
1000
0000
0001
0000
,
2200
3300
0000
0000
2002
3003
0010
0000
2002
3003
0000
0000
0202
0303
0000
0000
2002
3003
0000
0000
0000
0000
0022
0033
0100
0000
2020
3030
0001
0000
2200
3300
,
0220
0330
0000
0000
0000
0000
2002
3003
0010
0000
2002
3003
0100
0000
0001
0000
2020
0000
0000
0000
3030
0000
0000
0000
0010
0000
0001
0000
0100
0000
0010
0001
,
1000
0001
0100
0010
0001
0010
0100
0001
1000
0001
0010
1000
0100
0001
0010
1000
0001
1000
0010
0001
0101
0010
1000
0100
0001
0100
0010
0001
0010
0001
0100
0001
,
1000
0100
0010
1000
0001
1000
0100
0010
0001
1000
0010
0100
1000
0001
0010
0000
0000
0000
0000
0000
0000
0000
0022
0000
0000
0000
0033
0000
2200
0000
0000
0000
,
3322
0033
0202
0000
0000
0000
0000
0303
,
0220
0330
0000
0202
0303
0000
2200
3300
0022
0033
0000
0022
0033
0000
2200
3300
,
2002
3003
0000
0110
0000
0000
1001
0000
0110
0000
0000
1001
0000
0000
0110
0000
,
1001
0000
0000
1010
0000
0000
1010
0000
1100
0000
0000
0011
0000
0000
1001
0000
,
0110
0000
0000
1001
0000
0000
0101
0000
1010
0000
0000
0101
0000
0000
1010
0000
,
0101
0000
0000
1010
0000
0000
0011
0000
1001
0000
0000
0110
0000
0000
1001
0000
,
0110
0000
0000
1001
0000
0000
1100
0000
0011
0000
0000
1100
0000
0000
1010
0000
,
0101
0000
0000
1001
0000
0000
0110
0000
1001
0000
0000
0110
0000
0000
1010
0000
,
0101
0000
0000
1010
0000
0000
0101
0000
1010
0000
0000
0101
0000
0000
1100
0000
,
0011
0000
0000
1010
0000
0000
1100
0000
0011
0000
0000
1100
0000
0000
0110
0000
,
1001
0000
0000
0110
0000
0000
1001
0000
0101
0000
0000
1010
0000
0000
1010
0000
,
0011
0000
0000
1100
0000
0000
1001
0000
1010
0000
0000
0101
0000
0000
1010
0000
,
0101
0000
0000
1100
0000
0000
0011
0000
1100
0000
0000
0011
0000
0000
1001
0000
,
0110
0000
0000
1100
0000
0000
1010
0000
0011
0000
0000
0101
0000
0000
1100
0000
,
0011
0000
0000
1100
0000
0000
1010
0000
0011
0000
0000
0101
0000
0000
1010
0000
,
0101
0000
0000
0110
0000
0000
1010
0000
0101
0000
0000
0101
0000
0000
1010
0000
,
1001
0000
0000
0011
0000
0000
0101
0000
1100
0000
0000
1010
0000
0000
0101
0000
,
1001
0000
0000
0110
0000
0000
1001
0000
0110
0000
0000
1001
0000
0000
1001
0000
,
0110
0000
0000
1001
0000
0000
0101
0000
0110
0000
0000
0011
0000
0000
1100
0000
,
0011
0000
0000
1100
0000
0000
1010
0000
0101
0000
0000
0011
0000
0000
1100
0000
,
0110
0000
0000
0101
0000
0000
1001
0000
0110
0000
0000
1001
0000
0000
0011
0000
,
0110
0000
0000
1001
0000
0000
1100
0000
0011
0000
0000
1100
0000
0000
0011
0000
,
0101
0000
0000
1010
0000
0000
0101
0000
1001
0000
0000
0110
0000
0000
1001
0000
,
0101
0000
0000
0011
0000
0000
1100
0000
0110
0000
0000
1001
0000
0000
0110
0000
,
1010
0000
0000
0011
0000
0000
1100
0000
0011
0000
0000
1100
0000
0000
0011
0000
,
1100
0000
0000
0011
0000
0000
1100
0000
1100
0000
0000
1010
0000
0000
0011
0000
,
1001
0000
0000
0110
0000
0000
0101
0000
1010
0000
0000
0101
0000
0000
0010
0000
,
0001
1000
0100
0010
0001
0100
1000
0010
0100
1000
0001
1000
0100
0010
1000
0100
,
0001
0010
0100
1000
0010
0001
0100
1000
0010
0100
0001
1000
0100
0010
1000
0100
,
0001
0010
0100
1000
0001
1000
0100
0010
1000
0100
0001
0010
0100
1000
0001
0100
,
1000
0010
0100
0001
0100
1000
0010
0100
0001
0100
0010
1000
0100
0010
0001
1000
,
0100
0001
0100
1000
0100
0010
1000
0100
0001
0010
1000
0100
0010
0001
1000
0100
,
1000
0010
0001
0100
1000
0010
0100
0001
0010
1000
0100
0001
1000
0100
0010
0100
,
0001
1000
0100
0001
1000
0100
0010
0001
1000
0010
0100
1000
0010
0001
0010
1000
,
0001
0010
0100
1000
0001
0100
0010
1000
0001
0010
0100
0010
1000
0001
0010
0100
,
1000
0001
0010
1000
0100
1000
0001
0010
1000
0010
0100
0001
0010
0100
1000
0001
,
0010
0001
0100
1000
0010
0001
1000
0010
0100
0010
0001
1000
0010
1000
0001
0100
,
1000
0100
0010
0001
0100
0010
1000
0001
0010
1000
0100
0001
0010
0001
1000
0010
,
0100
1000
0001
0100
0010
0100
0001
1000
0100
0010
0001
0100
1000
0001
0010
0001
,
0100
0010
1000
0001
0010
0001
0100
1000
0010
0001
1000
0010
0100
0010
0001
0010
,
1000
0100
0010
0001
1000
0100
0010
1000
0100
1000
0010
0100
0001
1000
0100
0010
,
0001
0100
1000
0001
0010
0001
1000
0100
0010
1000
0100
0001
0010
0001
0100
0001
,
1000
0010
0001
0100
1000
0010
0100
0001
0010
0100
1000
0001
0010
0100
0001
1000
,
0100
0010
1000
0001
0010
1000
0100
0010
1000
0100
0001
1000
0010
0100
1000
0100
,
0001
0010
1000
0100
0001
1000
0010
0001
0100
0010
1000
0100
0001
0010
1000
0010
,
0100
1000
0001
0100
0010
0001
0100
1000
0001
0100
0010
1000
0001
0010
0100
0010
,
1000
0100
0010
1000
0001
0010
0100
1000
0001
0100
0010
0001
1000
0100
0010
0001
,
0100
1000
0010
0001
1000
0010
0100
1000
0001
0100
0010
1000
0001
0010
0100
0010
,
0001
0100
1000
0001
0010
1000
0100
0001
1000
0001
0010
1000
0100
0001
0010
0001
,
1000
0010
0100
1000
0001
0100
0010
1000
0001
0010
0100
0001
1000
0100
0010
0001
,
0100
1000
0010
0001
1000
0001
0100
0010
0001
1000
0010
0100
0001
0010
0100
0001
,
1000
0100
0010
0001
0100
1000
0010
0001
1000
0010
0100
0010
0001
0100
1000
0100
,
0010
0001
0100
0010
1000
0100
0010
0001
0100
1000
0010
0001
1000
0001
0100
0010
,
0001
0100
1000
0001
0010
0100
1000
0001
0010
0001
0100
1000
0010
0001
1000
0010
,
0100
1000
0001
0100
0010
1000
0001
0100
1000
0001
0010
1000
0100
0001
1000
0001
,
0010
0001
0100
0001
0010
0001
1000
0010
0100
1000
0001
0100
0010
0100
0001
1000
,
0100
0010
1000
0001
0010
1000
0100
0001
0010
1000
0100
0010
0001
0010
1000
0100
,
0010
0001
1000
0100
0010
0001
0100
0001
0010
0100
1000
0010
0100
0010
0001
1000
,
0010
0100
0001
1000
0100
0010
0001
1000
0010
0001
0100
0010
1000
0001
0010
0100
,
0001
0100
1000
0001
0010
1000
0100
0010
1000
0100
0001
1000
0010
0100
1000
0001
,
0100
0010
1000
0001
0010
0100
1000
0100
0010
1000
0001
1000
0100
0010
0001
1000
,
0010
0100
1000
0001
0010
1000
0100
0001
1000
0010
0001
0100
0010
1000
0001
0100
,
0010
0001
1000
0100
0010
0001
0100
0001
1000
0010
0001
0100
1000
0001
0100
1000
,
0010
0100
1000
0100
0010
1000
0001
0010
0100
0001
1000
0100
0010
0001
1000
0001
,
0100
0010
0001
0100
1000
0001
0010
1000
0100
0001
1000
0100
0010
0100
0001
1000
,
0100
0001
0010
0001
0100
0001
1000
0010
0001
0100
1000
0010
0100
0001
0010
0100
,
1000
0001
1000
0100
0010
0100
1000
0001
1000
0100
0010
0100
1000
0001
0100
1000
,
0001
0010
1000
0001
0100
1000
0001
0100
0010
0001
0100
0010
1000
0001
0010
1000
,
0001
0010
0100
0001
1000
0100
0010
1000
0001
0010
0100
0001
1000
0001
0010
1000
,
0100
0010
0001
0010
1000
0001
0100
1000
0001
0100
0010
0001
1000
0010
0100
0001
,
0010
0001
1000
0010
0001
1000
0100
0001
1000
0010
0100
1000
0010
0100
0001
1000
,
0100
0001
1000
0100
0010
0100
0001
1000
0100
0010
1000
0100
0010
0100
0001
0010
,
1000
0001
0100
0001
1000
0001
0010
1000
0001
0010
0100
0001
1000
0100
0010
1000
,
0001
1000
0100
0001
0010
0001
1000
0010
0100
0001
0010
0001
1000
0010
0100
1000
,
0010
1000
0001
0010
0100
0001
1000
0001
0010
1000
0001
0010
0100
0001
1000
0001
,
0010
0001
0100
0010
1000
0010
0001
0010
1000
0001
0100
0001
0010
0100
1000
0001
,
0100
0010
0001
1000
0010
0001
1000
0010
0100
1000
0001
0100
0010
1000
0100
0001
,
1000
0001
0010
1000
0100
0010
1000
0010
0001
0010
0100
1000
0010
0001
1000
0010
,
0100
0001
0010
0001
1000
0010
0001
0010
0100
0001
1000
0001
0010
1000
0100
0010
,
1000
0100
0001
0010
1000
0001
0100
1000
0001
0100
0010
0100
1000
0010
0100
1000
,
0001
0010
0100
0001
1000
0100
0010
1000
0001
0010
0100
0001
1000
0100
0010
0001
,
0100
0010
1000
0100
0001
0100
1000
0010
0100
0001
0010
0001
1000
0010
0100
1000
,
0010
1000
0001
1000
0100
0001
0010
0001
1000
0010
0100
0001
0010
0100
1000
0010
,
0001
0100
1000
0010
0100
1000
0010
1000
0001
0010
0100
0001
1000
0100
0010
0001
,
1000
0100
0001
0010
0100
0001
1000
0001
0010
1000
0100
0010
0001
1000
0100
0001
,
0010
0001
1000
0010
0100
1000
0001
0100
0010
1000
0100
0001
1000
0001
0010
1000
,
0100
0010
0001
1000
0100
0010
1000
0001
0010
0100
0001
0010
0100
0001
1000
0001
,
0010
1000
0100
0010
0001
0100
1000
0001
0100
0010
1000
0001
0010
1000
0001
0010
,
0100
0001
1000
0001
0010
1000
0100
0010
0001
0010
1000
0001
0010
1000
0100
0010
,
0001
0010
0100
0010
1000
0010
0001
0010
0100
1000
0010
0001
1000
0100
0010
0100
,
0001
1000
0100
0001
1000
0100
0010
1000
0001
0010
0100
0001
1000
0100
0001
1000
,
0010
0001
0100
0010
1000
0100
0001
1000
0100
0001
0010
0100
1000
0001
0100
0010
,
0001
1000
0010
0001
1000
0010
0100
1000
0001
1000
0010
0001
0100
0001
1000
0001
,
0010
0001
1000
0010
0100
0001
0010
1000
0001
0010
0100
0001
1000
0001
0010
1000
,
0100
0001
1000
0010
0001
1000
0100
0001
1000
0001
0010
1000
0100
0010
0001
1000
,
0100
0001
1000
0001
0010
1000
0001
0010
0100
0001
1000
0100
0010
0001
1000
0100
,
0001
0010
0100
0010
1000
0001
0010
0100
1000
0010
0001
0010
1000
0001
0100
1000
,
0010
0001
1000
0010
0100
0001
0010
1000
0100
0001
1000
0010
0001
0100
1000
0001
,
0100
1000
0001
0100
0010
0001
1000
0001
0100
0001
0010
0100
1000
0001
0100
1000
,
0010
0100
1000
0010
0001
0100
1000
0010
0100
1000
0010
0001
0100
0010
1000
0100
,
0001
1010
0100
1000
0010
0001
0100
1000
0010
0100
0001
0010
1000
0100
0010
0001
,
0100
1000
0010
0100
0001
1000
0100
1000
0010
0001
0100
1000
0010
0100
0001
0010
,
1000
0100
0010
0001
1000
0100
0001
0010
0100
1000
0100
0010
0100
1000
0001
1000
,
0100
0010
1000
0100
0001
0010
0100
1000
0100
0010
0100
1000
0001
0010
1000
0100
,
1000
0001
1000
0100
0010
0100
1000
0001
0100
0001
0010
0100
1000
0001
1000
0100
,
0001
0100
0010
1000
0001
1000
0010
0100
0010
0001
1000
0100
0010
0100
0001
0010
,
0100
0010
1000
0100
0010
0100
1000
0100
0001
0010
0100
0010
0001
0100
1000
0100
,
0011
1000
0100
0010
1000
0100
0011
0000
0000
0000
1001
0000
0000
0000
0101
0010
,
1000
0001
0100
1000
0011
0000
0000
0000
0011
1000
0100
0010
1001
0000
0000
0000
,
0110
1000
0001
1000
0100
1000
0011
0000
0000
0000
0011
0000
0000
0000
1100
0001
,
0010
0100
0001
0010
1100
0000
0000
0000
0011
1000
0001
0010
1100
0000
0000
0000
,
0011
1000
0100
0001
1000
0100
0011
0000
0000
0000
1001
0000
0000
0000
0011
0100
,
1000
0001
0100
0001
1010
0000
0000
0000
0011
1000
0100
0010
1100
0000
0000
0000
,
0011
0100
0001
0010
0100
0010
1001
0000
0000
0000
0110
0000
0000
0000
1001
0100
,
0010
1000
0001
0010
1100
0000
0000
0000
0101
1000
0010
0100
0011
0000
0000
0000
,
1010
0001
0100
0010
1000
0100
0011
0000
0000
0000
1001
0000
0000
0000
0011
0100
,
1000
0001
0100
0001
1010
0000
0000
0000
1001
0100
0010
0001
1100
0010
0100
1000
,
0100
0010
0100
0001
1000
0010
0100
0001
0010
1000
0010
0100
0001
0010
1000
0010
,
0100
0001
0010
1000
0010
0100
0001
0010
0100
1000
0010
0100
0001
1000
0100
0010
,
0001
1000
0010
0100
0001
0010
0100
0001
1000
0010
0100
0010
0001
0100
1000
0001
,
1000
0100
0010
0100
0010
0100
0010
0100
1000
0100
1000
0100
0010
1000
0100
1000
,
0001
0100
0010
1000
0100
0001
1000
0010
0001
0100
0010
0001
1000
0100
0001
0010
,
0100
1000
0001
0100
0010
0001
1000
0001
0010
1000
0100
0010
1000
0100
0010
1000
,
0001
0010
1000
0001
0100
1000
0010
0100
0001
1000
0010
0100
1000
0001
0010
0001
,
0100
0010
1000
0100
0001
1000
0010
1000
0001
1000
0100
0010
0001
0010
1000
0001
,
0010
1000
0100
0001
1000
0100
0001
1000
0010
0100
0001
0010
1000
0010
0001
0010
,
1000
0001
0100
0010
1000
0100
0001
1000
0010
0100
1000
0001
0010
1000
0100
0001
,
0010
1000
0100
0010
1000
0100
0001
1000
0010
0100
0001
0010
1000
0010
0001
1000
,
0100
0010
0001
0100
0010
0001
1000
0001
0010
0001
0100
0010
1000
0100
0001
1000
,
0010
1000
0001
1000
0100
0010
0001
0100
1000
0001
0010
1000
0001
0010
0100
0001
,
1000
0100
0010
1000
0001
0010
1000
0001
0100
1000
0001
0100
0010
0001
1000
0010
,
0001
0100
1000
0001
0100
1000
0010
0001
1000
0100
0010
0001
0100
0010
1000
0100
,
0001
1000
0100
0001
0010
0100
1000
0100
0010
0100
1000
0001
1000
0100
0010
1000
,
0100
0001
0010
0100
1000
0010
0001
0100
1000
0010
0100
1000
0001
1000
0100
0010
,
0100
1000
0010
0001
0100
1000
0001
0010
0100
1000
0010
0100
0001
0100
1000
0100
,
0010
0001
1000
0100
0010
0100
1000
0001
0100
1000
0010
0100
1000
0001
0100
0010
,
2002
0000
0000
0000
,
3113
0000
1001
0000
0101
1010
0101
1010
,
1100
0000
1001
0000
0011
1100
1010
0101
,
0011
0000
0011
1100
0101
0000
1010
0101
,
0101
0000
0000
0011
1100
0110
0011
0110
,
1001
0000
0000
0011
1100
1010
0101
0110
,
1001
0110
0011
1100
1010
0101
1001
0000
,
0011
1100
1010
0101
1001
0110
0110
1100
,
0011
0000
0011
0110
1100
0011
0110
1001
,
1100
0000
1001
0000
0011
1100
1010
0101
,
1010
0000
0110
0000
0011
0110
1100
0101
,
1010
0000
1010
1100
0011
0000
1001
0110
,
1100
0000
0011
1100
1001
0011
1001
0110
,
1001
0000
0011
0110
1100
0011
1001
1100
,
0011
0000
0011
0110
1100
0101
1010
0101
,
1010
0101
0101
1010
1010
1001
0011
1001
,
0101
0001
0110
0000
1010
0011
1100
1001
,
1010
0000
0011
0110
1100
0011
1100
0110
,
0011
0000
0011
1100
0110
1001
0110
1010
,
0101
0000
0011
1100
1001
0000
0110
1001
,
0011
0000
0000
0011
0110
1100
0011
1100
,
0110
0000
0011
1100
1010
0110
0011
0110
,
1001
0000
1010
0110
1001
0110
0011
0101
,
1010
0000
0101
1010
0011
1100
1010
0101
,
0011
0000
0101
1010
0110
1001
0110
0101
,
1010
0000
0011
1100
1010
1001
1010
0101
,
0011
0000
0011
1100
1010
0011
1100
0110
,
1001
0000
1010
0101
0110
0000
0011
1010
,
0101
0000
0000
0011
0110
1010
0101
1001
,
0110
0000
0000
0011
1100
1100
0011
0101
,
0110
0000
0000
0011
1100
0110
0011
0110
,
1000
0001
1000
0100
0010
0100
1000
0001
1000
0100
1000
0001
1000
0100
0010
1000
,
0001
1000
0100
0010
0100
1000
0001
0100
1000
0100
0010
0100
1000
0001
0100
1000
,
0010
0100
1000
0001
0100
0010
1000
0100
0010
1000
0100
0010
0100
1000
0001
0100
,
1000
0010
1000
0100
0001
0010
0100
1000
0001
1000
0100
0010
0100
1000
0001
1000
,
0202
0000
0000
0000
,
0000
0000
0000
0000
0000
0000
0000
0000
0000
0000
0000
0000
0000
0000
0000
0000
0303
0000
0000
0000
0000
0000
0000
0000
2002
3003
0000
0000
0220
0330
0000
0000
,
2002
3003
0000
0000
0220
0330
0000
0000
2200
3300
0000
0000
0202
0303
0000
0000
0000
0000
0000
0000
2002
3003
0000
0000
0000
0000
0000
0000
0022
0033
0000
0000
,
0220
0330
0000
0000
2200
3300
0000
0000
0022
0033
0000
0000
2200
3300
0000
0000
0220
0330
0000
0000
2020
0000
3030
0000
0220
0330
0000
0000
2002
3003
0220
0330
,
2002
3003
0220
0330
2002
3003
0000
0000
0000
0000
0000
0000
0000
0000
0000
0000
0000
0000
0000
0000
0000
0000
0000
0000
0000
0000
0000
0000
0000
0000
0000
0000
;

//---------------dance-single - ----------------
#NOTES:
     dance-single:
     :
     Challenge:
     15:
     1.000,1.000,1.000,1.000,1.000,3337.000,573.000,435.000,0.000,39.000:
0202
0000
0000
0000
,
0000
0000
0000
0000
0000
0000
0000
0303
,
1001
0010
0100
1000
0001
0100
1010
0000
0000
0000
2222
3333
0000
0000
0101
0010
,
1000
0100
0010
1000
0101
0000
0000
0000
0011
0100
1000
0100
0011
0000
0000
0000
,
0101
0010
1000
0100
0010
1000
0101
0000
0000
0000
2222
3333
0000
0000
0101
1000
,
0010
0100
1000
0010
0101
0000
0000
0000
0101
0010
1000
0100
0011
0000
0000
0000
,
0011
0100
1000
0100
0001
0100
1010
0000
0000
0000
2222
3333
0000
0000
0101
0010
,
1000
0001
0010
1000
0101
0000
0000
0000
0011
0100
1000
0100
0011
0000
0000
0000
,
0101
0010
1000
0100
0010
1000
0101
0000
0000
0000
2222
3333
0000
0000
0101
1000
,
0010
0100
1000
0010
0101
0000
0000
0000
0101
0010
1000
0100
0011
0000
0000
0000
,
1100
0010
0001
0100
1000
0100
0011
0000
0000
0000
2222
3333
0000
0000
1010
0001
,
0100
1000
0001
0100
1010
0000
0000
0000
0011
1000
0100
1000
0011
0000
0000
0000
,
1001
0100
0010
1000
0100
1000
0011
0000
0000
0000
2222
3333
0000
0000
0011
1000
,
0100
0010
0001
0100
1010
0000
0000
0000
1001
0010
0100
1000
0011
0000
0000
0000
,
0101
0010
1000
0001
0010
1000
0101
0000
0000
0000
2222
3333
0000
0000
0101
1000
,
0010
0100
1000
0010
0101
0000
0000
0000
0101
0010
1000
0001
0110
0000
0000
0000
,
0011
0100
1000
0010
0001
0010
1100
0000
0000
0000
2222
3333
0000
0000
0101
0000
,
1000
0001
0010
1000
0100
0010
0001
0100
1000
0010
0001
1000
0100
0001
0010
0000
,
1001
0010
0001
1000
0100
1000
0011
0000
0000
0000
2222
3333
0000
0000
0101
1000
,
0010
0100
1000
0010
0101
0000
0000
0000
0110
0001
1000
0100
0011
0000
0000
0000
,
0101
1000
0010
0001
1000
0001
0110
0000
0000
0000
2222
3333
0000
0000
0101
0010
,
1000
0100
0010
1000
0101
0000
0000
0000
0101
1000
0010
0100
1001
0000
0000
0000
,
0011
1000
0100
1000
0010
0100
1001
0000
0000
0000
2222
3333
0000
0000
1010
0100
,
0001
1000
0100
1000
0011
0000
0000
0000
1001
0100
0010
0001
1100
0000
0000
0000
,
0101
1000
0010
0001
0100
0001
1010
0000
0000
0000
2222
3333
0000
0000
1010
0100
,
0001
1000
0100
1000
0011
0000
0000
0000
0101
0010
1000
0100
0011
0000
0000
0000
,
0101
1000
0010
0001
1000
0001
0110
0000
0000
0000
2222
3333
0000
0000
0101
0010
,
1000
0001
0010
1000
0101
0000
0000
0000
0101
1000
0010
0100
1001
0000
0000
0000
,
1100
0001
0010
1000
0100
1000
0011
0000
0000
0000
2222
3333
0000
0000
0011
1000
,
0100
1000
0010
0001
1100
0000
0000
0000
0011
1000
0100
1000
0011
0000
0000
0000
,
0001
0010
1000
0010
1000
0100
1000
0010
0001
1000
0010
0100
1000
0001
1000
0010
,
1000
0100
0001
0010
1000
0100
0010
1000
0001
0100
1000
0010
1000
0100
1000
0010
,
0001
1000
0010
0100
1000
0010
0001
0010
1000
0100
0010
1000
0100
1000
0010
0001
,
2020
0000
0000
0000
0000
0000
0000
0000
0000
0000
0000
0000
0000
0000
0000
0000
3030
0100
0001
0100
0010
0001
1000
0000
0100
0000
1000
0000
0001
0000
0010
0000
,
0100
0000
0001
0000
1000
0000
0001
0000
0100
0000
0010
0000
1000
0000
0001
0000
0100
0010
0001
0100
1000
0001
0010
0000
0100
0000
1000
0000
0100
0000
1000
0000
,
0010
0000
0001
0000
0010
0000
1000
0000
0100
0000
0010
0000
1000
0000
0001
0000
0100
0010
0001
0100
1000
0001
0010
0000
0100
0000
0001
0000
0010
0000
1000
0000
,
0010
0000
0100
0000
0001
0000
1000
0000
0010
0000
0100
0000
1000
0000
0001
0000
1000
0100
0010
0001
0100
0010
1000
0000
0010
0000
0001
0000
1000
0000
0010
0000
,
0100
0000
1000
0000
0001
0000
1000
0000
0010
0000
0100
0000
1000
0000
0010
0000
0001
0100
1000
0100
0010
0001
1000
0000
0100
0000
1000
0000
0010
0000
0001
0000
,
0010
0000
1000
0000
0100
0000
1000
0000
0010
0000
0001
0000
0010
0000
1000
0000
0001
0010
0100
0001
0010
0001
1000
0000
0100
0000
1000
0000
0010
0000
0001
0000
,
0010
0000
1000
0000
0100
0000
1000
0000
0010
0000
0001
0000
1000
0000
0010
0000
0100
0010
1000
0100
0001
0100
1000
0000
0010
0000
0100
0000
1000
0000
0001
0000
,
1000
0000
0010
0000
0100
0000
1000
0000
0001
0000
1000
0000
0010
0000
0100
0000
1000
0010
0001
0100
1000
0001
0010
0000
0100
0000
1000
0000
0010
0000
0001
0000
,
0010
1000
0100
1000
0010
0001
0010
1000
0100
0010
0001
1000
0010
0100
0001
0010
,
1000
0001
0100
0010
0001
0100
1000
0100
0010
1000
0100
0010
0001
1000
0001
0100
,
0010
1000
0001
0010
0100
0001
0100
0001
0010
0100
1000
0010
0001
1000
0100
0010
,
0001
0010
0100
0001
0010
0001
0100
0001
1000
0100
0010
1000
0001
0010
1000
0100
,
0001
1000
0010
0001
1000
0100
0001
0010
0100
1000
0010
0001
1000
0100
0010
1000
,
0001
0010
0100
1000
0010
0001
0100
0010
1000
0001
0010
0100
0001
1000
0100
0010
,
0001
0100
0010
0001
1000
0010
0001
1000
0100
0001
0010
0100
1000
0001
0010
0100
,
0001
1000
0100
1000
0010
1000
0100
0010
1000
0100
0010
0100
0001
1000
0100
1000
,
0010
1000
0001
0100
1000
0100
0001
1000
0010
0001
0100
0001
0010
0001
0100
0010
,
1000
0001
0100
0001
0010
1000
0100
0001
1000
0100
0010
1000
0001
0010
0100
1000
,
0001
0100
0010
0100
1000
0100
0001
0010
0100
1000
0010
0001
0100
0001
0010
0100
,
0001
0010
1000
0001
0010
0001
0100
0010
1000
0100
0001
0100
0010
0001
0100
0010
,
1000
0001
0100
0010
1000
0100
0001
1000
0010
0001
0100
0010
0001
0100
1000
0100
,
0010
0100
0001
0010
1000
0001
0100
0010
1000
0001
0010
0100
0001
0010
0100
1000
,
0001
0100
0010
0100
1000
0010
0001
1000
0010
0001
0100
0010
0001
0100
1000
0001
,
0010
0100
0001
1000
0010
1000
0100
1000
0010
1000
0100
1000
0010
0001
0010
1000
,
0001
0010
1000
0100
1000
0001
0100
1000
0010
0100
0001
1000
0010
0001
0100
1000
,
0010
0100
0001
0010
0100
1000
0001
0100
1000
0001
0010
0100
0001
1000
0100
0010
,
0001
1000
0010
0100
0001
0010
1000
0100
0001
1000
0100
0001
1000
0100
0001
1000
,
0010
0100
0001
0100
1000
0001
0010
1000
0001
1000
0100
1000
0010
0001
0100
1000
,
0001
0010
1000
0100
0001
1000
0010
0100
0001
1000
0010
0100
1000
0001
0010
1000
,
0001
0010
0100
0001
1000
0100
0001
0100
1000
0100
0010
1000
0001
0010
0100
0010
,
0001
0100
1000
0001
0010
1000
0100
0010
0001
0100
1000
0100
0010
0100
0001
0010
,
1000
0010
0100
0010
1000
0010
0001
0100
0010
0100
1000
0001
0010
1000
0100
0010
,
0001
1000
0010
0001
0100
0001
1000
0001
0010
1000
0100
0010
0001
1000
0100
1000
,
0010
0100
0001
0100
1000
0001
0100
0001
1000
0001
0010
0100
0001
1000
0100
0010
,
1000
0100
0010
0001
0100
0010
1000
0100
0001
1000
0100
0010
1000
0100
0001
1000
,
0010
1000
0100
0010
0001
1000
0100
0001
1000
0001
0010
0001
1000
0001
0100
1000
,
0001
0010
1000
0001
0100
0010
1000
0100
1000
0010
0001
1000
0010
0100
1000
0001
,
1000
0010
1000
0100
0010
1000
0001
0010
1000
0100
1000
0001
1000
0010
1000
0100
,
1000
0010
0001
0010
1000
0100
1000
0010
1000
0001
0100
0010
1000
0001
0100
1000
,
0010
0001
0010
1000
0100
0010
1000
0000
2002
0000
0000
0000
0003
0000
0000
0000
,
0022
0000
0000
3000
,
2230
0000
3020
0003
,
2032
0000
3020
0000
,
1333
0100
0010
0100
1000
0010
0001
1000
0100
0001
0010
0001
1000
0001
0100
0001
1000
0001
0010
0001
1000
0001
0100
0001
1000
0001
0010
0001
1000
0001
0100
0000
,
0001
1000
0010
0001
1000
0010
0100
0001
1000
0010
1000
0100
0202
1303
0010
0001
,
0202
1303
0010
1000
0202
0313
1000
0100
2020
3030
0000
0000
0202
1303
0010
0001
,
2200
0000
3300
0000
2002
3003
0010
0000
2002
3003
0000
0000
0220
0330
0001
0000
2020
3030
0000
0000
0000
0000
1000
0000
0220
0330
1000
0000
0010
0000
0001
0000
,
0220
0330
1000
0000
0000
0000
0000
0000
0202
0303
1000
0000
0010
0000
0001
0000
2020
3030
0000
0000
0000
0000
0000
0000
0202
0303
1000
0000
0010
0000
0001
0000
,
2200
3300
0000
0000
0022
0033
0001
0000
1000
0000
0100
0000
1000
0000
0001
0000
0220
0330
0000
0000
0000
0000
0000
0000
0202
0303
1000
0000
0010
0000
0001
0000
,
2020
3030
0000
0000
0000
0000
0000
0000
2002
3003
0010
0000
0100
0000
0001
0000
2020
3030
0000
0000
0000
0000
0000
0000
0202
0303
0010
0000
1000
0000
0100
0000
,
2200
0000
0000
0000
0000
0000
3300
0000
0000
0000
0000
0000
0000
0000
0000
0000
0000
0000
0000
0000
0000
0000
0000
0000
0202
0000
0000
0000
0000
0000
0303
0000
0000
0000
0000
0000
1000
0000
0000
0000
0000
0000
0000
0000
0000
0000
0000
0000
0022
0000
0000
0000
0000
0000
0033
0000
0000
0000
0000
0000
0000
0000
0000
0000
0000
0000
0000
0000
0000
0000
0000
0000
2002
0000
0000
0000
0000
0000
3003
0000
0000
0000
0000
0000
0000
0000
0000
0000
0000
0000
0000
0000
0000
0000
0000
0000
0022
0000
0000
0000
0000
0000
0033
0000
0000
0000
0000
0000
0000
0000
0000
0000
0000
0000
0000
0000
0000
0000
0000
0000
0000
0000
0000
0000
0000
0000
0000
0000
0000
0000
0000
0000
2020
0000
0000
0000
0000
0000
3030
0000
0000
0000
0000
0000
0100
0000
0000
0000
0000
0000
0000
0000
0000
0000
0000
0000
1000
0000
0000
0000
0000
0000
0000
0000
0000
0000
0000
0000
0022
0000
0000
0000
0000
0000
0030
0000
0003
0000
0000
0000
0100
0000
0000
0000
0000
0000
0000
0000
0000
0000
0000
0000
,
0022
0000
0033
0000
0000
0000
0202
0303
1000
0000
2020
3030
0100
0000
0001
0000
2200
3300
0000
0000
0000
0000
0000
0000
2002
3003
0010
0000
0100
0000
0001
0000
,
2200
3300
0001
0000
0220
0330
1000
0000
0022
0033
0100
0000
0220
0330
0001
0000
2020
3030
0000
0000
0000
0000
0000
0000
0202
0303
1000
0000
0010
0000
0001
0000
,
0022
0033
0000
0000
0000
0000
0000
0000
2002
3003
0010
0000
2002
3003
0100
0000
0202
0303
0000
0000
0000
0000
0000
0000
0202
0303
1000
0000
0010
0000
0001
0000
,
2020
3030
0000
0000
0022
0033
0100
0000
0022
0033
0000
0000
2002
3003
0000
0000
0022
0033
0000
0000
0000
0000
0202
0303
1000
0000
0220
0330
0001
0000
2020
3030
,
2200
3300
0000
0000
0000
0000
0022
0033
0100
0000
0022
0033
1000
0000
0001
0000
0220
0000
0000
0000
0330
0000
0000
0000
0100
0000
0001
0000
1000
0000
0100
0001
,
0010
0001
1000
0100
0001
0100
1000
0001
0010
0001
0100
0010
1000
0001
0100
0010
0001
0010
0100
0001
1001
0100
0010
1000
0001
1000
0100
0001
0100
0001
1000
0001
,
0010
1000
0100
0010
0001
0010
1000
0100
0001
0010
0100
1000
0010
0001
0100
0000
0000
0000
0000
0000
0000
0000
0202
0000
0000
0000
0303
0000
2020
0000
0000
0000
,
3232
0303
2002
0000
0000
0000
0000
3003
,
2200
3300
0000
2002
3003
0000
2020
3030
0202
0303
0000
0202
0303
0000
2020
3030
,
0022
0000
0033
0000
0000
0000
2200
3300
0000
0000
0000
0000
0022
0000
0033
0000
2200
0000
3300
0000
0000
0000
0022
0000
0033
0000
0000
0000
2200
0000
3300
0000
,
0022
0033
0000
2200
3300
0000
0022
0033
2220
3330
0000
0222
0333
0000
0222
0333
,
2220
3330
0000
0222
0333
0000
2002
3003
0220
0330
0000
2002
3003
0000
0220
0330
,
2020
3030
0000
2222
3333
0000
0202
0303
0022
0033
0000
2200
3300
0000
0022
0033
,
2200
3300
0000
0022
0033
0000
2020
3030
0202
0303
0000
2200
3300
0000
0220
0330
,
2002
3003
0000
0022
0033
0000
2200
3300
0022
0033
0000
2200
3300
0000
0220
0330
,
2002
3003
0000
0220
0330
0000
2002
3003
0220
0330
0000
2002
3003
0000
2200
3300
,
0202
0303
0000
0220
0330
0000
2020
3030
0202
0303
0000
2020
3030
0000
2200
3300
,
0022
0033
0000
2200
3300
0000
0022
0033
2002
3003
0000
0110
0000
0000
0110
0000
,
0101
0000
0000
1010
0000
0000
0011
0000
0110
0000
0000
1001
0000
0000
0110
0000
,
1001
0000
0000
1010
0000
0000
0101
0000
1010
0000
0000
0101
0000
0000
0011
0000
,
1100
0000
0000
1010
0000
0000
0110
0000
0101
0000
0000
1001
0000
0000
1010
0000
,
0101
0000
0000
1010
0000
0000
0110
0000
0101
0000
0000
1001
0000
0000
0110
0000
,
1001
0000
0000
1100
0000
0000
0110
0000
1001
0000
0000
1001
0000
0000
0110
0000
,
0011
0000
0000
0101
0000
0000
1001
0000
1010
0000
0000
0110
0000
0000
1001
0000
,
0011
0000
0000
1100
0000
0000
0011
0000
1100
0000
0000
0011
0000
0000
0011
0000
,
1100
0000
0000
0011
0000
0000
1001
0000
1100
0000
0000
0101
0000
0000
1010
0000
,
0101
0000
0000
1010
0000
0000
0110
0000
1001
0000
0000
0101
0000
0000
1010
0000
,
1100
0000
0000
1001
0000
0000
0011
0000
1100
0000
0000
0011
0000
0000
0101
0000
,
1100
0000
0000
0011
0000
0000
1010
0000
0101
0000
0000
1010
0000
0000
0101
0000
,
1001
0000
0000
0110
0000
0000
1001
0000
0011
0000
0000
1100
0000
0000
0011
0000
,
1001
0000
0000
0101
0000
0000
1010
0000
1100
0000
0000
0011
0000
0000
1100
0000
,
0110
0000
0000
0101
0000
0000
1010
0000
0101
0000
0000
1010
0000
0000
0101
0000
,
1010
0000
0000
0101
0000
0000
1010
0000
1010
0000
0000
0110
0000
0000
0101
0000
,
0011
0000
0000
1100
0000
0000
1001
0000
0110
0000
0000
1001
0000
0000
0100
0000
,
0001
0010
1000
0100
0001
1000
0010
0100
1000
0010
0001
0010
1000
0100
0010
1000
,
0001
0100
1000
0010
0100
0001
1000
0010
0100
1000
0001
0010
1000
0100
0010
1000
,
0001
0100
1000
0010
0001
0010
1000
0100
0010
1000
0001
0100
1000
0010
0001
1000
,
0010
0100
1000
0001
1000
0010
0100
1000
0001
1000
0100
0010
1000
0100
0001
0010
,
1000
0001
1000
0010
1000
0100
0010
1000
0001
0100
0010
1000
0100
0001
0010
1000
,
0010
0100
0001
1000
0010
0100
1000
0001
0100
0010
1000
0001
0010
1000
0100
1000
,
0001
0010
1000
0001
0010
1000
0100
0001
0010
0100
1000
0010
0100
0001
0100
0010
,
0001
0100
1000
0010
0001
1000
0100
0010
0001
0100
1000
0100
0010
0001
0100
1000
,
0010
0001
0100
0010
1000
0010
0001
0100
0010
0100
1000
0001
0100
1000
0010
0001
,
0100
0001
1000
0010
0100
0001
0010
0100
1000
0100
0001
0010
0100
0010
0001
1000
,
0010
1000
0100
0001
1000
0100
0010
0001
0100
0010
1000
0001
0100
0001
0010
0100
,
1000
0010
0001
1000
0100
1000
0001
0010
1000
0100
0001
1000
0010
0001
0100
0001
,
1000
0100
0010
0001
0100
0001
1000
0010
0100
0001
0010
0100
1000
0100
0001
0100
,
0010
1000
0100
0001
0010
1000
0100
0010
1000
0010
0100
1000
0001
0010
1000
0100
,
0001
1000
0010
0001
0100
0001
0010
1000
0100
0010
1000
0001
0100
0001
1000
0001
,
0010
0100
0001
1000
0010
0100
1000
0001
0100
1000
0010
0001
0100
1000
0001
0010
,
1000
0100
0010
0001
0100
0010
1000
0100
0010
1000
0001
0010
0100
1000
0010
1000
,
0001
0100
0010
1000
0001
0010
0100
0001
1000
0100
0010
1000
0001
0100
0010
0100
,
1000
0010
0001
1000
0100
0001
1000
0010
0001
1000
0100
0010
0001
0100
1000
0100
,
0010
1000
0100
0010
0001
0100
1000
0010
0001
1000
0100
0001
0010
1000
0100
0001
,
1000
0010
0100
0001
0010
0100
1000
0010
0001
1000
0100
0010
0001
0100
1000
0100
,
0001
1000
0010
0001
0100
0010
1000
0001
0010
0001
0100
0010
1000
0001
0100
0001
,
0010
0100
1000
0010
0001
1000
0100
0010
0001
0100
1000
0001
0010
1000
0100
0001
,
1000
0010
0100
0001
0010
0001
1000
0100
0001
0010
0100
1000
0001
0100
1000
0001
,
0010
1000
0100
0001
1000
0010
0100
0001
0010
0100
1000
0100
0001
1000
0010
1000
,
0100
0001
1000
0100
0010
1000
0100
0001
1000
0010
0100
0001
0010
0001
1000
0100
,
0001
1000
0010
0001
0100
1000
0010
0001
0100
0001
1000
0010
0100
0001
0010
0100
,
1000
0010
0001
1000
0100
0010
0001
1000
0010
0001
0100
0010
1000
0001
0010
0001
,
0100
0001
1000
0001
0100
0001
0010
0100
1000
0010
0001
1000
0100
1000
0001
0010
,
1000
0100
0010
0001
0100
0010
1000
0001
0100
0010
1000
0100
0001
0100
0010
1000
,
0100
0001
0010
1000
0100
0001
1000
0001
0100
1000
0010
0100
1000
0100
0001
0010
,
0100
1000
0001
0010
1000
0100
0001
0010
0100
0001
1000
0100
0010
0001
0100
1000
,
0001
1000
0010
0001
0100
0010
1000
0100
0010
1000
0001
0010
0100
1000
0010
0001
,
1000
0100
0010
0001
0100
1000
0010
1000
0100
0010
0001
0010
1000
0100
0001
0010
,
0100
1000
0010
0001
0100
0010
1000
0001
0010
0100
0001
1000
0100
0010
0001
1000
,
0100
0001
0010
1000
0100
0001
1000
0001
0010
0100
0001
1000
0010
0001
1000
0010
,
0100
1000
0010
1000
0100
0010
0001
0100
1000
0001
0010
1000
0100
0001
0010
0001
,
1000
0100
0001
1000
0010
0001
0100
0010
1000
0001
0010
1000
0100
1000
0001
0010
,
1000
0001
0100
0001
1000
0001
0010
0100
0001
1000
0010
0100
1000
0001
0100
1000
,
0010
0001
0010
1000
0100
1000
0010
0001
0010
1000
0100
1000
0010
0001
1000
0010
,
0001
0100
0010
0001
1000
0010
0001
1000
0100
0001
1000
0100
0010
0001
0100
0010
,
0001
0100
1000
0001
0010
1000
0100
0010
0001
0100
1000
0001
0010
0001
0100
0010
,
1000
0100
0001
0100
0010
0001
1000
0010
0001
1000
0100
0001
0010
0100
1000
0001
,
0100
0001
0010
0100
0001
0010
1000
0001
0010
0100
1000
0010
0100
1000
0001
0010
,
1000
0001
0010
1000
0100
1000
0001
0010
1000
0100
0010
1000
0100
1000
0001
0100
,
0010
0001
1000
0001
0010
0001
0100
0010
0001
0100
1000
0001
0010
1000
0100
0010
,
0001
0010
1000
0001
0100
0001
0010
0100
1000
0001
0100
0001
0010
0100
1000
0010
,
0100
0010
0001
0100
1000
0001
0010
0001
0100
0010
0001
0100
1000
0001
0010
0001
,
0100
0001
1000
0100
0010
0100
0001
0100
0010
0001
1000
0001
0100
1000
0010
0001
,
1000
0100
0001
0010
0100
0001
0010
0100
1000
0010
0001
1000
0100
0010
1000
0001
,
0010
0001
0100
0010
1000
0100
0010
0100
0001
0100
1000
0010
0100
0001
0010
0100
,
1000
0001
0100
0001
0010
0100
0001
0100
1000
0001
0010
0001
0100
0010
1000
0100
,
0010
1000
0001
0100
0010
0001
1000
0010
0001
1000
0100
1000
0010
0100
1000
0010
,
0001
0100
1000
0001
0010
1000
0100
0010
0001
0100
1000
0001
0010
1000
0100
0001
,
1000
0100
0010
1000
0001
1000
0010
0100
1000
0001
0100
0001
0010
0100
1000
0010
,
0100
0010
0001
0010
1000
0001
0100
0001
0010
0100
1000
0001
0100
1000
0010
0100
,
0001
1000
0010
0100
1000
0010
0100
0010
0001
0100
1000
0001
0010
1000
0100
0001
,
0010
1000
0001
0100
1000
0001
0010
0001
0100
0010
1000
0100
0001
0010
1000
0001
,
0100
0001
0010
0100
1000
0010
0001
1000
0100
0010
1000
0001
0010
0001
0100
0010
,
1000
0100
0001
0010
1000
0100
0010
0001
0100
1000
0001
0100
1000
0001
0010
0001
,
0100
0010
1000
0100
0001
1000
0010
0001
1000
0100
0010
0001
0100
0010
0001
0100
,
1000
0001
0010
0001
0100
0010
1000
0100
0001
0100
0010
0001
0100
0010
1000
0100
,
0001
0100
1000
0100
0010
0100
0001
0100
1000
0010
0100
0001
0010
1000
0100
1000
,
0001
0010
1000
0001
0010
1000
0100
0010
0001
0100
1000
0001
0010
1000
0001
0010
,
0100
0001
1000
0100
0010
1000
0001
0010
1000
0001
0100
1000
0010
0001
1000
0100
,
0001
0010
0100
0001
0010
0100
1000
0010
0001
0010
0100
0001
1000
0001
0010
0001
,
0100
0001
0010
0100
1000
0001
0100
0010
0001
0100
1000
0001
0010
0001
0100
0010
,
1000
0001
0010
0100
0001
0010
1000
0001
0010
0001
0100
0010
1000
0100
0001
0010
,
1000
0001
0010
0001
0100
0010
0001
0100
1000
0001
0010
1000
0100
0001
0010
1000
,
0001
0100
1000
0100
0010
0001
0100
1000
0010
0100
0001
0100
0010
0001
1000
0010
,
0100
0001
0010
0100
1000
0001
0100
0010
1000
0001
0010
0100
0001
1000
0010
0001
,
1000
0010
0001
1000
0100
0001
0010
0001
1000
0001
0100
1000
0010
0001
1000
0010
,
0100
1000
0010
0100
0001
1000
0010
0100
1000
0010
0100
0001
1000
0100
0010
1000
,
0001
0110
1000
0010
0100
0001
1000
0010
0100
1000
0001
0100
0010
1000
0100
0001
,
1000
0010
0100
1000
0001
0010
1000
0010
0100
0001
1000
0010
0100
1000
0001
0100
,
0010
1000
0100
0001
0010
1000
0001
0100
1000
0010
1000
0100
1000
0010
0001
0010
,
1000
0100
0010
1000
0001
0100
1000
0010
1000
0100
1000
0010
0001
0100
0010
1000
,
0010
0001
0010
1000
0100
1000
0010
0001
1000
0001
0100
1000
0010
0001
0010
1000
,
0001
1000
0100
0010
0001
0010
0100
1000
0100
0001
0010
1000
0100
1000
0001
0100
,
1000
0100
0010
1000
0100
1000
0010
1000
0001
0100
1000
0100
0001
1000
0010
1000
,
0101
0010
1000
0100
0010
1000
0101
0000
0000
0000
2222
0000
3333
0000
1001
0100
,
0010
0001
1000
0010
0101
0000
0000
0000
0101
0010
1000
0100
0011
0000
0000
0000
,
1100
0010
0001
0010
1000
0010
0101
0000
0000
0000
2222
3333
0000
0000
1010
0001
,
0100
1000
0001
0100
1010
0000
0000
0000
0101
0010
0001
0100
1010
0000
0000
0000
,
0101
0010
1000
0001
0010
1000
0101
0000
0000
0000
2222
3333
0000
0000
0101
1000
,
0010
0001
1000
0001
0110
0000
0000
0000
0101
0010
1000
0100
1010
0000
0000
0000
,
0101
1000
0001
0100
1000
0100
0011
0000
0000
0000
2222
3333
0000
0000
0011
1000
,
0100
0010
0001
0100
1010
0000
0000
0000
1001
0010
0100
1000
0101
0000
0000
0000
,
0110
0001
1000
0100
0010
1000
0101
0000
0000
0000
2222
3333
0000
0000
0101
1000
,
0010
0001
1000
0001
0110
0000
0000
0000
0001
1000
0100
0001
1010
0100
1000
0010
,
1000
0100
1000
0001
0010
0100
1000
0001
0100
0010
0100
1000
0001
0100
0010
0100
,
1000
0001
0100
0010
0100
1000
0001
0100
1000
0010
0100
1000
0001
0010
1000
0100
,
0001
0010
0100
1000
0001
0100
1000
0001
0010
0100
1000
0100
0001
1000
0010
0001
,
0010
1000
0100
1000
0100
1000
0100
1000
0010
1000
0010
1000
0100
0010
1000
0010
,
0001
1000
0100
0010
1000
0001
0010
0100
0001
1000
0100
0001
0010
1000
0001
0100
,
1000
0010
0001
1000
0100
0001
0010
0001
0100
0010
1000
0100
0010
1000
0100
0010
,
0001
0100
0010
0001
1000
0010
0100
1000
0001
0010
0100
1000
0010
0001
0100
0001
,
1000
0100
0010
1000
0001
0010
0100
0010
0001
0010
1000
0100
0001
0100
0010
0001
,
0100
0010
1000
0001
0010
1000
0001
0010
0100
1000
0001
0100
0010
0100
0001
0100
,
0010
0001
1000
0100
0010
1000
0001
0010
0100
1000
0010
0001
0100
0010
1000
0001
,
0100
0010
1000
0100
0010
1000
0001
0010
0100
1000
0001
0100
0010
0100
0001
0010
,
1000
0100
0001
1000
0100
0001
0010
0001
0100
0001
1000
0100
0010
1000
0001
0010
,
0100
0010
0001
0010
1000
0100
0001
1000
0010
0001
0100
0010
0001
0100
1000
0001
,
0010
1000
0100
0010
0001
0100
0010
0001
1000
0010
0001
1000
0100
0001
0010
0100
,
0001
1000
0010
0001
1000
0010
0100
0001
0010
1000
0100
0001
1000
0100
0010
1000
,
0001
0010
1000
0001
0100
1000
0010
1000
0100
1000
0010
0001
0010
1000
0100
0010
,
1000
0001
0100
1000
0010
0100
0001
1000
0010
0100
1000
0010
0001
0010
1000
0100
,
1000
0010
0100
0001
1000
0010
0001
0100
1000
0010
0100
1000
0001
1000
0010
1000
,
0100
0001
0010
1000
0100
1000
0010
0001
1000
0010
0100
1000
0010
0001
1000
0100
,
2222
0000
0000
0000
0000
0000
0000
3300
,
2233
0000
3300
0000
0022
0033
0000
0000
2002
3003
0220
0330
2002
3003
0220
0330
,
2020
0000
3030
0000
0000
0000
0000
0000
0022
0000
0033
0000
0000
0000
0000
0000
0202
0000
0303
0000
2020
0000
3030
0000
0220
0000
0330
0000
2002
3003
0000
0000
,
0202
0303
0000
0000
0000
0000
0000
0000
0202
0303
0000
0000
2020
3030
0000
0000
2002
3003
0000
0000
0000
0000
0000
0000
0220
0330
0000
0000
2002
3003
0000
0000
,
2002
3003
0000
0000
0000
0000
0000
0000
0000
0000
0000
0000
2222
3333
0000
0000
2020
3030
0000
0000
2200
3300
0000
0000
0202
0303
0000
0000
2200
3300
0000
0000
,
0022
0033
0000
0000
0000
0000
0000
0000
0000
0000
0000
0000
0101
0000
0000
0000
1010
0000
0000
0000
0110
0000
0000
0000
1001
0000
0000
0000
1100
0000
0000
0000
,
0011
1100
0101
1010
0110
1001
0011
0000
,
0101
1010
0110
1001
0011
1100
1100
1010
,
0101
0000
0101
1100
1010
0101
1100
0011
,
1010
0000
0011
0000
0101
1010
0110
1001
,
0110
0000
1100
0000
0101
1100
1010
1001
,
0110
0000
0110
1010
0101
0000
0011
1100
,
1010
0000
0101
1010
0011
0101
0011
1100
,
0011
0000
0101
1100
1010
0101
0011
1010
,
0101
0000
0101
1100
1010
1001
0110
1001
,
0110
1001
1001
0110
0110
0011
0101
0011
,
1001
0001
1100
0000
0110
0101
1010
0011
,
0110
0000
0101
1100
1010
0101
1010
1100
,
0101
0000
0101
1010
1100
0011
1100
0110
,
1001
0000
0101
1010
0011
0000
1100
0011
,
0101
0000
0000
0101
1100
1010
0101
1010
,
1100
0000
0101
1010
0110
1100
0101
1100
,
0011
0000
0110
1100
0011
1100
0101
1001
,
0110
0000
1001
0110
0101
1010
0110
1001
,
0101
0000
1001
0110
1100
0011
1100
1001
,
0110
0000
0101
1010
0110
0011
0110
1001
,
0101
0000
0101
1010
0110
0101
1010
1100
,
0011
0000
0110
1001
1100
0000
0101
0110
,
1001
0000
0000
0101
1100
0110
1001
0011
,
1100
0000
0000
0101
1010
1010
0101
1001
,
1100
0000
0000
0101
1010
1100
0101
1100
,
0010
0001
0010
1000
0100
1000
0010
0001
0010
1000
0010
0001
0010
1000
0100
0010
,
0001
0010
1000
0100
1000
0010
0001
1000
0010
1000
0100
1000
0010
0001
1000
0010
,
0100
1000
0010
0001
1000
0100
0010
1000
0100
0010
1000
0100
1000
0010
0001
1000
,
0010
0100
0010
1000
0001
0100
1000
0010
0001
0010
1000
0100
1000
0010
0001
0010
,
2002
0000
0000
0000
,
0000
0000
0000
0000
0000
0000
0000
0000
0000
0000
0000
0000
0000
0000
0000
0000
3003
0000
0000
0000
0000
0000
0000
0000
0022
0033
0000
0000
2200
3300
0000
0000
,
0022
0033
0000
0000
2200
3300
0000
0000
2020
3030
0000
0000
2002
3003
0000
0000
0000
0000
0000
0000
0022
0033
0000
0000
0000
0000
0000
0000
0202
0303
0000
0000
,
2200
3300
0000
0000
2020
3030
0000
0000
0202
0303
0000
0000
2020
3030
0000
0000
2200
3300
0000
0000
0220
0000
0330
0000
2200
3300
0000
0000
0022
0033
2200
3300
,
0022
0033
2200
3300
0022
0033
0000
0000
0000
0000
0000
0000
0000
0000
0000
0000
0000
0000
0000
0000
0000
0000
0000
0000
0000
0000
0000
0000
0000
0000
0000
0000
;
