#TITLE:NEO GRAVITY;
#SUBTITLE:(Extended);
#ARTIST:lapix;
#TITLETRANSLIT:;
#SUBTITLETRANSLIT:;
#ARTISTTRANSLIT:;
#CREDIT:;
#BANNER:BN.png;
#BACKGROUND:BG.png;
#LYRICSPATH:;
#CDTITLE:CDTitleKIRBY.png;
#MUSIC:lapix - NEO GRAVITY (Extended).ogg;
#OFFSET:-0.136;
#SAMPLESTART:167.045;
#SAMPLELENGTH:20.000;
#SELECTABLE:YES;
#BPMS:0.000=165.000;
#STOPS:;
#BGCHANGES:;
// cache tags:
#FIRSTBEAT:3.000;
#LASTBEAT:596.000;
#SONGFILENAME:Songs/Owem's Simfiles 08 - 1.2/NEO GRAVITY - [Kirby5464] v1.0.0/NEO GRAVITY.sm;
#HASMUSIC:1;
#HASBANNER:1;
#MUSICLENGTH:217.129;
// end cache tags

//---------------dance-single - 15- (Kirby5464)----------------
#NOTES:
     dance-single:
     15- (Kirby5464):
     Challenge:
     15:
     1.000,1.000,0.695,0.953,1.000,1302.000,151.000,207.000,408.000,0.000:
0000
0000
0000
0000
0000
0000
0000
0000
0000
0000
0000
0000
MMMM
00M0
0M00
M000
,
000M
00M0
0M00
M000
000M
00M0
0M00
M000
000M
00M0
0M00
M000
000M
00M0
0M00
M000
,
000M
00M0
0M00
M000
000M
00M0
0M00
M000
000M
00M0
0M00
M000
0011
0000
0000
0000
,
0001
0000
0000
0100
0000
0000
0010
0000
1000
0000
0001
0000
0010
0000
0001
0100
,
0000
0010
1000
0000
0100
0000
0010
0000
MM11
0000
M11M
0000
11MM
0000
0000
0000
,
1000
0000
0000
0010
0000
0000
0100
0000
0001
0000
0010
0000
MM11
0000
0000
M1M1
,
0000
0000
1MM1
0000
0000
1M1M
0000
0000
22MM
00MM
33MM
0000
1001
0000
0000
0000
,
0001
0000
0000
0010
0000
0000
0001
0000
0100
0000
0010
0000
1000
0000
0001
1000
,
0000
0010
0100
0000
0010
0000
1000
0000
11MM
0000
M11M
0000
MM11
0000
0000
0000
,
0001
0000
0000
1000
0000
0000
0100
0000
0010
0000
0001
0000
2MM2
0MM0
3MM3
0000
,
MM22
MM00
MM33
0000
M2M2
M0M0
M3M3
0000
M22M
M00M
M33M
0000
0010
0000
0000
1000
,
0001
0000
0010
0001
0000
0000
0100
0000
0010
0000
1000
0000
1100
0000
0000
0000
,
1000
0000
0001
0100
0000
0000
0010
0000
1000
0000
0001
0000
1001
0000
0000
0000
,
0001
0000
0100
0010
0000
0000
1000
0000
0001
0000
0010
0000
0011
0000
0000
0000
,
0001
0000
1000
0100
0000
0000
1000
0000
0001
0000
0010
0000
0001
0000
1000
0000
,
0100
0000
0010
0000
0100
0000
1000
0000
0001
0000
0100
0000
0001
0010
0100
1000
,
0010
0000
0000
0100
0000
0000
0010
0000
0000
1000
0000
0000
0100
0000
1000
0000
0010
0000
0100
0000
0001
0000
1000
0000
0001
0000
0100
0000
0010
0000
1000
0000
0100
0000
0010
0000
0004
0000
0000
M000
0000
0000
0M00
0000
0000
00M0
0000
0000
,
M000
0M00
00M0
M000
0M00
00M0
M000
0M00
00M0
M000
0M03
0000
M1M1
0000
0000
M11M
,
0000
1M1M
4000
0000
3004
0000
0203
0300
,
0001
0010
0100
1000
0010
0100
0010
1000
0100
1000
0001
0010
0001
1000
0010
0100
,
0004
0000
0000
0000
0043
0000
0000
0000
0430
0000
0000
0000
0340
0000
0000
0000
0032
0000
0203
0000
0320
0000
2030
0000
3002
0000
0000
0000
0000
0000
0000
0003
,
0101
0000
0000
0000
0200
0000
0000
0000
0320
0000
0000
0000
2030
0000
0000
0000
3002
0000
0000
0000
0023
0000
0000
0030
MM11
0000
0000
0000
M1M1
0000
0000
0000
,
1MM1
0000
0000
0000
0000
0000
1M1M
0000
0000
0000
0000
0000
0120
0000
0000
0000
0000
0000
0230
0000
0000
0000
0000
0300
0101
0000
0000
0000
0000
0000
0000
0000
,
0004
0000
0000
0000
0403
0000
0000
0000
0340
0000
0000
0000
4030
0000
0000
0000
3400
0000
0000
0000
4300
0000
0000
3000
1002
0000
0000
0000
0000
0000
0000
0003
,
M2M1
0000
0300
M12M
0000
0030
2M1M
0000
3010
0100
0001
1000
0001
0000
0010
0000
,
0100
0000
1000
0000
0040
0430
0340
4030
3004
0000
0043
0000
M032
M000
M000
M000
,
M000
0000
M000
0000
M000
0000
M000
0000
M203
0000
0000
0000
0000
0000
0000
0000
0320
0000
0000
0000
0000
0000
0000
0030
2010
0000
0000
0000
0000
0000
0000
0000
,
3010
0100
0001
1000
0100
0010
0001
1000
0100
0010
0100
1000
0001
0100
0001
0010
,
0100
1000
0001
0010
0200
0320
0032
2003
3020
2030
3200
0320
0031
1000
0010
0100
,
0010
1000
0100
1000
0001
0010
0001
0100
0010
1000
0001
0000
1MM1
0000
MM11
0000
,
M11M
0000
0000
11MM
0000
0000
1020
0000
0000
0000
2030
0000
3001
0010
0100
1000
,
0001
0100
0010
1000
0100
1000
0010
0100
0001
1000
0010
0000
1010
0000
0000
0000
,
11MM
0000
0000
1M1M
0000
0000
1MM1
0000
0002
0203
0320
2030
3001
0000
0010
0000
,
0001
0000
0100
0000
0010
1000
0001
0010
0100
1000
0001
0100
0040
000M
0M00
M000
,
000M
0M00
M000
000M
0M00
M000
003M
0M00
202M
0000
3030
0000
1001
0000
0000
0000
,
M1M1
0000
0000
M11M
0000
0000
1M1M
0000
0000
11MM
0000
0000
M22M
M00M
M33M
0000
,
MM11
0000
0000
M1M1
0000
0000
0001
1000
0010
0100
0001
0000
MM22
MM00
MM33
0000
,
M1M1
0000
0000
M11M
0000
0000
1M1M
0000
0000
1MM1
0000
0000
1000
0000
0010
0000
,
M11M
0000
0000
MM11
0000
0000
M1M1
0000
00M1
1000
0000
0000
1000
0000
0000
0010
,
0000
0000
2020
0000
0000
0000
3030
0000
1000
0000
0000
0001
0000
0000
2002
0000
,
0000
3003
M1M1
M11M
1M1M
0000
1002
0000
,
0000
0000
0000
2003
,
3020
0000
043M
0302
,
0003
0000
0000
0000
,
0000
0000
0000
0000
0000
M000
00M0
0M00
,
000M
00M0
000M
M000
0M00
M000
00M0
0M00
,
000M
00M0
0M00
00M0
000M
M000
0010
0000
,
0100
0010
1000
0100
,
1000
0001
0010
0002
,
0203
0000
0320
0000
0000
0000
2030
0000
3200
0000
2300
0000
3001
0100
0000
0010
,
1000
0000
0000
0000
1010
0000
0000
0000
1000
0000
0001
0000
0010
0000
0100
0000
1000
0000
0010
0000
0100
0000
0001
0000
2000
0000
0000
0000
0000
0000
0000
3000
,
11MM
0000
0000
0000
0000
0000
M11M
0000
0000
0000
0000
0000
MM11
0000
0000
0000
0000
0000
M1M1
0000
0000
0000
0000
0000
2MM2
0000
0MM0
0000
0MM0
0000
0000
3003
,
11M0
0000
0000
0000
0000
0000
1M1M
0000
0000
0000
0000
0000
1MM1
0000
0000
0000
0004
0000
0000
0000
0403
0000
0000
0300
M22M
0000
M00M
0000
M00M
0000
0000
0330
,
101M
0000
0000
0000
0000
0000
11MM
0000
0000
0000
0000
0000
M11M
0000
0000
0000
0000
0000
MM11
0000
0000
0000
0000
0000
M2M2
0000
M0M0
0000
M0M0
0000
0000
0303
,
10M1
0000
0000
0000
0000
0000
0000
0000
0000
MM14
0000
0000
0000
0000
0000
0000
0000
0000
0403
0000
0000
0000
0000
0000
0310
0000
1000
0000
0001
0000
0100
0000
0000
0000
0000
0000
0001
0000
0000
1000
0000
0000
0100
0000
0000
0010
0000
0000
,
0001
1000
0100
0010
0100
1000
0001
0100
0001
0010
0100
1000
0001
0010
0100
0010
,
0001
1000
0010
1000
0100
0010
0001
1000
0010
0100
0001
1000
0001
0010
0100
1000
,
0010
0100
0010
1000
0100
1000
0001
0010
0001
1000
0010
0100
0001
1000
0100
0010
0100
1000
0004
0000
0000
0000
0000
0000
,
0043
0000
0000
0000
0430
0000
0000
0000
4300
0000
0000
0000
3001
0010
0001
0100
,
0010
1000
0100
1000
0001
0100
0010
1000
0100
0010
0001
1000
0010
0100
0001
0010
,
0100
1000
0010
0100
0010
1000
0100
1000
0001
0010
0001
1000
0010
0100
0001
1000
,
0001
0010
0100
1000
0001
0100
0010
1000
0001
1000
0100
0010
0001
1000
0100
1000
,
0010
0100
0001
0010
0001
1000
0010
0100
0001
0010
0100
0010
0001
1000
0010
1000
,
0100
0010
0001
1000
0100
0010
0100
1000
0001
0100
0001
0010
0200
2300
3020
0230
,
0320
2030
3002
0003
0011
0000
0000
0110
0000
0100
1000
0000
0001
0010
0001
0100
,
0010
1000
0100
1000
0001
0100
0010
1000
0100
0010
0001
0000
MM11
0000
0000
M1M1
,
0000
0000
0000
0000
M11M
0000
0000
0000
0000
0000
1M1M
0000
0000
0000
0000
0000
21MM
0000
00MM
0000
00MM
0000
0000
3000
1002
0000
0000
0000
0000
0000
0000
0000
,
1003
0010
0100
0001
0010
0001
0100
0010
1000
0100
1000
0001
0100
0010
1000
0100
,
0010
0001
1000
0100
0010
0100
1000
0001
0100
0000
0010
0100
0001
0000
1MM1
0000
,
1000
0100
1000
0001
0010
0001
1000
0010
0100
0001
0010
0100
0010
0001
1000
0010
,
1000
0100
0010
0001
1000
0100
1000
0010
0100
0001
0010
0001
1000
0010
0100
0001
,
1000
0001
0010
0100
1000
0001
0100
0010
1000
0001
1000
0100
0010
0001
0100
0010
,
1000
0001
0010
0001
0100
0010
1000
0100
1000
0001
0010
0100
1000
0000
0010
0000
,
0100
0000
0001
0000
0101
0000
0001
0000
0010
0000
0001
0100
0010
0000
0000
0110
,
0000
0000
1100
0000
0000
1010
0000
0000
1002
0000
0000
0000
1003
0010
0100
0001
,
0010
0100
1000
0010
0100
0010
1000
0100
1000
0001
0010
0001
1000
0100
0010
0100
,
1000
0001
0100
0001
0010
0100
1000
0001
0100
0010
1000
0001
0010
0100
0010
0001
,
1000
0010
1000
0100
0010
0001
1000
0010
0100
0001
1000
0001
0010
0100
1000
0010
,
0100
0010
1000
0100
1000
0001
0010
0001
1000
0100
0010
0100
1000
0001
0100
0001
,
0010
0100
1000
0001
0010
0100
0010
0001
1000
0010
1000
0100
0010
0001
1000
0100
,
1000
0010
0100
0001
0010
0001
0100
0010
1000
0001
0010
0100
2000
0000
0000
0000
,
3002
0000
0000
0000
0000
0000
0000
0003
1001
0000
0000
0000
0000
0000
0000
0000
4000
0000
0000
0000
3000
0000
0000
0000
0001
0000
0000
0000
0100
0000
0000
0000
,
0010
0000
0000
1M1M
0000
0000
11MM
0000
1000
0010
0100
0001
1000
0100
0010
0001
,
1000
0100
1000
0010
0100
0001
0010
0001
1000
0010
0100
0001
1000
0001
0010
0100
,
1000
0010
0100
0010
1000
0100
0010
0100
1000
0001
0100
0001
0010
0100
1000
0001
,
0010
0100
0010
0001
1000
0010
1000
0100
0010
0001
1000
0010
0100
0001
1000
0001
,
0010
0100
1000
0001
0010
0001
0100
0010
1000
0100
1000
0001
0010
0100
1000
0001
,
0100
0010
1000
0100
0010
0100
1000
0001
0100
0001
0010
0100
1000
0000
0000
0000
,
0010
0000
0100
0000
0001
0010
0001
0100
,
0010
0000
0000
1000
0000
0000
0100
0000
0000
0010
0000
0000
0001
0000
0100
0000
,
0010
1000
0001
0010
0100
1000
0010
0100
0002
0000
0000
0000
M003
0000
0M00
0000
,
00M0
000M
M000
00M0
0M00
000M
00M0
000M
,
0M00
00M0
M000
0M00
M000
000M
00M0
0M00
,
00M0
000M
M000
00M0
M000
0M00
00M0
000M
,
0M00
00M0
4000
0000
3400
0000
0340
0000
,
0034
0403
0340
4030
,
3004
0043
0034
2003
,
3020
0230
0000
0302
2003
3002
0023
0000
,
0000
0000
0000
0000
0000
0000
0000
0000
0000
0000
0000
0000
0130
1000
0001
0200
,
0000
0000
0000
0000
0000
0000
0000
0000
0310
0000
1000
0000
0100
0000
0020
0000
0000
0000
0000
0000
0000
0000
0000
0030
0011
0000
0000
0000
0000
0000
0101
0000
,
0000
0000
2001
0000
0000
0000
3001
0100
0010
1000
0100
0010
0001
0100
0010
2000
,
0000
0000
0000
0000
0000
0000
0000
0000
3001
0000
0010
0000
0001
0000
0200
0000
0000
0000
0000
0000
0000
0000
0000
0300
0101
0000
0000
0000
0000
0000
0110
0000
,
0000
0010
1000
0000
0001
0010
0100
1000
0010
0100
0001
1000
0100
0010
0001
2000
,
0000
0000
0000
0000
0000
0000
0000
0000
3001
0000
0100
0000
0010
0000
2000
0000
0000
0000
0000
0000
0000
0000
0000
3000
1100
0000
0000
0000
0000
0000
0110
0000
,
0000
0012
0000
0000
2003
3000
0002
0023
,
0230
2300
0000
3020
0230
0302
2003
0000
,
0000
0000
0000
0000
0000
0000
3010
0220
,
0330
0000
0100
0000
0202
0000
0303
0000
0001
0010
0100
1000
0001
0000
0022
0000
,
0033
0010
0220
0330
0100
1100
0000
1M1M
,
0000
M11M
0000
0000
M1M1
0000
0000
MM11
0000
0000
M11M
0000
11MM
0000
0000
1MM1
,
0000
0000
M1M1
0000
0000
M11M
0000
0000
1M1M
0000
0000
0000
0020
0000
0000
0000
,
0000
0230
0000
0302
,
0000
0000
0000
0000
0000
0000
2003
0000
0000
0000
0000
0000
0000
0000
0000
0000
0000
0000
3001
0010
0100
1000
0001
0010
,
0001
0100
0010
1000
0100
1000
0001
0100
0010
1000
0001
1000
0100
0010
0001
1000
0010
0100
0001
1000
0001
0010
0100
1000
,
0010
0000
0100
0000
0010
0000
1000
0000
0100
0000
0010
0000
0100
0000
1000
0000
0001
0000
0100
0000
0010
0000
1000
0000
0002
0000
0000
0000
0000
0000
0000
0000
0000
0000
0000
0000
1003
0000
0000
0100
0000
0000
0010
0000
0000
0001
0000
0000
,
1000
0100
0010
0100
1000
0001
0100
0001
0010
0100
1000
0010
0100
0010
1000
0100
,
1000
0001
0010
0001
1000
0010
0100
0001
0010
0100
0010
0001
1000
0010
1000
0100
,
0010
0001
1000
0010
0100
0001
1000
0001
0010
0100
1000
0001
0010
0001
0100
0010
,
1000
0100
1000
0001
0100
0010
1000
0001
1000
0100
0010
0001
1000
0010
0100
0001
,
0010
0100
0010
0001
1000
0010
1000
0100
0010
0001
1000
0100
0010
0100
1000
0001
,
0100
0001
0010
0100
1000
0010
0100
0010
1000
0100
1000
0001
0020
0000
0032
0000
,
0403
0000
0000
0000
0340
0000
4030
0000
3004
0000
0013
0001
M1M0
0000
0000
M11M
,
0000
0000
MM11
0000
0000
M1M1
0000
0000
2MM1
0MM0
0MM0
0000
3001
0010
0100
1000
,
0010
0100
0010
1000
0100
1000
0001
0010
0001
1000
0100
0010
0100
1000
0001
0100
,
0001
0010
0100
1000
0001
0010
0100
0010
0001
1000
0010
1000
0100
0010
0001
1000
,
0010
0100
0001
1000
0001
0010
0100
1000
0001
0100
0010
1000
0001
1000
0100
0010
,
0001
1000
0100
1000
0010
0100
0001
0010
0001
0100
0010
1000
0002
0023
0230
2300
,
3002
0203
0320
2030
3200
0320
0230
2300
3002
0203
0302
0023
0230
2300
3002
0203
,
0320
0000
0000
2030
0000
0000
3200
0000
0000
2300
0000
0000
3001
0000
0100
0000
0010
0000
1000
0000
0001
0000
0010
0000
0100
0000
1000
0000
0001
0000
0100
0000
0010
0000
1000
0000
0002
0000
0000
0000
0000
0000
0000
0000
0000
0000
0000
0000
,
0000
0000
0000
0000
0000
0000
0000
0000
0000
0000
0000
0000
0013
0000
0000
0000
0100
0000
0000
0000
1000
0000
0000
0000
0010
0000
0000
0000
0100
0000
0000
0000
0010
0000
0000
0000
1000
0000
0000
0000
0000
0000
0000
0000
0000
1M1M
0000
0000
,
0000
0000
0000
0000
M11M
0000
0000
0000
0000
0000
0000
0000
0000
0000
0000
M1M1
0000
0000
0000
0000
0000
0000
0000
0000
1MM1
0000
0000
0000
0000
0000
0000
0000
0000
0000
0000
0000
0002
0000
0000
0000
0000
0000
0000
0000
0000
0000
0000
0000
,
0000
0000
0103
0010
2000
0000
0000
0000
0000
0000
0000
0000
3002
0023
0230
2300
,
3002
0203
0320
2030
3200
2300
3020
0230
0302
0023
0032
2003
3020
0000
0000
0000
,
0130
0001
1000
0001
0010
0100
1000
0001
0010
0100
0010
0001
1000
0010
1000
0100
,
0010
0001
1000
0100
0010
0100
1000
0001
0100
0001
0010
0100
2000
0000
0000
0000
,
3001
0100
0010
1000
0100
1000
0001
0010
0001
0100
0010
0000
1M1M
0000
M11M
0000
,
M1M1
0000
0000
1MM1
0000
0000
11MM
0000
1000
0010
0100
0001
0010
0100
1000
0001
,
0020
0032
2003
3200
0320
0230
2300
3002
0203
0302
0023
0230
2300
3002
0203
0320
,
2030
0000
0000
3200
0000
0000
2300
0000
0000
3002
0000
0000
0023
0000
0000
0032
0000
0000
2003
0000
0000
3020
0000
0000
0230
0000
0000
0302
0000
0000
2003
0000
0000
3200
0000
0000
0310
0000
0001
0000
0100
0000
0010
0000
1000
0000
0001
0000
,
0010
0000
0100
0000
1000
0000
0001
0000
0010
0000
0100
0000
0010
0000
0001
0000
1000
0000
0010
0000
1000
0000
0100
0000
0010
0000
0001
0000
0100
0000
0010
0000
1000
0000
0001
0000
01M0
0000
0000
0000
0000
0000
0000
0000
0000
M11M
0000
0000
,
0000
0000
11MM
0000
0000
M11M
0000
0000
MM12
0000
0000
0000
2003
0000
0000
0000
,
0000
0000
3020
0230
0302
0000
0000
0000
0000
0000
0000
0000
0000
0000
0000
0000
,
0000
0000
0000
0000
0000
0000
0003
0000
0000
0000
0000
0000
0000
0000
0000
0000
0000
0000
40M4
0M00
00M0
0M00
00M0
0M00
,
00M0
0M00
00M0
0M00
00M0
0M00
00M0
0M00
00M0
0M00
00M0
0M00
00M0
0M00
00M0
0M00
00M0
0M00
00M0
0M00
00M0
0M00
00M0
0M00
,
00M0
0M00
00M0
0M00
00M0
0M00
30M3
0000
0000
0M00
0000
0000
00M0
0000
0000
0M00
0000
0000
0000
0000
0000
0202
0000
0000
,
0000
0000
0000
0000
,
0000
0000
0000
0303
0001
2002
3003
0000
,
0000
0000
0000
0000
,
0000
0000
0000
0000
,
00M0
0000
0000
0000
;
