#TITLE:Flight of the Super Drunk;
#SUBTITLE:(Bubble Bobble Level 100);
#ARTIST:TAITO;
#TITLETRANSLIT:;
#SUBTITLETRANSLIT:;
#ARTISTTRANSLIT:;
#CREDIT:;
#BANNER:banner.JPG;
#BACKGROUND:bg.jpg;
#LYRICSPATH:;
#CDTITLE:cd.png;
#MUSIC:fotsd.mp3;
#OFFSET:-0.050;
#SAMPLESTART:13.609;
#SAMPLELENGTH:13.600;
#SELECTABLE:YES;
#BPMS:0.000=177.000;
#STOPS:;
#BGCHANGES:;
// cache tags:
#FIRSTBEAT:0.000;
#LASTBEAT:98.500;
#SONGFILENAME:Songs/IzzySM Keyboard Mega Pack/FOTSD/fotsd.sm;
#HASMUSIC:1;
#HASBANNER:1;
#MUSICLENGTH:34.246;
// end cache tags

//---------------dance-single - ----------------
#NOTES:
     dance-single:
     :
     Hard:
     10:
     1.000,1.000,0.204,0.000,1.000,303.000,7.000,0.000,0.000,0.000:  // measure 1
1000
0100
0010
0100
1000
0100
0001
0010
,  // measure 2
0100
0000
1000
0000
0100
0000
0010
0000
0000
0000
1000
0000
0000
0010
0000
0000
,  // measure 3
1000
0001
1000
0001
1000
0001
1000
0001
1000
0010
1000
0010
1000
0010
1000
0010
,  // measure 4
0001
0100
0001
0100
0001
0100
0001
0100
0001
0100
0001
0100
0001
0100
0001
0100
,  // measure 5
1000
0010
0100
0001
1000
0010
0100
0001
1000
0010
0100
0001
1000
0010
0100
0001
,  // measure 6
1000
0010
0100
0001
1000
0010
0100
0001
1000
0010
0100
0001
1000
0010
0100
0001
,  // measure 7
1000
0100
1000
0100
1000
0100
1000
0100
0001
0010
0001
0010
0001
0010
0001
0010
,  // measure 8
0001
0100
1000
0010
0001
0100
1000
0010
0001
0100
1000
0010
0001
0100
1000
0010
,  // measure 9
0001
0100
0001
0100
0001
0100
0001
0100
1000
0010
1000
0010
1000
0010
1000
0010
,  // measure 10
1000
0100
1000
0100
1000
0100
1000
0100
1000
0100
1000
0100
1000
0100
0010
0001
,  // measure 11
0100
0001
0010
0001
0100
0001
1000
0010
,  // measure 12
0001
0000
0100
0000
0001
0000
0010
0000
0000
0000
0001
0000
0000
0100
0000
0000
,  // measure 13
0001
1000
0001
1000
0001
1000
0001
1000
0001
0100
0001
0100
0001
0100
0001
0100
,  // measure 14
1000
0010
1000
0010
1000
0010
1000
0010
1000
0010
1000
0010
1000
0010
1000
0010
,  // measure 15
0001
0100
0010
1000
0001
0100
0010
1000
0001
0100
0010
1000
0001
0100
0010
1000
,  // measure 16
0001
0100
0010
1000
0001
0100
0010
1000
0001
0100
0010
1000
0001
0100
0010
1000
,  // measure 17
0001
0010
0001
0010
0001
0010
0001
0010
1000
0100
1000
0100
1000
0100
1000
0100
,  // measure 18
1000
0010
0001
0100
1000
0010
0001
0100
1000
0010
0001
0100
1000
0010
0001
0100
,  // measure 19
1000
0010
1000
0010
1000
0010
1000
0010
0001
0100
0001
0100
0001
0100
0001
0100
,  // measure 20
0001
0010
0001
0010
0001
0010
0001
0010
0001
0010
0001
0010
0001
0010
0100
1000
,  // measure 21
0001
0010
0101
1000
1100
0010
0011
0100
,  // measure 22
1100
0000
0010
0000
1001
0000
0110
0000
0000
0000
1000
0000
0000
0100
0000
0000
,  // measure 23
0000
0000
0000
0000
0000
0000
0000
0000
0000
0000
0001
0000
0000
0010
0000
0000
,  // measure 24
0000
0000
0000
0000
0000
0000
0000
0000
0000
1000
0000
0000
0001
0000
0000
0000
,  // measure 25
0000
0000
0000
0000
0000
1001
0000
0000
;

//---------------dance-single - ----------------
#NOTES:
     dance-single:
     :
     Medium:
     8:
     0.759,0.719,0.204,0.000,0.073,175.000,7.000,0.000,0.000,0.000:  // measure 1
1000
0100
0010
0100
1000
0100
0001
0010
,  // measure 2
0100
0000
1000
0000
0100
0000
0010
0000
0000
0000
1000
0000
0000
0010
0000
0000
,  // measure 3
1000
0001
1000
0001
1000
0010
1000
0010
,  // measure 4
0001
0100
0001
0100
0001
0100
0001
0100
,  // measure 5
1000
0100
0010
0001
0010
0100
1000
0100
,  // measure 6
0010
0001
0100
1000
0100
0010
0001
0010
,  // measure 7
1000
0100
1000
0100
0001
0010
0001
0010
,  // measure 8
0001
1000
0001
1000
0001
1000
0001
1000
,  // measure 9
0001
0100
0001
0100
0001
0100
0001
0100
,  // measure 10
1000
0100
1000
0100
1000
0100
1000
0100
,  // measure 11
1000
0001
0010
0001
0100
0001
1000
0010
,  // measure 12
0001
0000
0100
0000
0001
0000
0010
0000
0000
0000
0001
0000
0000
0100
0000
0000
,  // measure 13
0001
1000
0001
1000
0001
0100
0001
0100
,  // measure 14
1000
0010
1000
0010
1000
0010
1000
0010
,  // measure 15
0001
0010
0100
1000
0100
0010
0001
0010
,  // measure 16
0100
1000
0010
0001
0010
0100
1000
0100
,  // measure 17
0001
0010
0001
0010
1000
0100
1000
0100
,  // measure 18
1000
0001
1000
0001
1000
0001
1000
0001
,  // measure 19
1000
0010
1000
0010
1000
0010
1000
0010
,  // measure 20
0001
0010
0001
0010
0001
0010
0001
0010
,  // measure 21
0001
0010
0101
1000
1100
0010
0011
0100
,  // measure 22
1100
0000
0010
0000
1001
0000
0110
0000
0000
0000
1000
0000
0000
0100
0000
0000
,  // measure 23
0000
0000
0000
0000
0000
0000
0000
0000
0000
0000
0001
0000
0000
0010
0000
0000
,  // measure 24
0000
0000
0000
0000
0000
0000
0000
0000
0000
1000
0000
0000
0001
0000
0000
0000
,  // measure 25
0000
0000
0000
0000
0000
1001
0000
0000
;
