#TITLE:Por Alante y Por Detras;
#SUBTITLE:;
#ARTIST:DJ Torta;
#TITLETRANSLIT:;
#SUBTITLETRANSLIT:;
#ARTISTTRANSLIT:;
#CREDIT:;
#BANNER:banner.JPG;
#BACKGROUND:dokudenpa-bg.png;
#LYRICSPATH:;
#CDTITLE:!skorTitle.png;
#MUSIC:Dj TorTa Ft. Dj D Flow [ Por Alante y Por Detras ].ogg;
#OFFSET:-0.028;
#SAMPLESTART:34.596;
#SAMPLELENGTH:16.100;
#SELECTABLE:YES;
#BPMS:0.000=180.000,360.000=174.000,368.000=180.000,491.000=185.000,495.000=180.000,502.000=180.000,527.000=180.000,543.000=190.000,558.000=187.500,575.000=190.000,589.000=187.500,615.000=175.000,620.000=180.000;
#STOPS:199.500=2.660
,403.750=0.100
,407.500=0.100
,413.250=0.080
,610.000=0.800
;
#BGCHANGES:;
// cache tags:
#FIRSTBEAT:16.000;
#LASTBEAT:643.500;
#SONGFILENAME:Songs/Reggaeton and more/Por Alante y Por Detras/dokudenpa.sm;
#HASMUSIC:1;
#HASBANNER:1;
#MUSICLENGTH:219.296;
// end cache tags

//---------------dance-single - ----------------
#NOTES:
     dance-single:
     :
     Challenge:
     11:
     0.836,0.917,0.953,0.027,0.207,1068.000,209.000,6.000,0.000,3.000:

0000
0000
0000
0000
,
0000
0000
0000
0000
,
0000
0000
0000
0000
,
0000
0000
0000
0000
,
1000
0100
1000
0000
0100
1000
0100
0000
1000
0001
1000
0000
0001
1000
0001
0000
,
1001
0000
0000
0000
1000
0100
0010
0001
,
0010
0100
1000
0001
0010
0100
1000
0100
,
0010
0001
1001
0000
0000
0000
0000
1000
,
1001
0000
0001
0100
0010
1000
0000
1000
,
0010
0100
0001
0010
0100
1000
0000
1100
,
0011
0000
0000
1010
0101
0000
1000
0100
,
0010
0100
1000
0001
1000
0000
0000
0010
,
0110
0000
1000
0100
0010
0001
0000
0001
,
0100
0010
1000
0100
0010
0001
0000
1100
,
0110
0000
0000
0011
0110
0000
1000
0100
,
0010
0001
1000
0100
0010
0000
0000
0000
,
1000
0100
0010
0001
0010
0100
1000
0000
,
1000
0010
0100
0001
0100
0010
1000
0000
,
0001
0010
0100
1000
0100
0010
0001
0000
,
0001
0100
0010
1000
0010
0100
0001
0000
,
1000
0100
0010
0100
1000
0100
0010
0000
,
0001
0010
0100
0010
0001
0010
0100
0000
,
1000
0001
0100
0010
1000
0010
0100
0000
,
0001
1000
0010
0100
0001
0100
0010
0000
,
1100
1000
0100
0000
1001
1000
0001
0000
,
0101
0010
1100
0001
,
1000
0000
0100
0000
1000
0000
0010
0000
0100
0000
0001
0000
1000
0100
1000
0000
,
0001
0100
0001
0000
1000
0010
1000
0000
0100
0010
0100
0000
0010
0100
1000
0010
,
0100
0001
0101
0100
0010
1000
1100
0000
,
1001
1001
0110
1001
,
1100
1001
0101
0110
,
1000
0100
0010
0001
1000
0100
0010
0001
1000
0010
0100
0001
1000
0010
0100
0001
,
0100
0001
0000
1000
0100
1000
0000
0001
0010
0001
0000
1000
0010
1000
0000
0000
,
1001
0000
0000
0000
0000
0000
0000
0000
1001
0000
1000
0000
0001
0010
0100
0010
,
0001
0100
0010
0100
0001
0000
1100
1000
,
1001
0001
0100
0010
1000
0000
1001
0000
,
1100
0100
0010
0100
1100
1000
0100
0010
,
0001
0100
0001
0000
0010
0000
0100
0000
1000
0000
0100
0000
0010
0100
1000
0001
,
1000
0100
0010
0001
1001
0000
0011
0100
,
1001
0010
0100
0010
0100
0000
1001
0000
,
1000
0100
0010
0001
0010
0100
1000
0010
,
0100
0001
0100
0000
0001
0000
0010
0000
0100
0000
1000
0000
0100
0000
0000
0000
,
1100
0000
0000
1000
1001
0000
0101
0000
,
1010
0000
1100
0000
0011
0010
0001
0100
,
0101
0001
0110
0000
1010
0000
0101
0001
,
0010
0000
0100
0000
1000
0000
1000
0000
1000
0000
0000
1000
0000
0000
0000
0000
,
1001
0000
0000
1000
0110
0000
0011
0000
,
1100
0000
1001
1000
0010
0100
0101
0001
,
0010
0100
1100
0000
1001
0000
0101
0010
,
1001
0000
0100
0000
0010
0000
0010
0000
0010
0000
0000
0010
0000
0000
0000
0000
,
1001
1000
1100
0100
0110
0000
0011
0000
,
1001
0001
0101
0100
0110
0000
1010
0000
,
1100
0100
0110
0010
0011
0000
0110
0000
,
1100
0000
0110
0000
0011
0000
1001
0000
0101
0000
1010
0000
,
1001
1000
0100
0010
0011
0001
0100
0010
,
1010
1000
0010
0100
0110
0010
1000
0100
,
0110
0010
0001
0100
0010
1000
0100
0010
,
0011
0001
0100
0010
1010
1000
1001
0001
,
0101
0100
0001
0000
1001
0000
1000
0001
,
1001
0000
1000
0010
0101
0000
1000
0100
,
0010
0100
1000
0001
1000
0000
1000
0100
,
0010
0001
0000
0000
1001
0000
0000
0000
,
0100
0010
0001
0000
0110
0000
1001
0000
,
0110
0000
1000
0001
1001
0000
1000
0100
,
0010
0100
1000
0001
0010
0000
1000
0010
,
0100
0001
0000
0000
1011
0000
0000
0000
,
0001
0010
0100
1000
1100
0000
0110
0000
,
0011
1001
1010
0110
,
1000
0010
0100
0010
1000
0100
0010
0000
,
2001
0001
0001
3002
1000
1000
1003
0000
,
1000
0100
0010
0100
1100
0000
0110
0000
,
1100
0110
0011
0110
,
1000
1000
0100
0100
0010
0010
0001
0000
,
1002
1000
1000
2003
0001
0001
3001
0000
,
1000
1000
1000
1000
1000
1000
1000
0000
,
0001
0001
0001
0001
0001
0001
0001
0000
,
0010
0010
0010
0000
0100
0100
0100
0000
,
1000
0100
0000
0010
0001
0000
1001
0000
,
1100
0100
1100
0000
1100
0110
1100
0000
,
0110
0010
0110
0000
0110
0011
0110
0000
,
1100
0011
0000
0101
1010
0000
1001
0000
,
1000
0100
0010
0000
0001
0100
0010
0000
1000
0010
0100
0000
0001
0010
0100
0000
,
1001
1000
0100
0010
0100
0000
1000
0010
,
0001
0000
0001
0010
0000
1000
0100
0010
,
1001
0000
1001
0100
0000
0100
1001
1000
,
0001
0000
1000
1010
0000
0101
0001
0000
,
1000
0100
0010
0100
1000
0000
0001
0010
,
0100
0000
0100
0010
0000
0010
0100
1000
,
0010
0000
0100
1000
0000
1000
0100
0001
,
1001
0000
1001
1000
0000
1001
0110
0000
,
0000
0000
0000
0000
,
0000
0000
0000
0000
,
1000
0100
0010
0100
1000
0001
1000
0001
,
1000
0010
0100
0010
1000
0100
1000
0100
,
1000
0001
0010
0100
0010
0001
0010
0001
,
0011
0011
0000
1001
1001
0000
1100
1100
,
1000
0000
0100
0010
0000
0000
0001
0000
0100
0000
0010
0000
1000
0000
0100
0000
,
0001
0000
0100
1000
0000
0000
0000
0000
0100
0000
0001
0000
0100
0000
1000
0000
,
0100
0000
0100
0010
0000
0000
0010
0000
0010
0001
0000
0000
0001
0000
0001
0100
,
0010
1000
0010
0000
1000
0100
1000
0000
0100
0010
0100
0000
0010
0001
0010
0001
,
0010
0000
0001
0010
0000
0100
0000
1000
0000
1001
0000
0001
0000
0010
0000
0100
,
0000
1000
0100
0000
0010
0000
0001
0000
1001
0000
1100
0000
0001
0000
0101
0000
,
0001
0010
0000
0100
0000
1000
0000
1001
0000
1000
0000
0100
0000
0010
0000
0001
,
0000
0010
0000
0100
0000
1000
0000
0000
0000
0000
0000
0000
1000
0100
0000
0100
,
0010
0000
0001
0000
0100
0000
0010
0000
1000
0000
1000
0000
0100
0000
0100
0010
,
0001
0000
0100
0000
0010
0000
1000
0000
0100
0000
0010
0000
0100
0000
1000
0010
,
0100
0001
0100
0010
1000
0100
0010
0100
,
1000
0001
1001
0000
0000
0000
1001
0000
,
1000
0100
0010
0001
1000
0100
0010
0001
,
1000
0000
0100
0000
0010
0000
0001
0000
1000
0001
1000
0001
1000
0000
0000
0000
,
0001
0010
0100
1000
0001
0010
0000
0100
,
0000
0010
0100
0000
0110
0000
1001
0000
,
0001
0010
0100
1000
0001
0010
0100
1000
,
0001
0000
0010
0000
0100
0000
1000
0000
0001
1000
0001
1000
0001
0000
0000
0000
,
1000
0100
0010
0001
1000
0100
0000
0010
,
0000
0100
0010
0000
0110
0000
1001
0000
,
1001
0000
1100
0000
0101
0000
1100
1000
,
0100
0010
0011
0000
1001
0000
1100
1000
,
0010
0100
0101
0000
1001
0000
1100
0000
,
0110
0000
0011
0000
1001
0000
1000
0100
,
0010
0001
1000
0010
0100
0001
1000
0100
,
0010
0001
1000
0010
0100
0001
1000
0100
,
0000
0000
0100
0000
0010
0000
0000
0000
0011
0000
0000
0000
1000
0100
1000
0000
,
0100
0010
0100
0000
0010
0001
0010
0000
0001
1000
0001
0000
1001
0000
1000
0000
,
0100
0010
0001
0010
1100
0000
1000
0100
,
1001
0000
0001
0100
1001
0000
1100
0100
,
0110
0010
0011
0001
1001
1000
1010
0010
,
0110
0000
0000
1000
0100
0000
0010
0000
0011
0000
0000
0000
1000
0000
0100
0000
,
0010
0100
1100
1000
1100
0000
0110
0010
,
0110
0000
0011
0010
0011
0000
1000
0100
,
0010
0001
0010
0100
1000
0100
0010
0001
,
1001
0000
1100
0100
0011
0000
1000
0100
,
0010
0100
1000
0001
0010
0100
0010
0001
,
1000
0100
0001
0100
1000
0010
0001
0010
,
1000
0100
0010
0100
1000
0001
0010
0100
,
0010
0001
1001
0000
0000
0000
1001
1000
,
0100
0010
0001
0010
0100
1000
1100
1000
,
0010
0100
0001
0100
0010
1000
1010
0010
,
0100
0001
0100
0010
1000
0100
1100
1000
,
1001
0001
1001
0000
0000
0000
0001
0010
,
0100
0010
0001
1000
0100
0010
0100
1000
,
0001
0010
1000
0010
0001
0100
1000
0100
,
0001
0010
0100
0010
0001
1000
0100
0010
,
0100
1000
1001
0000
0000
0000
1001
0001
,
0010
0100
1000
0100
0010
0001
0011
0001
,
0100
0010
1000
0010
0100
0001
0101
0100
,
0010
1000
0010
0100
0001
0010
0011
0001
,
1001
1000
1001
0000
0000
0000
1000
0010
,
0100
0001
0100
0010
1000
0100
0010
0100
,
1000
0001
0010
0100
1000
0100
0010
0001
,
1000
0100
0010
0001
0010
0100
1000
0001
,
0010
0000
0100
0000
0110
0000
0000
0000
0000
0000
0000
0000
0000
0000
0000
1000
,
0000
0000
0100
0000
0000
0010
0000
0000
0001
0000
0000
0000
1001
0000
1000
0000
,
1100
0100
0110
0000
1001
0000
1000
0100
,
0010
0001
1000
0010
0100
0001
0101
0000
,
1010
0000
0000
0000
1000
0100
0010
0000
0010
0100
1000
0000
1000
0010
0100
0000
,
0100
0010
1000
0000
1000
0100
0010
0000
0001
0100
0010
0000
1001
0000
0000
0000
,
1000
0100
0010
0001
0010
0100
1000
0001
,
0010
0100
1100
0000
0000
0001
1001
1000
,
0100
0010
0001
0010
0100
0000
1001
0000
,
2000
0002
0000
0000
0100
0000
0010
3003
;
