#TITLE:A Brief Tutorial on VIP Production;
#SUBTITLE:;
#ARTIST:Dubba Jonny;
#TITLETRANSLIT:;
#SUBTITLETRANSLIT:;
#ARTISTTRANSLIT:;
#CREDIT:;
#BANNER:../fthescorept1bn.png;
#BACKGROUND:../fthescorept1bg.png;
#LYRICSPATH:;
#CDTITLE:;
#MUSIC:YIA YIA.ogg;
#OFFSET:-0.157;
#SAMPLESTART:48.170;
#SAMPLELENGTH:13.630;
#SELECTABLE:YES;
#BPMS:0.000=140.000;
#STOPS:;
#BGCHANGES:;
// cache tags:
#FIRSTBEAT:16.500;
#LASTBEAT:248.000;
#SONGFILENAME:Songs/Fuck The Score Part I/A Brief Tutorial on VIP Production [Dossar]/YIA YIA.sm;
#HASMUSIC:1;
#HASBANNER:1;
#MUSICLENGTH:110.027;
// end cache tags

//---------------dance-single - ----------------
#NOTES:
     dance-single:
     :
     Hard:
     16:
     1.000,1.000,0.000,0.345,1.000,752.000,0.000,38.000,0.000,0.000:
0000
0000
0000
0000
,
0000
0000
0000
0000
,
0000
0000
0000
0000
,
0000
0000
0000
0000
,
0000
0000
1000
0000
1000
0000
0010
0100
0001
0000
1000
0000
0010
0100
0001
0000
,
0000
0000
0001
0000
0001
0000
0100
0010
1000
0000
0001
0000
0100
0010
1000
0000
,
0000
0000
0001
0000
0001
0000
1000
0100
0010
0000
0001
0000
1000
0100
0010
0000
,
0000
0000
0001
0000
0001
0000
0010
0100
1000
0000
0001
0000
0010
0100
1000
0000
,
0010
0000
0010
0000
0010
0000
0100
0010
1000
0000
0001
0000
1000
0100
0000
0000
,
0010
0000
0010
0000
0010
0000
0100
1000
0001
0000
0100
0000
0010
1000
0001
0000
,
0100
0000
0100
0000
0100
0000
0010
1000
0001
0000
0010
0000
0100
1000
0000
0000
,
0001
0000
0001
0000
0001
0000
0100
0010
1000
0000
0100
0000
0010
0001
0100
0000
,
0010
0000
0010
0000
0010
0000
1000
0001
0010
0000
0100
0000
1000
0001
0000
0000
,
0100
0000
0100
0000
0100
0000
0010
1000
0100
0000
0010
0000
0001
0100
0010
0000
,
1000
0000
1000
0000
1000
0000
0010
0100
0001
0000
1000
0000
0100
0010
0000
0000
,
0001
0000
0001
0000
0001
0000
0100
0010
1000
0000
0100
0000
0010
0001
1000
0000
,
0010
0000
0010
0000
0010
0100
0001
0010
0100
0000
1000
0000
0010
0000
0100
0000
,
0001
0000
0001
0000
0001
0100
0010
1000
0100
0000
0010
0000
0001
0000
0100
0000
,
0010
0000
0010
0000
0010
0000
1000
0100
0010
0000
0001
0000
1000
0010
0000
0000
,
0100
0000
0100
0010
0100
0001
0010
0100
1000
0000
1000
0000
0001
0100
0010
0000
,
1000
0000
1000
0000
1000
0100
0010
0001
0100
0000
0010
0000
1000
0000
0001
0000
,
0010
0000
0010
0000
0010
0000
0001
0100
0010
0000
1000
0000
0100
0000
0010
0000
,
0001
0000
0001
0000
0001
0000
0100
0010
1000
0000
0100
0000
0010
0001
0000
0000
,
1000
0000
1000
0010
1000
0100
0010
0001
0100
0000
0010
0000
1000
0100
0010
0000
,
0001
1000
0100
1000
0001
1000
0100
1000
,
0001
1000
0100
1000
0001
1000
0100
1000
,
0001
1000
0001
1000
0001
1000
0001
1000
,
0001
0000
0000
0000
0001
0000
0000
0000
1000
0000
0000
0000
1000
0000
0000
0000
0001
0000
0100
0000
0010
0000
1000
0000
0001
0100
0010
1000
0001
0100
0010
1000
,
0001
0100
0001
1000
0010
1000
0001
0100
0010
1000
0001
1000
0001
0100
0010
1000
0001
0000
0100
0000
0010
0000
1000
0000
0100
0000
0010
0000
0001
0000
0100
0000
,
0010
2000
0000
0000
0000
0000
0000
0000
3001
0020
0000
0000
0000
0000
0000
0000
0130
0000
1000
0000
0010
0000
0100
0000
0001
0000
0010
0000
0100
0000
1000
0000
,
0001
0020
0000
0000
0000
0000
0000
0000
0130
2000
0000
0000
0000
0000
0000
0000
3001
0000
0000
0000
0001
0000
0000
0000
0001
0100
0001
1000
0010
0100
0001
1000
,
0001
0000
0100
0000
0001
0000
0100
0000
0010
2000
0000
0000
0000
0000
0000
0000
3001
0000
0000
0000
0001
0000
0000
0000
1000
0010
0100
0001
1000
0001
0100
0010
,
1000
0000
0000
0000
0000
0000
0000
0000
0001
0010
0100
1000
0010
0100
0001
0010
,
0100
0000
0000
0000
0100
0000
0000
0000
1000
0002
0000
0000
0000
0000
0000
0000
1003
0000
0100
0000
0010
0000
0001
0000
1000
0000
0100
0000
0010
0000
0001
0000
,
1000
0010
0100
0001
1000
0001
1000
0100
1000
0001
0100
0010
1000
0010
0100
0001
0100
0010
1000
0001
0100
0001
1000
0001
1000
0100
1000
0001
0100
0010
1000
0001
,
1000
0020
0000
0000
0000
0000
0000
0000
0130
0002
0000
0000
0000
0000
0000
0000
1003
0000
0000
0000
1000
0000
0000
0000
0001
0000
0100
0000
0010
0000
1000
0000
,
0001
0100
0010
1000
0001
0100
0001
1000
0100
1000
0001
0100
0010
1000
0001
0100
0001
0000
1000
0000
0100
0000
0010
0000
0001
0000
0100
0000
0010
0000
1000
0000
,
0100
0020
0000
0000
0000
0000
0000
0000
0031
2000
0000
0000
0000
0000
0000
0000
3001
0000
0010
0000
0100
0000
1000
0000
0001
0000
0010
0000
0100
0000
1000
0000
,
0001
0200
0000
0000
0000
0000
0000
0000
0310
2000
0000
0000
0000
0000
0000
0000
3001
0000
0000
0000
0001
0000
0000
0000
0001
1000
0010
1000
0001
0100
0010
1000
,
0001
0000
0100
0000
0010
0000
1000
0000
0001
0200
0000
0000
0000
0000
0000
0000
0301
0000
0000
0000
0001
0000
0000
0000
1000
0100
0010
0001
1000
0100
0010
0001
,
1000
0000
0000
0000
0000
0000
0000
0000
0001
0010
0100
1000
0010
0100
0001
0010
,
0100
0000
0000
0000
1000
0000
0000
0000
0001
0020
0000
0000
0000
0000
0000
0000
0031
0000
0010
0000
0100
0000
1000
0000
0001
0000
0010
0000
0100
0000
1000
0000
,
0001
0100
0010
1000
0001
0100
0001
1000
0010
0100
0001
1000
0010
1000
0001
0100
0001
1000
0010
0100
0001
1000
0100
1000
0001
1000
0001
0100
0001
1000
0010
0100
,
0001
2000
0000
0000
0000
0000
0000
0000
3001
0020
0000
0000
0000
0000
0000
0000
0130
0000
0000
0000
0100
0000
0000
0000
0100
0000
1000
0000
0010
0000
0100
0000
,
0001
0001
0001
0001
,
0001
0000
0000
0000
0001
0000
0000
0000
1000
0000
0000
0000
1000
0000
0000
0000
0001
0000
0010
0000
0100
0000
1000
0000
0001
0010
0100
1000
0001
0010
0100
1000
,
0001
0010
0200
0000
1300
0010
0200
0000
0301
1000
0000
0000
0010
0100
0001
1000
,
0100
0010
0100
1000
0010
0100
0001
0010
0100
0010
0001
0100
0010
1000
0100
0010
,
0100
1000
0020
0000
0130
0001
0020
0000
0130
1000
0001
0100
0010
1000
0000
0000
,
0001
0010
0200
0000
1300
0010
0200
0000
0301
0010
0100
1000
0010
0100
0001
0010
,
0001
0100
0020
0000
1030
0100
0020
0000
0031
0100
0010
1000
0001
0010
0000
0000
,
0100
0000
0000
0000
0100
0000
0000
0000
1000
0200
0000
0000
0000
0000
0000
0000
1300
0000
0100
0000
0010
0000
0001
0000
1000
0000
0100
0000
0010
0000
0001
0000
,
1000
0010
1000
0001
0100
0010
1000
0001
0100
0001
1000
0010
1000
0001
0100
0010
1000
0001
0100
0001
1000
0010
0100
0001
1000
0100
1000
0001
1000
0001
0100
0010
,
1000
0002
0000
0000
0000
0000
0000
0000
1003
0200
0000
0000
0000
0000
0000
0000
0310
0000
0000
0000
0001
0000
0000
0000
1000
0000
0100
0000
0010
0000
0001
0000
,
1000
0010
0200
0000
0301
0010
0200
0000
1300
0001
0000
0000
0100
0010
1000
0100
,
0010
0001
0100
0010
1000
0100
0010
0100
1000
0010
0100
0001
0010
0100
0010
0001
,
1000
0010
0200
0000
0301
0010
0200
0000
1300
0100
0010
0001
0100
0010
0000
0000
,
1000
0010
0200
0000
0301
0010
0200
0000
1300
0100
0010
0001
1000
0100
0010
0001
,
1000
0100
0020
0000
0031
0100
0020
0000
1030
0001
0100
0010
1000
0100
0000
0000
,
1000
0000
0000
0000
1000
0000
0000
0000
0001
0020
0000
0000
0000
0000
0000
0000
0031
0000
0010
0000
0100
0000
1000
0000
0001
0000
0010
0000
0100
0000
1000
0000
,
0001
1000
0001
0100
0010
1000
0010
0100
0001
1000
0001
0010
0001
1000
0010
0100
0001
1000
0010
1000
0010
0100
0001
1000
0001
1000
0010
0100
0001
1000
0001
0100
,
0010
2000
0000
0000
0000
0000
0000
0000
3001
0020
0000
0000
0000
0000
0000
0000
0130
0000
0000
0000
1000
0000
0000
0000
0010
0000
0100
0000
0001
0000
0010
0000
,
0100
0000
0000
0000
;

//---------------dance-single - ----------------
#NOTES:
     dance-single:
     :
     Challenge:
     17:
     1.000,1.000,0.000,0.345,1.000,752.000,0.000,38.000,0.000,0.000:
0000
0000
0000
0000
,
0000
0000
0000
0000
,
0000
0000
0000
0000
,
0000
0000
0000
0000
,
0000
0000
1000
0000
1000
0000
0010
0100
0001
0000
1000
0000
0010
0100
0001
0000
,
0000
0000
0001
0000
0001
0000
0100
0010
1000
0000
0001
0000
0100
0010
1000
0000
,
0000
0000
0001
0000
0001
0000
1000
0100
0010
0000
0001
0000
1000
0100
0010
0000
,
0000
0000
0001
0000
0001
0000
0010
0100
1000
0000
0001
0000
0010
0100
1000
0000
,
0010
0000
0010
0000
0010
0000
0100
0010
1000
0000
0001
0000
1000
0100
0000
0000
,
0010
0000
0010
0000
0010
0000
0100
1000
0001
0000
0100
0000
0010
1000
0001
0000
,
0100
0000
0100
0000
0100
0000
0010
1000
0001
0000
0010
0000
0100
1000
0000
0000
,
0001
0000
0001
0000
0001
0000
0100
0010
1000
0000
0100
0000
0010
0001
0100
0000
,
0010
0000
0010
0000
0010
0000
1000
0001
0010
0000
0100
0000
1000
0001
0000
0000
,
0100
0000
0100
0000
0100
0000
0010
1000
0100
0000
0010
0000
0001
0100
0010
0000
,
1000
0000
1000
0000
1000
0000
0010
0100
0001
0000
1000
0000
0100
0010
0000
0000
,
0001
0000
0001
0000
0001
0000
0100
0010
1000
0000
0100
0000
0010
0001
1000
0000
,
0010
0000
0010
0000
0010
0100
0001
0010
0100
0000
1000
0000
0010
0000
0100
0000
,
0001
0000
0001
0000
0001
0100
0010
1000
0100
0000
0010
0000
0001
0000
0100
0000
,
0010
0000
0010
0000
0010
0000
1000
0100
0010
0000
0001
0000
1000
0010
0000
0000
,
0100
0000
0100
0010
0100
0001
0010
0100
1000
0000
1000
0000
0001
0100
0010
0000
,
1000
0000
1000
0000
1000
0100
0010
0001
0100
0000
0010
0000
1000
0000
0001
0000
,
0010
0000
0010
0000
0010
0000
0001
0100
0010
0000
1000
0000
0100
0000
0010
0000
,
0001
0000
0001
0000
0001
0000
0100
0010
1000
0000
0100
0000
0010
0001
0000
0000
,
1000
0000
1000
0010
1000
0100
0010
0001
0100
0000
0010
0000
1000
0100
0010
0000
,
0001
1000
0100
1000
0001
1000
0100
1000
,
0001
1000
0100
1000
0001
1000
0100
1000
,
0001
1000
0001
1000
0001
1000
0001
1000
,
0001
0000
0000
0000
0001
0000
0000
0000
1000
0000
0000
0000
1000
0000
0000
0000
0001
0000
0100
0000
0010
0000
1000
0000
0001
0100
0010
1000
0001
0100
0010
1000
,
0001
0100
0010
1000
0100
0010
0001
1000
0010
0100
0001
0100
0010
1000
0100
0010
0001
0000
0100
0000
0010
0000
1000
0000
0100
0000
0010
0000
0001
0000
0100
0000
,
0010
2000
0000
0000
0000
0000
0000
0000
3001
0020
0000
0000
0000
0000
0000
0000
0130
0000
1000
0000
0010
0000
0100
0000
0001
0000
0010
0000
0100
0000
1000
0000
,
0001
0020
0000
0000
0000
0000
0000
0000
0130
2000
0000
0000
0000
0000
0000
0000
3001
0000
0000
0000
0001
0000
0000
0000
0001
0100
0010
1000
0100
0010
0100
1000
,
0001
0000
0100
0000
0001
0000
0100
0000
0010
2000
0000
0000
0000
0000
0000
0000
3001
0000
0000
0000
0001
0000
0000
0000
1000
0010
0100
0001
0010
0100
1000
0010
,
0100
0000
0000
0000
0000
0000
0000
0000
0001
0010
0100
1000
0010
0100
0001
0010
,
0100
0000
0000
0000
0100
0000
0000
0000
1000
0002
0000
0000
0000
0000
0000
0000
1003
0000
0100
0000
0010
0000
0001
0000
1000
0000
0100
0000
0010
0000
0001
0000
,
1000
0010
0100
0001
0010
0001
1000
0100
0010
0001
0100
0010
1000
0100
0010
0001
1000
0001
0100
0001
0010
0100
1000
0010
0100
0001
0100
0010
1000
0100
0010
0001
,
1000
0020
0000
0000
0000
0000
0000
0000
0130
0002
0000
0000
0000
0000
0000
0000
1003
0000
0000
0000
1000
0000
0000
0000
0001
0000
0100
0000
0010
0000
1000
0000
,
0001
0100
0010
1000
0100
1000
0001
0100
0010
1000
0100
0010
0001
0100
0010
1000
0001
0000
1000
0000
0100
0000
0010
0000
0001
0000
0100
0000
0010
0000
1000
0000
,
0100
0020
0000
0000
0000
0000
0000
0000
0031
2000
0000
0000
0000
0000
0000
0000
3001
0000
0010
0000
0100
0000
1000
0000
0001
0000
0010
0000
0100
0000
1000
0000
,
0001
0200
0000
0000
0000
0000
0000
0000
0310
2000
0000
0000
0000
0000
0000
0000
3001
0000
0000
0000
0001
0000
0000
0000
0001
1000
0100
0010
0001
0100
0010
1000
,
0001
0000
0100
0000
0010
0000
1000
0000
0001
0200
0000
0000
0000
0000
0000
0000
0301
0000
0000
0000
0001
0000
0000
0000
1000
0100
0010
0001
0100
0010
1000
0100
,
0010
0000
0000
0000
0000
0000
0000
0000
0001
0010
0100
1000
0010
0100
0001
0010
,
0100
0000
0000
0000
1000
0000
0000
0000
0001
0020
0000
0000
0000
0000
0000
0000
0031
0000
0010
0000
0100
0000
1000
0000
0001
0000
0010
0000
0100
0000
1000
0000
,
0001
0100
0010
1000
0100
0010
0001
0100
0010
1000
0010
0100
0001
0010
0100
1000
0001
0100
0001
0010
0001
1000
0010
1000
0100
1000
0001
0100
0010
1000
0100
0010
,
0001
2000
0000
0000
0000
0000
0000
0000
3001
0020
0000
0000
0000
0000
0000
0000
0130
0000
0000
0000
0100
0000
0000
0000
0100
0000
1000
0000
0010
0000
0100
0000
,
0001
0001
0001
0001
,
0001
0000
0000
0000
0001
0000
0000
0000
1000
0000
0000
0000
1000
0000
0000
0000
0001
0000
0010
0000
0100
0000
1000
0000
0001
0010
0100
1000
0010
0100
0010
1000
,
0001
0010
0200
0000
1300
0010
0200
0000
0301
1000
0000
0000
0010
0100
0001
1000
,
0100
0010
0100
1000
0010
0100
0001
0010
0100
0010
0001
0100
0010
1000
0100
0010
,
0100
1000
0020
0000
0130
0001
0020
0000
0130
1000
0001
0100
0010
1000
0000
0000
,
0001
0010
0200
0000
1300
0010
0200
0000
0301
0010
0100
1000
0010
0100
0001
0010
,
0001
0100
0020
0000
1030
0100
0020
0000
0031
0100
0010
1000
0001
0010
0000
0000
,
0100
0000
0000
0000
0100
0000
0000
0000
1000
0200
0000
0000
0000
0000
0000
0000
1300
0000
0100
0000
0010
0000
0001
0000
1000
0000
0100
0000
0010
0000
0001
0000
,
1000
0010
0100
0001
0010
0100
1000
0001
0100
0001
1000
0100
0010
0001
0100
0010
1000
0001
0100
0010
1000
0100
0010
0001
0100
0010
0100
0001
0010
0100
1000
0010
,
0100
0002
0000
0000
0000
0000
0000
0000
1003
0200
0000
0000
0000
0000
0000
0000
0310
0000
0000
0000
0001
0000
0000
0000
1000
0000
0100
0000
0010
0000
0001
0000
,
1000
0010
0200
0000
0301
0010
0200
0000
1300
0001
0000
0000
0100
0010
1000
0100
,
0010
0001
0100
0010
1000
0100
0010
0100
1000
0010
0100
0001
0010
0100
0010
0001
,
1000
0010
0200
0000
0301
0010
0200
0000
1300
0100
0010
0001
0100
0010
0000
0000
,
1000
0010
0200
0000
0301
0010
0200
0000
1300
0100
0010
0001
1000
0100
0010
0001
,
1000
0100
0020
0000
0031
0100
0020
0000
1030
0001
0100
0010
1000
0100
0000
0000
,
1000
0000
0000
0000
1000
0000
0000
0000
0001
0020
0000
0000
0000
0000
0000
0000
0031
0000
0010
0000
0100
0000
1000
0000
0001
0000
0010
0000
0100
0000
1000
0000
,
0001
1000
0010
0100
0001
0010
0001
0100
0010
1000
0100
1000
0001
0100
0010
1000
0100
0010
0001
0100
0010
0100
0001
1000
0100
0010
0001
0100
0010
1000
0100
0010
,
0001
2000
0000
0000
0000
0000
0000
0000
3001
0020
0000
0000
0000
0000
0000
0000
0130
0000
0000
0000
1000
0000
0000
0000
0010
0000
0100
0000
0001
0000
0010
0000
,
0100
0000
0000
0000
;
