#TITLE:Secret You;
#SUBTITLE:;
#ARTIST:you;
#TITLETRANSLIT:;
#SUBTITLETRANSLIT:;
#ARTISTTRANSLIT:;
#CREDIT:;
#BANNER:secret you bn.png;
#BACKGROUND:secret you bg.png;
#LYRICSPATH:;
#CDTITLE:;
#MUSIC:Secret You.ogg;
#OFFSET:-0.028;
#SAMPLESTART:45.152;
#SAMPLELENGTH:12.000;
#SELECTABLE:YES;
#DISPLAYBPM:250.000;
#BPMS:0.000=250.000;
#STOPS:;
#BGCHANGES:;
// cache tags:
#FIRSTBEAT:60.000;
#LASTBEAT:583.000;
#SONGFILENAME:Songs/SPEEEDCOOOORE 4/Secret You - [Tyler]/secret you.sm;
#HASMUSIC:1;
#HASBANNER:1;
#MUSICLENGTH:143.833;
// end cache tags

//---------------dance-single - T. Moore----------------
#NOTES:
     dance-single:
     T. Moore:
     Challenge:
     12:
     0.746,1.000,0.549,0.056,0.424,661.000,79.000,8.000,38.000,0.000:
0000
0000
0000
0000
,
0000
0000
0000
0000
,
0000
0000
0000
0000
,
0000
0000
0000
0000
,
0000
0000
0000
0000
,
0000
0000
0000
0000
,
0000
0000
0000
0000
,
0000
0000
0000
0000
,
0000
0000
0000
0000
,
0000
0000
0000
0000
,
0000
0000
0000
0000
,
0000
0000
0000
0000
,
0000
0000
0000
0000
,
0000
0000
0000
0000
,
0000
0000
0000
0000
,
1000
0000
0010
0000
,
0100
0000
0000
0000
,
0002
0000
0000
0000
,
0000
0000
0000
0000
,
0013
0000
0100
0000
,
1000
0000
0000
0000
,
0002
0000
0000
0000
,
0010
0000
0000
0000
,
0103
0000
0010
0000
,
1000
0000
0000
0000
,
0200
0000
0000
0000
,
0010
0000
0000
0000
,
2300
0000
0000
0000
,
0000
0000
0000
0000
,
3001
0000
0000
0000
,
0000
0000
0000
0000
,
1001
0000
0000
0000
,
1001
0000
0000
0101
0000
0000
0011
0000
,
1100
0000
0000
0011
,
1001
0000
0000
0000
0000
1100
0000
0000
,
1001
0000
0000
0000
,
0101
0000
0000
0101
,
0000
0000
0000
0000
0000
0110
0000
0000
,
1001
0000
0000
0000
,
1100
0000
0000
0000
,
0011
0000
M1MM
0000
,
0101
0000
0000
0000
,
1100
0000
MMM1
0000
,
0101
0000
1MMM
0000
,
1100
0000
MM1M
0000
,
0101
MM1M
0101
1MMM
,
2002
0000
0000
0000
0000
0000
0000
0000
0000
0000
0000
0000
0000
0000
0000
0000
0000
0000
0000
0000
0000
0000
0000
0000
0000
0000
0000
0000
0000
0000
0000
0000
0000
0000
0000
0000
0000
0000
0000
0000
0000
0000
0000
0000
0000
0000
0000
0000
0000
0000
0000
0000
0000
0000
0000
0000
0000
0000
0000
0000
0000
0000
0000
0000
0000
0000
0000
0000
0000
0000
0000
0000
0000
0000
0000
0000
0000
0000
0000
0000
0000
0000
0000
0000
0000
0000
0000
0000
0000
0000
0000
0000
0000
0000
0000
0000
0000
0000
0000
0000
0000
0000
0000
0000
0000
0000
0000
0000
0000
0000
0000
0000
0000
0000
0000
0000
0000
0000
0000
0000
0000
0000
0000
0000
0000
0000
0000
0000
0000
0000
0000
0000
0000
0000
0000
0000
0000
0000
0000
0000
0000
0000
0000
0003
3010
0000
0000
0000
0000
0000
0000
0000
0000
0000
0000
0000
0000
0000
0000
0000
0000
0000
0000
0000
0000
0000
0000
0000
0000
0000
0000
0000
0000
0000
0000
0000
0000
0000
0000
0000
0000
0000
0000
0000
0000
0000
0000
0000
0000
0000
0000
0000
,
1000
0001
0010
0001
1000
0100
1000
0010
,
0100
0000
0001
0000
1000
0000
0100
0000
0010
0000
0001
0000
1000
0010
1000
0010
,
0100
0001
0010
0001
1000
0100
1000
0010
,
0100
0001
4000
0000
0000
0000
3000
0000
0001
0010
0001
0010
0100
0000
0000
0000
,
1000
0001
1000
0001
0100
0000
0000
0000
0010
0000
1000
0000
0010
0000
0000
0000
,
1000
0000
0000
0000
0000
0000
0000
0000
0000
0000
0001
0000
0000
0000
0000
0000
0000
0000
0000
1000
0000
0000
0000
0000
0000
0000
0000
0000
0000
0100
0000
0000
0000
0000
0000
0000
0000
0000
0010
0000
0000
0000
0000
0000
0000
0000
0000
0000
0001
0000
0000
0000
0000
0000
0000
0000
0000
0000
0000
0000
0000
0000
0000
0000
0000
0000
0000
0000
0000
0000
0000
0000
1000
0000
0000
0000
0000
0000
0000
0000
0000
0000
0000
0000
0000
0000
0000
0000
0000
0000
0000
0000
0000
0000
0000
0000
0001
0000
0000
0000
0000
0000
0000
0000
0000
0000
0000
0000
0000
0000
0000
0000
0000
0000
0000
0000
0000
0000
0000
0000
0100
0000
0000
0000
0000
0000
0000
0000
0000
0000
0000
0000
0000
0000
0000
0000
0000
0000
0000
0000
0000
0000
0000
0000
0010
0000
0000
0000
0000
0000
0000
0000
0000
0000
0000
0000
0000
0000
0000
0000
0000
0000
0000
0000
0000
0000
0000
0000
1000
0000
0000
0000
0000
0000
0000
0000
0000
0000
0000
0000
0000
0000
0000
0000
0000
0000
0000
0000
0000
0000
0000
0000
,
0001
1000
0100
0010
0001
0100
0010
1000
,
0001
1000
0001
0010
0100
1000
0001
0000
0000
0100
0000
0000
,
1010
0000
0000
0000
1100
0000
0000
0000
0001
0010
0100
1000
0001
1000
0010
0100
,
0001
0000
0000
1000
0001
0000
0010
0000
0100
0000
1000
0000
0001
0000
0100
0010
,
1000
0000
0001
0000
0010
0000
0100
1000
0001
0000
1000
0000
0010
0100
0010
1000
,
0001
0010
0100
4000
3010
0010
0100
0000
,
0001
0000
0100
0000
0010
0000
1000
0000
0100
0000
0010
0000
0001
1000
0001
1000
,
0010
0000
0000
0100
0000
0000
0001
0000
0000
1000
0001
1000
0001
0000
0000
0010
0000
0000
0400
0000
0000
0000
0000
0000
,
1300
0000
0001
0000
1000
0000
0010
0000
0100
0000
0001
0000
0010
0000
0100
1000
,
0001
1000
0010
0100
0001
0000
0000
0000
0010
0000
0100
1000
0001
0000
0000
0000
,
1000
0010
0100
0001
1000
0100
0010
0001
,
1000
0000
0010
0000
0100
0000
0001
0000
0010
0000
0100
0000
1000
0001
1000
0001
,
0100
0010
1000
0001
0010
0100
1000
0010
,
0100
0001
4000
0000
0000
0000
0000
0000
3001
0010
0001
0010
0100
0000
0000
0000
,
1000
0001
1000
0001
0100
0000
0000
0000
0010
0000
1000
0000
0010
0000
0000
0000
,
1000
0000
0000
0000
0000
0000
0000
0000
0000
0000
0001
0000
0000
0000
0000
0000
0000
0000
0000
1000
0000
0000
0000
0000
0000
0000
0000
0000
0000
0100
0000
0000
0000
0000
0000
0000
0000
0000
0010
0000
0000
0000
0000
0000
0000
0000
0000
0000
0001
0000
0000
0000
0000
0000
0000
0000
0000
0000
0000
0000
0000
0000
0000
0000
0000
0000
0000
0000
0000
0000
0000
0000
1000
0000
0000
0000
0000
0000
0000
0000
0000
0000
0000
0000
0000
0000
0000
0000
0000
0000
0000
0000
0000
0000
0000
0000
0001
0000
0000
0000
0000
0000
0000
0000
0000
0000
0000
0000
0000
0000
0000
0000
0000
0000
0000
0000
0000
0000
0000
0000
0100
0000
0000
0000
0000
0000
0000
0000
0000
0000
0000
0000
0000
0000
0000
0000
0000
0000
0000
0000
0000
0000
0000
0000
0010
0000
0000
0000
0000
0000
0000
0000
0000
0000
0000
0000
0000
0000
0000
0000
0000
0000
0000
0000
0000
0000
0000
0000
1000
0000
0000
0000
0000
0000
0000
0000
0000
0000
0000
0000
0000
0000
0000
0000
0000
0000
0000
0000
0000
0000
0000
0000
,
0100
0010
0001
1000
0001
0100
0010
1000
,
0001
0010
0100
1000
0001
0100
0010
0000
0000
1000
0000
0000
,
1001
0000
0000
0000
1001
0000
0000
0000
0001
1000
0010
0100
0001
1000
0100
0010
,
0001
0000
0000
1000
0001
0000
1000
0000
0010
0000
0100
0000
0001
0000
1000
0100
,
0010
0000
0001
0000
1000
0000
0001
0100
0010
0000
1000
0000
0001
0010
0001
0010
,
0100
1000
0010
0400
0301
0001
0010
0000
,
0001
0000
0100
0000
0010
0000
1000
0000
0100
0000
0010
0000
0001
1000
0001
0100
,
0010
0000
0000
1000
0000
0000
0001
0000
0000
1000
0100
1000
0100
0000
0000
0010
0000
0000
0004
0000
0000
0000
0000
0000
,
1003
0000
0010
0000
0100
0000
0001
0000
0010
0000
0100
0000
1000
0000
0010
0100
,
0001
0000
0000
1000
,
1001
0000
0001
0010
0000
0100
0000
1000
,
0000
0010
0100
0000
0001
0000
1000
0000
,
0100
0000
0010
0001
0000
1000
0000
0010
,
0000
0100
0001
0000
0010
0000
0001
0000
,
1000
0000
0010
0100
0000
0001
0000
1000
,
0000
0100
0010
0000
0001
0000
1000
0000
,
0010
0000
0100
0001
0000
0010
0000
0100
,
0000
1000
0010
0000
1000
0000
0100
0000
,
0010
0000
0001
0100
0000
0010
0000
1000
,
0000
0100
0010
0000
0001
0000
1000
0000
,
0010
0000
0100
0001
0000
1000
0000
0100
,
0000
0010
0001
0000
0100
0000
0001
0000
,
1000
0000
0100
0010
0000
0001
0000
1000
,
0000
0010
0100
0000
0001
0000
1000
0000
,
0100
0000
0010
0001
0000
0100
0000
0010
,
1000
0001
0010
0100
,
1001
0000
0000
0000
,
MM1M
0000
0000
0000
,
0101
0000
0000
1010
0000
0000
1001
0000
,
MM1M
0000
1100
0000
,
1001
0000
0000
0000
,
M1MM
0000
1010
0000
,
1001
0000
0000
0011
0000
0000
1100
0000
,
0000
1001
0000
0000
M1MM
0000
0000
0000
,
1010
0000
0001
0000
,
0110
0000
1000
0000
,
0101
0000
0010
0000
,
1001
0000
0010
0000
,
1100
0000
1001
0000
,
0101
0000
0110
0000
,
1010
1001
0011
0110
,
1000
0100
0010
0001
0100
0000
0000
0000
,
1001
0000
0000
0000
0001
0010
0100
0000
0000
0000
0000
0000
4000
0000
0000
0000
,
3010
0000
0101
0000
0010
0000
1100
1000
,
0001
0010
0100
1000
0001
0010
0001
1000
0040
0000
0000
0000
0130
0000
0000
0000
,
0101
0000
0000
0000
1000
0000
0100
0010
0001
1000
0001
1000
0010
0000
0000
0000
,
1010
0000
4000
3100
0000
4000
3100
0000
,
0010
0000
0000
0000
0001
0100
0010
1000
0001
0000
0000
0000
4000
0000
0000
0000
,
3100
0000
1000
1000
0000
0001
0000
0001
,
0100
0000
0000
0000
0110
0000
0000
0000
0010
1000
0010
1000
0001
0000
0000
0000
,
0010
0000
0000
0000
0000
0000
1100
0000
0000
0000
0000
0000
0004
0000
1003
0010
,
0100
0001
0100
0001
1000
0000
0000
0000
1000
0000
0000
0000
1100
0000
0000
0000
,
0001
0000
0000
0000
0100
0010
0100
0001
4000
0000
0000
0000
3100
0000
0000
0000
,
0011
0000
0000
0000
1000
0000
0010
0100
0001
1000
0100
0010
0001
0000
0000
0000
,
1100
0000
0000
0000
0000
0000
0000
0000
0000
0000
0000
0000
0000
0000
0000
0000
0000
0000
0000
0000
0000
0000
0000
0000
0000
0000
0000
0000
0000
0000
0000
0000
0000
0000
0000
0000
0000
0000
0000
0000
0000
0000
0000
0000
0000
0000
0000
0000
0004
0000
0000
0000
0000
0000
0000
0000
0000
0000
0000
0000
0000
0000
0000
0000
0000
0000
0000
0000
0000
0000
0000
0003
0100
0000
0000
0000
0000
0000
0000
0000
0000
0000
0000
0000
0000
0000
0000
0000
0000
0000
0000
0000
0000
0000
0000
0000
0000
0000
0000
0000
0000
0000
0000
0000
0000
0000
0000
0000
0000
0000
0000
0000
0000
0000
0000
0000
0000
0000
0000
0000
0004
0000
0000
0000
0000
0000
0000
0000
0000
0000
0000
0000
0000
0000
0000
0000
0000
0000
0000
0000
0000
0000
0000
0003
0100
0000
0000
0000
0000
0000
0000
0000
0000
0000
0000
0000
0000
0000
0000
0000
0000
0000
0000
0000
0000
0000
0000
0000
0000
0000
0000
0000
0000
0000
0000
0000
0000
0000
0000
0000
0000
0000
0000
0000
0000
0000
0000
0000
0000
0000
0000
0000
,
0010
0000
0000
0000
0100
0001
1000
0001
0100
0000
0000
0000
0040
0000
0000
0000
,
1030
0000
0000
0000
0001
0000
1000
0000
0001
1000
0001
0010
0100
1000
0100
1000
,
0001
0000
0000
0100
0001
0010
0100
1000
0010
0100
0000
0000
,
0001
1000
0100
0010
0001
0100
0001
0010
,
0100
0000
1000
0000
0010
0000
0100
0000
0001
0000
1000
0000
0100
0010
0100
1000
,
0001
0100
0010
1000
0010
0100
0001
0010
,
0100
1000
0004
0000
0000
0000
0000
0000
1003
0010
1000
0010
0100
0000
0000
0000
,
0001
1000
0001
1000
0100
0000
0000
0000
0010
0000
0001
0000
0010
0000
0000
0000
,
0001
0000
0000
0000
0000
0000
0000
0000
0000
0000
1000
0000
0000
0000
0000
0000
0000
0000
0000
0001
0000
0000
0000
0000
0000
0000
0000
0000
0000
0100
0000
0000
0000
0000
0000
0000
0000
0000
0010
0000
0000
0000
0000
0000
0000
0000
0000
0000
1000
0000
0000
0000
0000
0000
0000
0000
0000
0000
0000
0000
0000
0000
0000
0000
0000
0000
0000
0000
0000
0000
0000
0000
0001
0000
0000
0000
0000
0000
0000
0000
0000
0000
0000
0000
0000
0000
0000
0000
0000
0000
0000
0000
0000
0000
0000
0000
0010
0000
0000
0000
0000
0000
0000
0000
0000
0000
0000
0000
0000
0000
0000
0000
0000
0000
0000
0000
0000
0000
0000
0000
0100
0000
0000
0000
0000
0000
0000
0000
0000
0000
0000
0000
0000
0000
0000
0000
0000
0000
0000
0000
0000
0000
0000
0000
1000
0000
0000
0000
0000
0000
0000
0000
0000
0000
0000
0000
0000
0000
0000
0000
0000
0000
0000
0000
0000
0000
0000
0000
0010
0000
0000
0000
0000
0000
0000
0000
0000
0000
0000
0000
0000
0000
0000
0000
0000
0000
0000
0000
0000
0000
0000
0000
,
0100
0001
1000
0100
0010
0001
1000
0010
,
0100
0001
1000
0100
0010
0001
0100
0000
0000
0010
0000
0000
,
1001
0000
0000
0000
1001
0000
0000
0000
0001
1000
0100
1000
0001
0010
0100
1000
,
0001
0000
0000
1000
0001
0000
0100
0000
0010
0000
1000
0000
0100
0000
0010
0001
,
1000
0000
0010
0000
0100
0000
0001
0010
0100
0000
1000
0000
0001
1000
0010
0100
,
0001
0010
0100
4000
3001
0001
0100
0000
,
0010
0000
0100
0000
0001
0000
1000
0000
0100
0000
0010
0000
0001
1000
0001
1000
,
0010
0000
0000
0100
0000
0000
0001
0000
0000
1000
0001
1000
0001
0000
0000
1000
0000
0000
0400
0000
0000
0000
0000
0000
,
0310
0000
0001
0000
1000
0000
0010
0000
0100
0000
0001
0000
0010
0000
0001
1000
,
0010
0000
0000
0000
,
2002
0000
30M3
0000
0000
0M00
0000
0000
,
00M0
0000
0000
0M00
0000
0000
00M0
0000
,
0M00
0000
0000
00M0
0000
0000
0M00
0000
;
