#TITLE:The Future of Lethargy;
#SUBTITLE:;
#ARTIST:The Flashbulb;
#TITLETRANSLIT:;
#SUBTITLETRANSLIT:;
#ARTISTTRANSLIT:;
#CREDIT:;
#BANNER:lethargy bn.png;
#BACKGROUND:lethargy bg.png;
#LYRICSPATH:;
#CDTITLE:dragoon cd title.png;
#MUSIC:18 - the future of lethargy.mp3;
#OFFSET:-0.081;
#SAMPLESTART:54.000;
#SAMPLELENGTH:14.000;
#SELECTABLE:YES;
#BPMS:0.000=105.010;
#STOPS:;
#BGCHANGES:;
// cache tags:
#FIRSTBEAT:0.000;
#LASTBEAT:204.250;
#SONGFILENAME:Songs/toune 2/The Future of Lethargy/EF.sm;
#HASMUSIC:1;
#HASBANNER:1;
#MUSICLENGTH:117.586;
// end cache tags

//---------------dance-single - ----------------
#NOTES:
     dance-single:
     :
     Hard:
     12:
     1.000,1.000,1.000,1.000,1.000,736.000,144.000,134.000,0.000,3.000:
1001
0100
0001
0010
1001
0100
0001
0010
1001
0100
0010
0001
1001
0100
0010
0001
,
1100
0000
0001
0000
0100
0000
0010
0000
1100
0000
0001
0000
0100
0000
0010
0000
1100
0000
0100
0000
0001
0000
0100
2000
3000
0000
0100
0000
0001
0000
0010
0000
,
1001
0100
0001
0010
1001
0100
0001
0010
1001
0100
0010
0001
1001
0100
0010
0001
,
1100
0100
0001
0010
1100
0100
0001
0010
1100
0100
0001
0010
1100
0001
0100
0010
,
0000
0002
2003
3002
0003
0000
0000
0000
1001
0000
0100
0000
0001
0000
0010
0000
1001
0000
0100
0000
0001
0000
0010
0000
1001
0000
0100
0000
0001
0000
0010
0000
,
1100
0001
0100
0010
1100
0001
0100
0010
1100
0100
0001
0010
1100
0010
0100
0001
,
1001
0000
0100
0000
0001
0000
2000
3002
0203
0000
0302
0000
0023
0000
2030
0000
3001
0000
0100
0000
0001
0000
0010
0000
0002
2003
3200
0000
0301
0000
0010
0000
,
1001
0100
0001
0010
1001
0100
0001
0010
2000
3002
2003
3002
0203
0320
0230
0320
,
1030
0000
1000
0000
1000
0000
1000
0000
0100
0000
0002
2003
3200
0300
0001
0000
,
0001
0000
0001
0000
0001
0000
0001
0000
0200
0000
1300
0000
0010
0010
0002
2003
,
3200
0301
1000
0010
1001
0100
0001
0010
1001
0100
0001
0010
1100
0100
0001
0010
,
2000
0000
0000
0000
0000
0000
0000
0000
0000
0000
0000
0000
3200
0000
0000
0000
0000
0000
0000
0000
0000
0000
0000
0000
0302
0000
0000
0000
0000
0000
0000
0000
0000
0000
0000
0000
0003
0000
0000
0000
0000
0000
2000
0000
0000
0000
0000
0000
3200
0000
0000
0000
0000
0000
0300
0000
0000
0000
0000
0000
1001
0000
0000
0000
0000
0000
0000
0000
0000
0000
0000
0000
0000
0000
0000
0000
1001
0000
0000
0000
0000
0000
0000
0000
0000
0000
0000
0000
0000
0000
0000
0000
1001
0000
0000
0000
0000
0000
0000
0000
0000
0000
0000
0000
0000
0000
0000
0000
1001
0000
0000
0000
0000
0000
0000
0000
0000
0000
0000
0000
0000
0000
0000
0000
1001
0000
0000
0000
0000
0000
0000
0000
0000
0000
0000
0000
0000
0000
0000
0000
1001
0000
0000
0000
0000
0000
0000
0000
0000
0000
0000
0000
0000
0000
0000
0000
1001
0000
0000
0000
0000
0000
0000
0000
0000
0000
0000
0000
0000
0000
0000
0000
1001
0000
0000
0000
0000
0000
0000
0000
0000
0000
0000
0100
0000
0000
0000
0000
0000
0000
0000
0000
,
2002
3003
0100
0000
0001
0000
0010
0000
2002
3003
0100
0000
0001
0000
0010
0000
2002
3003
0100
0000
0001
0000
0010
0000
2002
3003
0200
0000
0302
0000
2003
0000
,
3200
0300
0001
0000
1000
0000
0010
0000
0202
0303
1000
0000
0001
0000
0010
0000
0202
0303
1000
0000
0001
0000
0010
0000
0202
0003
2300
0000
3200
0000
0302
0000
,
1013
0100
0001
0010
1010
0100
0001
0010
1010
0100
0001
0010
1010
0100
0001
0010
,
1100
0100
0001
0010
1100
0100
0001
0010
1100
0100
0001
0010
1100
0001
0200
0000
,
0301
0100
1000
0010
1001
0100
0001
0010
1001
0100
0001
0010
1001
1001
1001
1001
,
1001
0000
0000
0100
0000
0000
0001
0000
0000
2000
0000
0000
3020
0000
0000
0000
0000
0000
0030
0002
0000
0000
0000
0000
0103
0000
0000
0010
0000
0000
0100
0000
0000
0010
0000
0000
2000
0000
0000
0000
0000
0000
3002
0000
0000
0000
0000
0000
,
1003
0100
0001
0010
1001
0100
0001
0010
1001
0100
1000
0001
1010
0100
0001
1000
,
0102
0003
0002
0003
0200
0300
0000
0000
2000
0000
3000
0000
0001
0100
0001
0100
2000
0000
3002
0000
0003
0000
0200
0000
2300
0000
3001
0000
0001
0000
0001
0000
,
1001
0100
0001
0010
1001
0100
0001
0010
1001
0100
0001
0010
1001
0100
0001
0010
,
1100
0000
0001
0000
0100
0000
0010
0000
1100
0000
0001
0000
0100
0000
0010
0000
1100
0000
0100
0000
0001
0000
0010
0000
1100
0000
0001
0000
1000
0001
1000
0000
,
0110
1000
0001
0010
0110
0100
1000
0010
0101
0001
0100
1000
1001
0100
0001
0010
,
1001
0100
0001
1000
0101
1000
0100
0001
1100
0100
0001
0010
2001
0000
0000
0000
,
3001
0100
1000
0001
1001
0100
0001
0010
1001
0200
0302
1003
0110
1000
0100
0010
,
0101
1000
0001
0010
0101
0001
1000
0010
0101
1000
0001
0010
0101
1000
0200
0000
,
0301
0001
0001
0200
1300
0001
0100
0010
1001
0110
0110
0110
1001
0200
0302
2003
,
3010
0000
0100
0000
0001
0000
0010
0000
1100
0000
0100
0000
0001
0000
0010
0000
1000
0001
0100
0010
0000
0000
0000
0000
0200
0000
0000
0000
0302
0000
0000
0000
,
1003
0100
0001
0010
1100
0100
1000
0010
1100
0100
0002
0000
1003
0100
0001
0010
,
1001
0100
1000
0010
0101
1000
0100
0010
2001
3001
0100
0010
1001
0100
0020
0000
,
0031
1000
0001
0020
1030
0100
0001
0010
1001
0100
0001
0010
1001
0100
0001
0010
,
1001
0000
1001
0000
1001
0000
1001
0000
0110
0000
0001
0000
1000
0000
0010
0000
1100
0000
0001
0000
0110
0000
0110
0000
1000
0000
0010
0000
0100
0001
1000
0010
,
1001
0100
0001
0010
1100
0001
1000
0010
2000
3002
0023
0230
1300
0100
0001
0010
,
1100
0100
0001
0010
1001
0100
0020
0000
0031
0100
1000
0010
0100
0000
0002
0000
,
1003
0000
0100
0000
0001
0000
0010
0000
1000
0000
0100
0000
0010
0001
1000
0100
1001
0000
0100
0000
1000
0000
0020
0000
0032
0000
0000
0000
2003
0000
0000
0000
,
3101
1000
0100
0001
1010
0100
0001
1000
0200
0300
1001
0000
1001
0000
0200
0000
,
0301
1000
0100
0010
1001
0100
1000
0010
0101
1000
0200
0302
2003
3000
0002
0100
,
1003
0100
0001
0010
1001
0100
0001
0010
1001
0100
0001
0010
1001
0000
0200
0000
,
0301
0000
1000
0000
0001
0000
1000
0000
0200
0000
0310
0001
1001
0100
1000
0010
,
1001
0100
0001
0010
1100
0000
0001
0000
1000
0000
0100
0000
0001
0000
1000
0000
,
1001
0100
0001
0010
1100
1000
0001
0010
2000
3200
0300
0000
0002
1000
0100
0010
,
1003
0100
0001
0010
1001
0100
0001
0010
1100
0002
0203
0320
1030
0000
0200
0000
,
0301
1000
0100
0010
1001
0100
0001
0010
0101
1001
1001
0100
0011
1000
0100
0010
,
2000
3002
0203
2300
3001
0000
0000
0000
0100
0001
1000
0010
0100
0001
1000
0010
,
1001
1000
0001
1000
1001
1000
0001
1000
1001
1000
0001
1000
1001
1000
0001
1000
,
0110
0010
0200
0320
0130
0010
0100
0010
0110
0100
0010
0100
0110
0100
0010
0100
,
1100
1000
0100
1000
1100
1000
0100
1000
1100
1000
0200
2300
3100
1000
0100
1000
,
0002
0023
0032
0013
0011
0001
0020
0032
0023
0001
0032
0010
0013
0001
0010
0001
,
0200
0000
0000
0000
0320
0000
0000
0002
2033
0000
0000
0000
3200
0000
0000
0000
0300
0000
0000
0000
0000
0000
0000
0000
0010
0000
0001
0000
1000
0000
0000
0000
,
0200
0000
0000
0302
0000
0000
0000
1003
0020
0000
0000
0230
0000
0000
0302
0000
,
1003
0000
0100
0001
0010
0000
0200
0000
0000
0000
0302
0000
0000
0000
2003
0000
,
0000
3000
0000
0000
0000
0000
0000
0000
0000
0000
0000
0000
0000
0000
0000
0000
;
