#TITLE:Rise'n Beauty;
#SUBTITLE:;
#ARTIST:Sota feat. Cybord Akemi;
#TITLETRANSLIT:;
#SUBTITLETRANSLIT:;
#ARTISTTRANSLIT:;
#CREDIT:;
#BANNER:Rise'n Beauty-bn.png;
#BACKGROUND:Rise'n Beauty-bg.png;
#LYRICSPATH:;
#CDTITLE:paranoivm.png;
#MUSIC:Rise'n Beauty.mp3;
#OFFSET:-0.400;
#SAMPLESTART:41.667;
#SAMPLELENGTH:12.000;
#SELECTABLE:YES;
#BPMS:0.000=144.000;
#STOPS:;
#BGCHANGES:;
// cache tags:
#FIRSTBEAT:31.500;
#LASTBEAT:289.000;
#SONGFILENAME:Songs/juju steps/Rise'n Beauty/Rise'n Beauty.sm;
#HASMUSIC:1;
#HASBANNER:1;
#MUSICLENGTH:125.887;
// end cache tags

//---------------dance-single - ----------------
#NOTES:
     dance-single:
     :
     Challenge:
     10:
     0.797,0.803,0.413,0.286,0.862,614.000,52.000,36.000,0.000,24.000:
0000
0000
0000
0000
,
0000
0000
0000
0000
,
0000
0000
0000
0000
,
0000
0000
0000
0000
,
0000
0000
0000
0000
,
0000
0000
0000
0000
,
0000
0000
0000
0000
,
0000
0000
0000
0000
0000
0000
0000
0000
0000
0000
0000
0000
0000
0000
1000
0001
,
0020
0100
1031
0000
0020
0100
1031
0000
,
1000
0100
0001
0010
0200
0000
1301
0000
,
0200
1000
0311
0000
0200
1000
0311
0000
,
0100
1000
0001
0010
0100
0010
0001
1000
,
0200
0010
1310
0000
0020
0100
0131
0000
,
0001
1000
0100
0001
1000
0010
0001
0100
,
1000
0001
0010
0001
1000
0100
0010
1000
,
1002
0123
1230
2301
,
3001
0100
0000
0100
0010
1000
0010
0100
0000
0100
0010
0000
0010
0001
1000
0100
,
0000
0100
0010
0000
0010
1000
0001
0010
0000
0010
0100
0000
0100
1000
0100
0001
,
0100
0010
0001
0000
0001
0010
0100
1000
0000
1000
0100
0000
0100
0001
0100
1000
,
0000
1000
0000
0010
0100
0010
0001
1000
0000
1000
0100
0000
0010
1000
0100
0010
,
0100
0001
0100
0010
0100
1000
0100
0001
0000
0001
0100
0000
0100
1000
0010
0100
,
0000
0100
0000
0001
1000
0001
1000
0100
0000
0100
0000
0001
0100
1000
0010
0100
,
0000
0100
0000
0010
0001
1000
0100
0010
0000
0010
1000
0000
1000
0010
0100
0001
,
0000
0001
1000
0000
0100
0001
0100
1000
0100
0000
0010
0000
0001
0000
0010
0000
,
0100
1000
0010
0100
0001
0000
0001
0100
0000
0100
1000
0000
1000
0100
0000
0100
,
0010
1000
0010
0000
0100
0001
1000
0100
0000
0100
1000
0000
0100
0001
0000
0001
,
0100
0010
0001
0000
1000
0000
0100
1000
0000
1000
0001
0000
0010
0001
0100
0010
,
0000
0010
1000
0000
0010
0001
1000
0100
0000
0010
1000
0000
0001
0010
1000
0001
,
1000
0010
0001
0000
0100
0000
0010
0001
0000
0001
0010
0000
0010
0100
0000
0100
,
0001
1000
0100
0000
0100
0001
0000
0001
0000
0100
1000
0000
1000
0100
0010
0001
,
0000
0001
0010
0000
0011
0000
0001
1000
0001
0000
0001
0100
0000
0100
0000
0010
,
1000
0010
0100
0000
0010
0001
0010
0000
0010
1000
0100
0001
0100
0010
0001
0010
,
0100
1000
0001
0000
0100
0000
1000
0000
0001
0000
0010
0000
0001
0000
1000
0000
,
0200
0010
2300
0001
3020
0000
0031
0000
,
0100
0000
0001
0000
1000
0100
0000
0100
0000
1000
0010
0000
0100
0000
0001
0000
,
2000
0100
3011
0000
0002
0000
1013
0000
,
0100
1000
0000
1000
0000
0100
0010
0000
0010
0100
0000
0100
0001
0000
1000
0000
,
0200
0010
1301
0000
0010
0100
0001
1000
,
0100
0020
1031
0010
1000
0200
1310
0100
,
0001
2000
3011
1000
0100
1001
0010
0110
,
1001
0000
0001
0000
1000
0100
0000
0100
0000
1000
0000
0010
0100
0000
0001
0000
,
1000
0000
0001
0000
0011
0001
0000
1000
0000
0100
0000
1000
0010
0000
0100
0000
,
1000
0000
0100
0000
0010
0100
0000
0100
0000
0010
0000
1000
0010
0000
0100
0000
,
0001
1000
0100
0000
0010
0001
0000
1001
0000
1000
0000
0010
0100
0000
1001
0000
,
0110
0000
0100
0000
1000
0100
0000
0010
0000
0100
0000
0001
1000
0100
0010
0000
,
0001
0000
0010
0000
0001
0000
0000
1000
0000
0010
0000
0100
0001
0000
1000
0000
,
1001
0002
0113
0000
1010
0200
0311
0000
,
1000
0000
0200
0000
1301
0000
0020
0000
0130
0000
0002
0000
1003
0000
0200
0010
,
1301
0000
1000
0000
0210
0000
0000
0010
1300
0000
1001
0000
0201
0000
0000
0001
,
1300
0000
0100
0000
1000
0001
0000
0001
1000
0000
0100
0000
1010
0000
0000
0000
,
0110
0000
0000
1001
0000
0000
0210
0000
0000
0000
0310
0000
1000
0000
0010
0000
,
0001
0000
0010
0000
0100
0000
0001
0000
1000
0000
0100
0000
0010
0001
1000
0100
,
0020
0001
1031
1000
0020
0100
1031
0010
,
2000
0010
3101
0001
2000
0100
3011
1100
,
1001
0000
0000
0101
0000
0000
0210
0000
0000
0000
0310
0000
1000
0000
0010
0000
,
0000
0110
0000
0101
0000
0001
1000
0100
,
0010
0000
0001
0000
1000
0000
0001
1000
0000
0100
0000
0001
0000
0100
1000
0010
,
0000
0010
0100
0000
0001
0000
1000
0001
0000
0010
0000
0100
1000
0001
0010
0100
,
0000
0100
1000
0000
1010
0000
0010
0100
0000
0010
0000
0001
1000
0100
0010
1000
,
0001
0000
0001
0000
0010
0000
0100
1000
0000
0100
0000
0001
0100
0000
0100
1000
,
0100
0000
0010
0000
0001
0000
0010
0100
0000
0100
0000
0010
1000
0000
0010
0001
,
0100
0000
0010
0000
0001
0000
1000
0100
0000
0010
0000
1000
0010
0000
0010
0100
,
0001
0000
0001
0000
1000
0000
0100
1000
0000
1000
0000
0001
0010
0001
0100
0010
,
1000
0000
0010
0000
0100
0000
0010
0001
0000
1000
0000
0100
0010
1000
0001
0010
,
0100
0000
0100
1000
0100
0000
0100
0001
0100
0000
0100
0010
0001
0000
0001
0100
,
0001
0000
0001
1000
0001
0000
0001
0010
0000
0010
0000
0100
0010
0100
0001
0100
,
1000
0000
1000
0010
1000
0000
0010
0100
0010
0000
0100
0010
0001
0000
0010
0100
,
0010
1000
0001
0000
0010
0000
0100
1000
0000
0100
0000
0001
0100
1000
0100
0001
,
0100
0000
0100
0000
1010
0000
0010
0100
0000
0100
0000
0001
1000
0001
1000
0100
,
0010
0000
0001
0000
0010
0000
1000
0010
0000
0010
0000
0001
0100
0000
0010
0001
,
1000
0000
0100
0000
0011
0000
0001
0010
0000
0010
0000
0100
1000
0000
0100
1000
,
0001
0000
0010
0000
0001
0000
0100
0010
0000
0010
1000
0010
0100
0001
1000
0100
,
2002
3003
0000
0000
;

//---------------dance-single - ----------------
#NOTES:
     dance-single:
     :
     Hard:
     9:
     0.609,0.629,0.318,0.214,0.417,470.000,40.000,27.000,0.000,0.000:
0000
0000
0000
0000
,
0000
0000
0000
0000
,
0000
0000
0000
0000
,
0000
0000
0000
0000
,
0000
0000
0000
0000
,
0000
0000
0000
0000
,
0000
0000
0000
0000
,
0000
0000
0000
0000
0000
0000
0000
0000
0000
0000
0000
0000
0000
0000
0001
1000
,
0200
0001
1000
0310
,
0100
1000
0010
0001
0010
0100
0001
0000
,
2000
0100
3001
0000
0100
0010
2000
0000
,
3001
0100
1000
0010
0001
1000
0100
0000
,
0100
0010
1001
0000
0010
0001
1010
0000
,
0100
0010
1000
0001
0010
0001
0110
0000
,
0100
0001
1000
0100
0020
0000
1030
0000
,
0012
0003
0201
0300
0120
0030
2010
3100
,
1001
0000
0001
0000
0010
0000
0000
0000
0100
1000
0000
1000
0100
0000
0001
0000
,
0100
0000
0010
0000
1001
0000
0000
0000
1000
0010
0000
0010
0100
0000
1000
0000
,
0100
0000
0010
0000
0101
0000
0000
0000
0100
0010
0000
0010
0100
0000
0001
0000
,
1000
0000
0100
0000
0011
0000
0000
0000
0100
1000
0000
1000
0100
0000
0001
0000
,
0100
0000
1000
0000
0101
0000
0000
0000
0100
0010
0000
0010
1000
0000
0010
0000
,
0100
0000
0001
0000
1100
0000
0000
0000
0100
1000
0000
1000
0100
0000
0001
0000
,
0100
0000
0010
0000
0001
0000
0000
0000
0001
1000
0000
1000
0010
0000
0100
0000
,
0001
0000
0100
0010
0000
0010
1000
0000
1000
0010
0000
0010
0100
0000
0001
0000
,
1000
0100
0001
0100
1000
0100
0010
1000
,
0010
0001
0100
0000
0010
0000
0001
0000
1000
0000
0100
0000
0010
0000
1000
0000
,
0010
0000
0100
0000
0001
0000
1000
0001
0000
0001
0010
0000
0100
0000
1000
0000
,
0100
0001
0100
0000
1000
0000
0100
0001
0000
0001
0100
0000
1000
0010
0000
0010
,
0100
0001
1000
0001
0100
0001
0100
1000
,
0001
0000
0010
0000
0100
0001
1000
0000
0100
0000
0001
0000
0100
0000
0010
0000
,
1000
0000
0010
0000
0001
0000
0100
1000
0000
1000
0100
0000
0010
0000
1000
0000
,
0010
0100
0010
1000
0010
0001
0010
0100
,
0020
0000
1030
0100
0001
0100
0020
0000
,
1030
0101
0010
1001
,
1000
0010
0100
0001
1000
0100
1100
0000
,
1000
0001
0011
0000
0010
0000
0001
1000
,
0100
0001
0100
0010
0002
0000
1003
0000
,
1000
0010
0100
0000
1000
0001
0010
0001
,
1000
0100
0020
0000
1030
0001
0010
0001
,
1000
0000
0100
0000
0002
0000
0000
0000
0103
0000
1000
0000
0010
0100
0000
0100
,
0001
0100
1010
0000
0100
0001
1100
0000
,
0010
0001
0010
1000
0010
0100
2000
0000
,
3001
0000
0101
0001
1000
0000
1100
0000
,
1000
0001
0010
0001
1000
0000
1200
0000
,
1300
0100
0001
0100
0010
0001
0010
1000
,
0010
0000
0001
0000
0100
0000
1000
0000
0100
0010
0000
0010
0100
0000
0001
0000
,
1000
0100
0011
0100
1000
0010
0101
0010
,
1000
0000
0100
0000
1001
0000
0001
0000
0010
0000
0001
0000
0100
0000
0010
1000
,
0002
1003
2000
3010
,
0020
0000
0130
0000
0200
0000
1300
0100
,
0001
0000
0000
0011
0000
0000
1001
0000
0000
0000
1010
0000
0000
0000
1000
0000
,
0001
0000
0010
0000
0001
0000
1000
0000
0010
0100
0000
0100
0010
0000
0000
0000
,
2000
3001
0002
0013
,
0020
0000
1030
0000
2000
0000
3001
1000
,
0010
0000
0000
0001
0000
0000
0200
0000
0000
0000
1300
0000
0000
0000
1100
0000
,
0000
0110
0000
0101
0000
0001
1000
0100
,
0011
0000
0010
0000
0001
0000
0010
0001
0000
0010
0000
0001
0000
1000
0000
1000
,
0100
0000
0010
0000
0001
0000
0010
0001
0000
0100
0000
0001
0000
0100
0010
0100
,
0000
0000
1000
0000
0010
0000
0000
1000
0000
0010
0000
1000
0000
0001
0010
0000
,
0001
0000
1000
0000
0100
0000
0000
1000
0000
0000
1001
0000
0000
0001
0000
0000
,
0100
0000
0010
0000
1000
0000
0000
0010
0000
1000
0000
0010
0000
0100
0001
0000
,
0001
0000
0100
0000
0010
0000
0000
1010
0000
1001
0000
1100
0000
0000
0001
0000
,
0010
0000
0001
0000
1000
0000
0010
0000
0100
0000
0001
0000
1000
0100
0000
0100
,
1000
0000
0100
0000
1000
0000
0100
1000
0000
0100
0000
0010
0000
0001
0000
0010
,
0001
0000
1000
0000
0001
0000
0000
0010
0000
0001
0000
0100
0000
1000
0000
0100
,
0010
0000
1000
0000
0010
0000
0000
0100
0000
0101
0000
0001
0000
1000
0000
1000
,
0100
0000
0010
0000
0001
0000
0000
0011
0000
0001
0000
1000
0000
0100
0000
1000
,
0010
0000
0100
0000
0001
1000
0000
0001
0000
0010
0000
0001
1000
0000
0100
0000
,
0010
0000
0001
0000
0020
0000
0000
0031
0000
0001
0000
1000
0000
0010
0000
0100
,
0010
0000
0100
0000
1000
0100
0000
0100
0000
0010
0000
1000
0010
0000
0010
0100
,
0001
0000
1000
0000
0100
0000
0010
0001
0000
0010
0000
1001
0000
1000
0100
1000
,
0010
0000
0100
0000
0001
0000
0000
0200
0000
0000
0310
0000
0000
2010
0000
0000
,
3001
0000
0000
0000
;
