#TITLE:Amazing;
#SUBTITLE:;
#ARTIST:Inna ft. Hixxy, Sy & Unknown;
#TITLETRANSLIT:;
#SUBTITLETRANSLIT:;
#ARTISTTRANSLIT:;
#CREDIT:Lachlan Miller;
#BANNER:../Zeppelin_bn.png;
#BACKGROUND:../bg_Zeppelin.png;
#LYRICSPATH:;
#CDTITLE:../cdtitle_ZAiA.png;
#MUSIC:Inna ft. Hixxy, Sy & Unknown - Amazing.ogg;
#OFFSET:1.265;
#SAMPLESTART:127.182;
#SAMPLELENGTH:22.700;
#SELECTABLE:YES;
#BPMS:0.000=170.000;
#STOPS:;
#BGCHANGES:;
// cache tags:
#FIRSTBEAT:4.000;
#LASTBEAT:746.000;
#SONGFILENAME:Songs/Cirque du Zeppelin/Amazing - [Zaia]/Amazing.sm;
#HASMUSIC:1;
#HASBANNER:1;
#MUSICLENGTH:266.553;
// end cache tags

//---------------dance-single - 3-15/16-15/16-16----------------
#NOTES:
     dance-single:
     3-15/16-15/16-16:
     Challenge:
     14:
     1.000,1.000,0.079,0.574,1.000,1936.000,21.000,153.000,0.000,0.000:
0000
0000
0000
0000
,
1000
0000
0000
0001
0000
0000
0100
0000
0000
0010
0000
1000
0001
0000
0010
0000
,
0100
0000
0000
1000
0000
0000
0001
0000
0000
0100
0000
0010
1000
0000
0001
0000
,
0010
0000
0000
0100
0000
0000
1000
0000
0000
0001
0000
0100
0010
0000
0100
0000
,
0001
0000
0000
0010
0000
0000
0100
0000
0000
1000
0000
0001
0100
0000
0001
0000
,
1000
0000
0000
0100
0000
0000
0010
0000
0000
0100
0000
1000
0001
0000
0100
0000
,
0010
0000
0000
1000
0000
0000
0001
0000
0000
0010
0000
0100
1000
0000
0001
0000
,
0100
0000
0000
0010
0000
0000
1000
0000
0000
0001
0000
0010
0100
0000
0010
0000
,
0001
0000
0000
0100
0000
0000
0010
0000
0000
1000
0000
0001
0010
0000
0001
0000
,
1000
0000
0001
0000
0101
0000
0100
0000
0010
1000
0000
0001
0010
0000
0001
0000
,
1000
0000
0100
0000
1100
0000
1000
0000
0010
0100
0000
0001
1000
0000
0100
0000
,
0010
0000
0001
0000
1001
0000
1000
0000
0010
0100
0000
0001
0100
0000
0001
0000
,
1000
0000
0010
0000
1010
0000
1000
0000
0001
0010
0000
0001
1000
0000
0001
0000
,
0100
0000
0001
0000
0011
0000
0010
0000
0100
1000
0000
0001
0100
0000
0010
0000
,
1000
0000
0100
0000
0110
0000
0010
0000
0001
1000
0000
0010
1000
0000
0001
0000
,
0010
0000
0100
0000
1100
0000
1000
0000
0001
0100
0000
0001
0010
0000
0100
0000
,
0000
0000
0000
0000
,
1000
0001
0100
0001
1000
0100
1000
0001
,
0010
0100
1000
0010
1000
0001
0100
0001
,
0010
0001
1000
0010
0100
0001
1000
0100
,
0010
0100
1000
0010
0100
0001
0010
0001
,
1000
0100
0010
0001
1000
0010
1000
0001
,
0100
0010
1000
0100
1000
0001
0010
0001
,
0100
0001
1000
0100
0010
0001
1000
0010
,
0100
0000
0010
0000
2000
3000
0200
0300
0010
0000
0001
0000
0100
0000
0001
0000
,
1000
0000
0010
0000
1010
0000
1000
0000
0100
0000
0010
0000
0001
0100
0001
0000
,
1000
0000
0001
0000
0011
0000
0010
0000
0100
0000
1000
0000
0010
1000
0010
0000
,
0100
0000
0001
0000
1001
0000
1000
0000
0100
0000
0010
0000
0001
0100
0001
0000
,
1000
0000
0001
0000
0011
0000
0010
0000
0100
0000
1000
0000
0001
0100
0001
0000
,
1000
0000
0100
0000
1100
0000
1000
0000
0010
0000
0100
0000
0001
0010
0001
1000
,
0001
0100
0010
0100
0001
1000
0001
0010
0100
1000
0001
1000
0010
1000
0001
0100
,
0001
1000
0001
1000
0100
0010
0100
1000
0001
0010
0100
1000
0001
1000
0010
0100
,
0000
0000
0000
0000
,
0001
0100
0010
1000
0100
1000
0001
0100
0010
1000
0001
1000
0100
0010
0100
1000
,
0001
0100
0001
1000
0001
0010
0100
1000
0010
1000
0001
0100
0001
0010
0100
1000
,
0001
1000
0010
0100
0010
1000
0001
0010
0100
1000
0100
0010
0001
0100
0010
0100
,
0001
1000
0100
1000
0001
1000
0010
0100
0001
0010
0100
1000
0010
1000
0001
0100
,
0010
1000
0001
1000
0100
0010
0100
1000
0001
1000
0001
0010
0001
0100
0010
1000
,
0001
0010
0001
1000
0010
1000
0001
0100
0010
1000
0001
0100
0001
1000
0010
1000
,
0001
0010
0001
0100
0010
0100
0001
0010
0100
1000
0010
0100
0001
1000
0001
0010
,
0100
1000
0001
1000
0010
0100
0001
1000
0001
0010
0001
1000
0010
0000
0100
0000
,
0001
1000
0100
1000
0010
0100
0001
0010
0001
1000
0010
0100
0001
1000
0001
0010
,
0100
1000
0001
0010
0100
0010
0001
0100
0010
1000
0001
0010
0001
1000
0010
1000
,
0001
0100
0001
0010
0100
1000
0001
1000
0010
1000
0001
0010
0100
0010
0001
1000
,
0001
0100
0010
1000
0001
1000
0010
1000
0001
0100
0010
1000
0100
1000
0001
0010
,
0100
1000
0001
1000
0010
0100
0010
1000
0001
1000
0001
0100
0001
0010
0100
1000
,
0001
0010
0001
1000
0010
1000
0001
0100
0010
1000
0001
0010
0001
1000
0100
1000
,
0001
0100
0001
0010
0100
0010
0001
0100
0010
1000
0100
0010
0001
0100
0020
0000
,
0000
0000
0000
0000
0000
0030
0000
0000
,
2000
0000
3002
0000
0023
0230
0320
0032
,
0000
0003
0000
2000
3020
0230
0302
0023
,
0230
0000
0000
0300
0000
0000
2000
0000
3002
0000
0023
0000
0032
0000
0203
0000
,
0320
0000
0000
0030
0000
0000
2000
0000
3020
0000
0230
0000
0302
0000
0003
0000
,
2000
3000
0002
0003
0200
0320
2030
3200
,
0000
0300
0000
0020
0032
2003
3002
0203
,
0300
0020
0030
2000
3020
2030
3002
0023
,
0030
0200
0000
0300
0000
0000
0000
0000
,
0000
0000
0000
0000
,
0000
0000
0000
0000
,
1000
0100
0010
0001
0100
0001
0010
0100
,
1100
0000
0000
0000
1001
0000
0000
0000
1001
0000
0001
0000
0100
0000
0100
0010
,
1000
0100
1000
0001
0100
0010
1000
0001
,
0101
0000
0000
0000
0110
0000
0000
0000
0110
0000
0100
0000
0010
0000
0010
1000
,
0001
0100
0001
0100
0010
1000
0100
1000
,
1001
0000
0000
0000
0011
0000
0000
0000
0011
0000
0001
0000
0010
0000
0010
0100
,
1000
0001
0100
0001
0010
0100
1000
0010
,
2000
0000
0000
3000
,
0001
0000
0001
0000
0100
0000
0100
0010
,
1000
0000
0000
0000
0000
0000
1000
0000
0000
0000
0000
0000
0100
0000
0000
0000
0000
0000
0100
0000
0000
1000
0100
1000
,
0001
0000
0000
0000
0001
0000
0000
0000
0100
0000
0000
0000
0100
0000
0010
1000
,
0001
0000
0000
0000
0001
0000
0000
0000
0010
0000
0000
0000
0100
1000
0001
1000
,
0001
0000
0000
0000
0000
0000
0000
0000
0000
0000
0000
0000
0100
0000
0000
0000
0000
0000
0001
0000
0100
0000
0001
0000
1000
0000
0000
0000
0000
0000
0200
0000
0000
0000
0000
0000
0310
0000
0000
0001
0000
0000
0010
0000
0000
0001
0000
0000
,
1000
0000
0000
0000
0000
0000
0000
0000
0000
0000
0000
0000
0001
0000
0000
0000
0000
0000
1000
0000
0010
0000
1000
0000
0001
0000
0000
0000
0000
0000
0200
0000
0000
0000
0000
0000
0301
0000
0000
1000
0000
0000
0100
0000
0000
1000
0000
0000
,
0100
0000
0010
0000
0100
0000
0010
0000
0100
0000
0010
0000
0001
1000
0001
1000
,
0002
0000
0000
0000
0003
0100
0010
1000
,
0001
0100
0001
0010
0100
1000
0001
0100
,
0010
0100
0001
0010
0100
1000
0001
0001
,
0100
0001
0010
0001
0100
0010
1000
0100
,
0010
0100
1000
0010
0100
0001
0010
0100
,
1000
0001
0100
0010
1000
0100
0010
0100
,
1000
0010
0100
0001
0010
0100
1000
1000
,
0001
0100
0010
1000
0100
1000
0010
0100
,
0001
0010
0001
0100
0010
1000
0100
1000
,
0001
0000
1000
0010
1000
0000
0001
0000
0010
0000
0100
1000
0100
0000
1000
0000
,
0010
0000
0100
0001
0100
0000
0010
0000
1000
0000
0001
0010
0001
0000
0010
0100
,
1000
0000
0001
0100
0001
0000
0010
0000
0100
0000
1000
0001
1000
0000
0010
0100
,
0001
0000
1000
0010
1000
0000
0001
0000
0010
0000
0001
0010
0100
1000
0001
1000
,
0010
0000
1000
0100
1000
0000
0001
0000
0100
0000
0010
1000
0010
0000
1000
0000
,
0100
0000
0010
0001
0010
0000
0100
0000
1000
0000
0001
0100
0001
0000
0100
0010
,
1000
0000
0001
0000
1000
0000
0001
0000
1000
0000
0001
0000
0010
0100
1000
0001
,
0100
0010
1000
0010
0100
0001
1000
0100
1000
0000
0010
0000
0100
0000
0001
0000
,
1000
0010
0100
0001
0010
0100
1000
0010
1000
0001
0100
0001
1000
0001
0010
0100
,
1000
0100
0010
0001
1000
0001
0100
0001
1000
0100
0010
0100
1000
0001
0100
0001
,
0010
0001
1000
0010
0100
0001
1000
0001
0010
0100
0010
0001
1000
0010
1000
0100
,
0010
0100
1000
0001
1000
0010
0100
0001
1000
0001
0010
0100
1000
0001
1000
0100
,
1000
0001
0100
0010
1000
0100
0010
0001
0100
0001
1000
0010
1000
0001
1000
0100
,
0010
0001
0010
0100
1000
0001
1000
0010
1000
0001
0010
0100
0010
0001
1000
0010
,
1000
0100
1000
0001
0100
0010
1000
0001
1000
0100
0010
0100
1000
0001
0100
0001
,
0010
0001
1000
0100
1000
0001
0100
0010
1000
0001
1000
0100
0010
0001
0100
0001
,
1000
0100
0010
0001
1000
0010
1000
0100
1000
0001
0010
0001
1000
0001
0100
0010
,
1000
0010
0100
0001
1000
0001
0010
0001
1000
0010
0100
0010
1000
0001
0010
0001
,
0100
0001
1000
0100
0010
0001
1000
0001
0100
0010
0100
0001
1000
0100
1000
0010
,
0100
0010
1000
0001
1000
0100
0010
0001
1000
0001
0100
0010
1000
0001
1000
0010
,
1000
0001
0010
0100
1000
0010
0100
0001
0010
0001
1000
0100
1000
0001
1000
0010
,
0100
0001
0100
0010
1000
0001
1000
0100
1000
0001
0100
0010
0100
0001
1000
0100
,
1000
0010
1000
0001
0010
0100
1000
0001
1000
0010
0100
0010
1000
0001
0010
0001
,
1000
0000
0000
0000
,
0001
1000
0010
1000
0001
0100
0001
1000
0100
0010
0001
0100
0001
1000
0010
1000
,
0001
0100
0001
0010
0001
1000
0100
1000
0001
0100
0010
1000
0100
1000
0001
0010
,
0001
1000
0100
1000
0010
0100
0010
1000
0001
0100
0001
0010
0001
1000
0100
1000
,
0001
0010
0001
0100
0001
1000
0010
1000
0001
0010
0100
1000
0010
1000
0001
1000
,
0100
0010
0001
1000
0010
1000
0001
0010
0100
1000
0010
1000
0001
0100
0001
1000
,
0010
1000
0100
1000
0001
0010
0001
1000
0010
0100
0001
0010
0001
1000
0100
1000
,
0001
0010
0001
0100
0010
0100
0001
1000
0010
1000
0100
1000
0001
0010
0001
1000
,
0100
1000
0010
1000
0001
0100
0001
1000
0100
0010
0001
0100
0001
1000
0010
1000
,
0001
0010
0100
1000
0010
1000
0001
1000
0001
0010
0100
1000
0010
0100
0001
1000
,
0001
0010
0100
1000
0010
1000
0001
1000
0001
0010
0100
1000
0010
1000
0001
0010
,
0001
0100
0010
1000
0100
1000
0001
1000
0001
0100
0010
1000
0100
0010
0001
1000
,
0001
0100
0010
1000
0100
1000
0001
1000
0001
0100
0010
1000
0100
0010
0001
0100
,
0001
1000
0010
0100
0001
0010
0001
1000
0001
1000
0010
0100
0001
0010
0100
1000
,
0001
1000
0010
0100
0001
0010
0001
1000
0001
1000
0010
0100
0001
0010
0001
1000
,
0010
1000
0100
0010
0001
0100
0001
1000
0001
1000
0100
0010
0001
0100
0010
0000
,
0000
0000
0000
0000
,
2000
0000
3002
0000
0023
0230
0320
0032
,
2000
0003
3000
0000
0020
0230
0302
0000
,
2003
0000
3002
0203
0320
2030
3200
0320
,
0200
0030
0300
0000
2000
3020
0230
0302
,
0023
0000
0230
0000
2300
3002
0023
0032
,
0200
0003
0000
0300
0000
0000
0000
0000
,
0000
0020
2030
3002
2003
3200
0320
0230
,
2000
0300
3000
0000
0020
0230
0302
0000
,
2003
0000
3002
0023
0032
2003
3020
2030
,
0200
3000
0300
0000
0020
0032
2003
0000
,
3020
0000
0230
0000
0302
0203
0302
2003
,
0200
3000
0300
0000
2000
3020
0230
0302
,
0023
0000
0230
0000
0320
0032
2003
3020
,
0200
0030
0000
0300
0000
0000
0000
0000
,
0000
0002
2003
3200
2300
3020
0230
0302
,
2000
0003
0000
0000
0000
3000
0200
0320
,
0031
0000
0010
0000
0001
0100
0010
1000
,
0000
0000
0000
0001
0010
0001
0200
0320
,
1030
0000
0000
0100
1000
0010
2000
3002
,
0103
0000
0000
0010
0100
0001
2000
3200
,
0310
0000
0100
0000
0010
0001
1000
0010
,
0000
0000
0000
0100
0001
0010
0200
0320
,
0030
0001
0000
1000
0100
1000
0020
0230
,
0300
0001
0000
0000
0000
0000
0000
0000
,
1000
0000
1000
0200
0320
0000
0032
0023
,
0000
0130
0000
0010
0000
0001
0100
0100
,
0010
0000
0010
0200
0302
0000
0203
0320
,
0000
1030
0000
0001
0000
1000
0100
0010
,
0001
0000
0001
0020
0230
0000
2300
3020
,
0000
0130
0000
0001
0000
0100
0010
0010
,
1000
0000
1000
0200
0320
0000
0032
2003
,
0000
0000
0000
3000
,
0001
0010
0100
1000
0010
0100
0001
0010
0001
1000
0100
1000
0001
1000
0010
0100
,
0001
0100
0010
1000
0001
1000
0100
1000
0001
0100
0010
0100
0001
1000
0100
1000
,
0010
1000
0001
0010
0100
1000
0001
1000
0010
0100
0010
1000
0001
0010
0001
0100
,
0010
0100
0001
1000
0001
0010
0100
1000
0001
1000
0010
0100
0001
1000
0001
0100
,
0001
1000
0100
0010
0001
0100
0010
1000
0100
1000
0001
0010
0001
1000
0001
0100
,
0010
1000
0010
0100
0001
1000
0001
0010
0001
1000
0010
0100
0010
1000
0001
0010
,
0001
0100
0001
1000
0100
0010
0001
1000
0001
0100
0010
0100
0001
1000
0100
1000
,
0010
1000
0001
0100
0001
1000
0100
0010
0001
1000
0001
0100
0010
1000
0100
1000
,
0001
0100
0010
1000
0001
0010
0001
0100
0001
1000
0010
1000
0001
1000
0100
0010
,
0001
0010
0100
1000
0001
1000
0010
1000
0001
0010
0100
0010
0001
1000
0010
1000
,
0100
1000
0001
0100
0010
1000
0001
1000
0100
0010
0100
1000
0001
0100
0001
0010
,
0100
0010
0001
1000
0001
0100
0010
1000
0001
1000
0100
0010
0001
1000
0001
0010
,
0001
1000
0010
0100
0001
0010
0100
1000
0010
1000
0001
0100
0001
1000
0001
0010
,
0100
1000
0100
0010
0001
1000
0001
0100
0001
1000
0100
0010
0100
1000
0001
0100
,
0001
0010
0001
1000
0010
0100
0001
1000
0001
0010
0100
0010
0001
1000
0010
1000
,
0001
1000
0001
0010
0100
0010
0001
1000
0010
0000
1000
0000
0001
0000
1000
0000
,
0001
1000
0010
1000
0001
0100
0001
1000
0100
0010
0001
0100
0001
1000
0010
1000
,
0001
0100
0001
0010
0001
1000
0100
1000
0001
0100
0010
1000
0100
1000
0001
0010
,
0001
1000
0100
1000
0010
0100
0010
1000
0001
0100
0001
0010
0001
1000
0100
1000
,
0001
0010
0001
0100
0001
1000
0010
1000
0001
0010
0100
1000
0010
1000
0001
1000
,
0100
0010
0001
1000
0010
1000
0001
0010
0100
1000
0010
1000
0001
0100
0001
1000
,
0010
1000
0100
1000
0001
0010
0001
1000
0010
0100
0001
0010
0001
1000
0100
1000
,
0001
0010
0001
0100
0010
0100
0001
1000
0010
1000
0100
1000
0001
0010
0001
1000
,
0100
1000
0010
1000
0001
0100
0001
1000
0100
0010
0001
0100
0001
1000
0010
1000
,
0001
0010
0100
1000
0010
0100
0001
0010
0001
1000
0100
1000
0001
1000
0010
0100
,
0001
0100
0010
1000
0001
1000
0100
1000
0001
0100
0010
0100
0001
1000
0100
1000
,
0010
1000
0001
0010
0100
1000
0001
1000
0010
0100
0010
1000
0001
0010
0001
0100
,
0010
0100
0001
1000
0001
0010
0100
1000
0001
1000
0010
0100
0001
1000
0001
0100
,
0001
1000
0100
0010
0001
0100
0010
1000
0100
1000
0001
0010
0001
1000
0001
0100
,
0010
1000
0010
0100
0001
1000
0001
0010
0001
1000
0010
0100
0010
1000
0001
0010
,
0001
0100
0001
1000
0100
0010
0001
1000
0001
0100
0010
0100
0001
1000
0100
1000
,
0002
0000
0003
0000
;

//---------------dance-single - 3/8/8/8/16----------------
#NOTES:
     dance-single:
     3/8/8/8/16:
     Hard:
     13:
     0.982,1.000,0.139,0.574,0.765,1642.000,37.000,153.000,0.000,0.000:
0000
0000
0000
0000
,
1000
0000
0000
0001
0000
0000
0100
0000
0000
0010
0000
1000
0001
0000
0010
0000
,
0100
0000
0000
1000
0000
0000
0001
0000
0000
0100
0000
0010
1000
0000
0001
0000
,
0010
0000
0000
0100
0000
0000
1000
0000
0000
0001
0000
0100
0010
0000
0100
0000
,
0001
0000
0000
0010
0000
0000
0100
0000
0000
1000
0000
0001
0100
0000
0001
0000
,
1000
0000
0000
0100
0000
0000
0010
0000
0000
0100
0000
1000
0001
0000
0100
0000
,
0010
0000
0000
1000
0000
0000
0001
0000
0000
0010
0000
0100
1000
0000
0001
0000
,
0100
0000
0000
0010
0000
0000
1000
0000
0000
0001
0000
0010
0100
0000
0010
0000
,
0001
0000
0000
0100
0000
0000
0010
0000
0000
1000
0000
0001
0010
0000
0001
0000
,
1000
0000
0001
0000
0101
0000
0100
0000
0010
1000
0000
0001
0010
0000
0001
0000
,
1000
0000
0100
0000
1100
0000
1000
0000
0010
0100
0000
0001
1000
0000
0100
0000
,
0010
0000
0001
0000
1001
0000
1000
0000
0010
0100
0000
0001
0100
0000
0001
0000
,
1000
0000
0010
0000
1010
0000
1000
0000
0001
0010
0000
0001
1000
0000
0001
0000
,
0100
0000
0001
0000
0011
0000
0010
0000
0100
1000
0000
0001
0100
0000
0010
0000
,
1000
0000
0100
0000
0110
0000
0010
0000
0001
1000
0000
0010
1000
0000
0001
0000
,
0010
0000
0100
0000
1100
0000
1000
0000
0001
0100
0000
0001
0010
0000
0100
0000
,
0000
0000
0000
0000
,
1000
0001
0100
0001
1000
0100
1000
0001
,
0010
0100
1000
0010
1000
0001
0100
0001
,
0010
0001
1000
0010
0100
0001
1000
0100
,
0010
0100
1000
0010
0100
0001
0010
0001
,
1000
0100
0010
0001
1000
0010
1000
0001
,
0100
0010
1000
0100
1000
0001
0010
0001
,
0100
0001
1000
0100
0010
0001
1000
0010
,
0100
0000
0010
0000
2000
3000
0200
0300
0010
0000
0001
0000
0100
0000
0001
0000
,
1000
0000
0010
0000
1010
0000
1000
0000
0100
0000
0010
0000
0001
0100
0001
0000
,
1000
0000
0001
0000
0011
0000
0010
0000
0100
0000
1000
0000
0010
1000
0010
0000
,
0100
0000
0001
0000
1001
0000
1000
0000
0100
0000
0010
0000
0001
0100
0001
0000
,
1000
0000
0001
0000
0011
0000
0010
0000
0100
0000
1000
0000
0001
0100
0001
0000
,
1000
0000
0100
0000
1100
0000
1000
0000
0010
0000
0100
0000
0001
0010
0001
1000
,
0001
0100
0010
0100
0001
1000
0001
0010
0100
1000
0001
1000
0010
1000
0001
0100
,
0001
1000
0001
1000
0100
0010
0100
1000
0001
0010
0100
1000
0001
1000
0010
0100
,
0000
0000
0000
0000
,
0001
0100
0010
1000
0100
1000
0001
0100
0010
1000
0001
1000
0100
0010
0100
1000
,
0001
0100
0001
1000
0001
0010
0100
1000
0010
1000
0001
0100
0001
0010
0100
1000
,
0001
1000
0010
0100
0010
1000
0001
0010
0100
1000
0100
0010
0001
0100
0010
0100
,
0001
1000
0100
1000
0001
1000
0010
0100
0001
0010
0100
1000
0010
1000
0001
0100
,
0010
1000
0001
1000
0100
0010
0100
1000
0001
1000
0001
0010
0001
0100
0010
1000
,
0001
0010
0001
1000
0010
1000
0001
0100
0010
1000
0001
0100
0001
1000
0010
1000
,
0001
0010
0001
0100
0010
0100
0001
0010
0100
1000
0010
0100
0001
1000
0001
0010
,
0100
1000
0001
1000
0010
0100
0001
1000
0001
0010
0001
1000
0010
0000
0100
0000
,
0001
1000
0010
1000
0100
1000
0001
0100
,
0001
0010
0100
1000
0001
0100
0010
0100
,
0001
0010
0001
1000
0100
0010
0001
0100
,
0010
1000
0001
0100
0001
1000
0100
0010
,
0001
1000
0100
1000
0010
1000
0001
0010
,
0001
0100
0010
1000
0001
0010
0100
0010
,
0001
0100
0001
1000
0010
0100
0001
0020
,
0000
0000
0000
0000
0000
0030
0000
0000
,
0002
0000
2003
0000
3200
0320
0230
2300
,
0000
3000
0000
0002
0203
0320
2030
3200
,
0320
0000
0000
0030
0000
0000
0002
0000
2003
0000
3200
0000
2300
0000
3020
0000
,
0230
0000
0000
0300
0000
0000
0002
0000
0203
0000
0320
0000
2030
0000
3000
0000
,
0002
0003
2000
3000
0020
0230
0302
0023
,
0000
0030
0000
0200
2300
3002
2003
3020
,
0030
0200
0300
0002
0203
0302
2003
3200
,
0300
0020
0000
0030
0000
0000
0000
0000
,
0000
0000
0000
0000
,
0000
0000
0000
0000
,
0001
0010
0100
1000
0010
1000
0100
0010
,
0011
0000
0000
0000
1001
0000
0000
0000
1001
0000
1000
0000
0010
0000
0010
0100
,
0001
0010
0001
1000
0010
0100
0001
1000
,
1010
0000
0000
0000
0110
0000
0000
0000
0110
0000
0010
0000
0100
0000
0100
0001
,
1000
0010
1000
0010
0100
0001
0010
0001
,
1001
0000
0000
0000
1100
0000
0000
0000
1100
0000
1000
0000
0100
0000
0100
0010
,
0001
1000
0010
1000
0100
0010
0001
0100
,
0002
0000
0000
0003
,
1000
0000
1000
0000
0010
0000
0010
0100
,
0001
0000
0000
0000
0001
0000
0000
0000
0010
0000
0000
0000
0010
0000
0001
1000
,
0010
0000
0000
0000
0010
0000
0000
0000
1000
0000
0000
0000
1000
0000
0100
1000
,
0001
0000
0000
0000
0001
0000
0000
0000
0010
0000
0000
0000
0100
1000
0001
1000
,
0001
0000
0000
0000
0100
0000
0001
1000
0001
0000
0020
0000
0130
0000
1000
0000
,
0001
0000
0000
0000
1000
0000
0001
1000
0001
0000
0200
0000
0310
0000
1000
0000
,
0001
0000
0100
0000
0010
0000
0100
0000
0010
0000
0100
0000
0001
1000
0001
1000
,
0002
0000
0000
0000
0003
0100
0010
1000
,
0001
0100
0001
0010
0100
1000
0001
0100
,
0010
0100
0001
0010
0100
1000
0001
0001
,
0100
0001
0010
0001
0100
0010
1000
0100
,
0010
0100
1000
0010
0100
0001
0010
0100
,
1000
0001
0100
0010
1000
0100
0010
0100
,
1000
0010
0100
0001
0010
0100
1000
1000
,
0001
0100
0010
1000
0100
1000
0010
0100
,
0001
0010
0001
0100
0010
1000
0100
1000
,
0001
0000
1000
0010
1000
0000
0001
0000
0010
0000
0100
1000
0100
0000
1000
0000
,
0010
0000
0100
0001
0100
0000
0010
0000
1000
0000
0001
0010
0001
0000
0010
0100
,
1000
0000
0001
0100
0001
0000
0010
0000
0100
0000
1000
0001
1000
0000
0010
0100
,
0001
0000
1000
0010
1000
0000
0001
0000
0010
0000
0001
0010
0100
1000
0001
1000
,
0010
0000
1000
0100
1000
0000
0001
0000
0100
0000
0010
1000
0010
0000
1000
0000
,
0100
0000
0010
0001
0010
0000
0100
0000
1000
0000
0001
0100
0001
0000
0100
0010
,
1000
0000
0001
0000
1000
0000
0001
0000
1000
0000
0001
0000
0010
0100
1000
0001
,
0100
0010
1000
0010
0100
0001
1000
0100
1000
0000
0010
0000
0100
0000
0001
0000
,
1000
0010
0100
0001
0010
0100
1000
0010
1000
0001
0100
0001
1000
0001
0010
0100
,
1000
0100
0010
0001
1000
0001
0100
0001
1000
0100
0010
0100
1000
0001
0100
0001
,
0010
0001
1000
0010
0100
0001
1000
0001
0010
0100
0010
0001
1000
0010
1000
0100
,
0010
0100
1000
0001
1000
0010
0100
0001
1000
0001
0010
0100
1000
0001
1000
0100
,
1000
0001
0100
0010
1000
0100
0010
0001
0100
0001
1000
0010
1000
0001
1000
0100
,
0010
0001
0010
0100
1000
0001
1000
0010
1000
0001
0010
0100
0010
0001
1000
0010
,
1000
0100
1000
0001
0100
0010
1000
0001
1000
0100
0010
0100
1000
0001
0100
0001
,
0010
0001
1000
0100
1000
0001
0100
0010
1000
0001
1000
0100
0010
0001
0100
0001
,
1000
0001
1000
0001
0100
0010
1000
0100
,
0010
0100
0010
0100
1000
0010
0100
0001
,
0010
0001
0010
0001
0100
0010
1000
0100
,
0010
0100
1000
0001
1000
0010
0100
0001
,
1000
0100
1000
0100
0010
0100
1000
0010
,
0100
0010
0100
0010
1000
0100
0010
0001
,
0100
0001
0100
0001
0010
0100
1000
0010
,
0100
0000
0000
0000
,
0001
1000
0010
1000
0001
0100
0001
1000
0100
0010
0001
0100
0001
1000
0010
1000
,
0001
0100
0001
0010
0001
1000
0100
1000
0001
0100
0010
1000
0100
1000
0001
0010
,
0001
1000
0100
1000
0010
0100
0010
1000
0001
0100
0001
0010
0001
1000
0100
1000
,
0001
0010
0001
0100
0001
1000
0010
1000
0001
0010
0100
1000
0010
1000
0001
1000
,
0100
0010
0001
1000
0010
1000
0001
0010
0100
1000
0010
1000
0001
0100
0001
1000
,
0010
1000
0100
1000
0001
0010
0001
1000
0010
0100
0001
0010
0001
1000
0100
1000
,
0001
0010
0001
0100
0010
0100
0001
1000
0010
1000
0100
1000
0001
0010
0001
1000
,
0100
1000
0010
1000
0001
0100
0001
1000
0100
0010
0001
0100
0001
1000
0010
1000
,
0001
0100
0101
0001
1000
0100
1100
1000
,
0010
0100
0110
0010
1000
0001
1001
1000
,
0100
0010
0011
0001
1000
0010
1010
1000
,
0001
0100
0110
0010
1000
0001
0011
0010
,
0100
1000
1100
0100
0010
0001
0101
0100
,
0010
1000
1001
0001
0010
0100
0110
0010
,
0001
1000
1010
0010
0100
0001
0011
1000
,
0000
0000
0000
0000
,
0002
0000
2003
0000
3200
0320
0230
2300
,
0002
3000
0003
0000
0200
0320
2030
0000
,
3002
0000
2003
3020
0230
0302
0023
0230
,
0020
0300
0030
0000
0002
0203
0320
2030
,
3200
0000
0320
0000
0032
2003
3200
2300
,
0020
3000
0000
0030
0000
0000
0000
0000
,
0000
0200
0302
2003
3002
0023
0230
0320
,
0002
0030
0003
0000
0200
0320
2030
0000
,
3002
0000
2003
3200
2300
3002
0203
0302
,
0020
0003
0030
0000
0200
2300
3002
0000
,
0203
0000
0320
0000
2030
3020
2030
3002
,
0020
0003
0030
0000
0002
0203
0320
2030
,
3200
0000
0320
0000
0230
2300
3002
0203
,
0020
0300
0000
0030
0000
0000
0000
0000
,
0000
2000
3002
0023
0032
0203
0320
2030
,
0002
3000
0000
0000
0000
0003
0020
0230
,
1300
0000
0100
0000
1000
0010
0100
0001
,
0000
0000
0000
1000
0100
1000
0020
0230
,
0301
0000
0000
0010
0001
0100
0002
2003
,
3010
0000
0000
0100
0010
1000
0002
0023
,
0130
0000
0010
0000
0100
1000
0001
0100
,
0000
0000
0000
0010
1000
0100
0020
0230
,
0300
1000
0000
0001
0010
0001
0200
0320
,
0030
1000
0000
0000
0000
0000
0000
0000
,
0001
0000
0001
0020
0230
0000
2300
3200
,
0000
0310
0000
0100
0000
1000
0010
0010
,
0100
0000
0100
0020
2030
0000
3020
0230
,
0000
0301
0000
1000
0000
0001
0010
0100
,
1000
0000
1000
0200
0320
0000
0032
0203
,
0000
0310
0000
1000
0000
0010
0100
0100
,
0001
0000
0001
0020
0230
0000
2300
3002
,
0000
0000
0000
0003
,
1000
0100
0010
0001
0100
0010
1000
0100
1000
0001
0010
0001
1000
0001
0100
0010
,
1000
0010
0100
0001
1000
0001
0010
0001
1000
0010
0100
0010
1000
0001
0010
0001
,
0100
0001
1000
0100
0010
0001
1000
0001
0100
0010
0100
0001
1000
0100
1000
0010
,
0100
0010
1000
0001
1000
0100
0010
0001
1000
0001
0100
0010
1000
0001
1000
0010
,
1000
0001
0010
0100
1000
0010
0100
0001
0010
0001
1000
0100
1000
0001
1000
0010
,
0100
0001
0100
0010
1000
0001
1000
0100
1000
0001
0100
0010
0100
0001
1000
0100
,
1000
0010
1000
0001
0010
0100
1000
0001
1000
0010
0100
0010
1000
0001
0010
0001
,
0100
0001
1000
0010
1000
0001
0010
0100
1000
0001
1000
0010
0100
0001
0010
0001
,
1000
0010
0100
0001
1000
0100
1000
0010
1000
0001
0100
0001
1000
0001
0010
0100
,
1000
0100
0010
0001
1000
0001
0100
0001
1000
0100
0010
0100
1000
0001
0100
0001
,
0010
0001
1000
0010
0100
0001
1000
0001
0010
0100
0010
0001
1000
0010
1000
0100
,
0010
0100
1000
0001
1000
0010
0100
0001
1000
0001
0010
0100
1000
0001
1000
0100
,
1000
0001
0100
0010
1000
0100
0010
0001
0100
0001
1000
0010
1000
0001
1000
0100
,
0010
0001
0010
0100
1000
0001
1000
0010
1000
0001
0010
0100
0010
0001
1000
0010
,
1000
0100
1000
0001
0100
0010
1000
0001
1000
0100
0010
0100
1000
0001
0100
0001
,
1000
0001
1000
0100
0010
0100
1000
0001
0100
0000
0001
0000
1000
0000
0001
0000
,
1000
0010
0100
0010
1000
0001
1000
0100
,
1000
0001
0100
0001
0010
0100
1000
1000
,
0001
0100
0010
0100
0001
0010
0100
1000
,
0001
0100
0001
1000
0100
0010
0100
1000
,
0001
0010
0100
0010
0001
1000
0001
0100
,
0001
1000
0100
1000
0010
0100
0001
0001
,
1000
0100
0010
0100
1000
0010
0100
0001
,
1000
0100
1000
0001
0100
0010
0100
0001
,
1001
0000
1001
1000
0100
0010
0100
1000
,
0010
0100
0001
0010
0001
1000
0100
1000
,
0010
0100
0001
1000
0100
0010
0001
0100
,
0001
1000
0010
1000
0001
0010
0100
0100
,
1000
0010
0100
0001
1000
0100
1000
0001
,
0010
0001
0100
0010
0100
0001
1000
0001
,
0010
0100
1000
0001
0100
0010
1000
0001
,
0020
0000
0030
0000
;

//---------------dance-single - ----------------
#NOTES:
     dance-single:
     :
     Medium:
     9:
     0.817,0.805,0.146,0.574,0.204,1332.000,39.000,153.000,0.000,0.000:
0000
0000
0000
0000
,
1000
0000
0000
1000
0000
0000
1000
0000
0000
0001
0000
0010
0100
0000
0010
0000
,
0001
0000
0000
0001
0000
0000
0001
0000
0000
1000
0000
0010
0100
0000
0001
0000
,
0100
0000
0000
0100
0000
0000
0100
0000
0000
0010
0000
1000
0001
0000
0100
0000
,
0010
0000
0000
0010
0000
0000
0010
0000
0000
0100
0000
0001
1000
0000
0100
0000
,
1000
0000
0000
1000
0000
0000
1000
0000
0000
0001
0000
0100
0010
0000
0100
0000
,
0001
0000
0000
0001
0000
0000
0001
0000
0000
1000
0000
0100
0010
0000
0001
0000
,
0010
0000
0000
0010
0000
0000
0010
0000
0000
0100
0000
1000
0001
0000
0010
0000
,
0100
0000
0000
0100
0000
0000
0100
0000
0000
0010
0000
0001
1000
0000
0100
0000
,
0010
0001
1001
0000
1000
0010
1010
0000
,
0001
0010
0110
0000
0100
1000
1001
0000
,
0001
0100
0101
0000
0100
0010
0110
0000
,
1000
0001
0011
0000
1000
0100
1100
0000
,
0100
1000
1001
0000
0001
0100
0101
0000
,
1000
0100
0110
0000
0010
0001
1001
0000
,
1000
0010
1010
0000
0010
0100
0110
0001
,
0000
0000
0000
0000
,
1000
0001
0100
0001
1000
0100
1000
0001
,
0010
0100
1000
0010
1000
0001
0100
0001
,
0010
0001
1000
0010
0100
0001
1000
0100
,
0010
0100
1000
0010
0100
0001
0010
0001
,
1000
0100
0010
0001
1000
0010
1000
0001
,
0100
0010
1000
0100
1000
0001
0010
0001
,
0100
0001
1000
0100
0010
0001
1000
0010
,
0100
0000
0010
0000
2000
3000
0200
0300
0010
0000
0001
0000
0100
0000
0001
0000
,
1000
0000
0010
0000
1000
0000
0001
0000
0010
0001
0010
0000
0001
1000
0001
0000
,
0100
0000
0010
0000
1000
0000
0001
0000
1000
0100
1000
0000
0001
0100
0001
0000
,
1000
0000
0100
0000
0010
0000
0001
0000
1000
0010
1000
0000
0001
0010
0001
0000
,
0100
0000
0010
0000
0100
0000
0001
0000
0010
0100
0010
0000
0001
1000
0001
0000
,
0010
0000
0100
0000
1000
0000
0001
0000
0100
0001
0100
0000
0001
1000
0001
0000
,
0010
0000
0100
0000
1000
0000
0001
0000
1000
0010
1000
0000
0001
0010
0001
0000
,
1000
0000
0010
0000
0100
0000
0001
0000
1000
0100
1000
0000
0001
0100
0001
0000
,
0000
0000
0000
0000
,
1000
0010
1000
0010
1000
0001
0010
0100
,
1000
0010
0100
0001
0100
0010
1000
0100
,
0010
0001
0010
0001
1000
0100
1000
0010
,
0100
0001
1000
0010
0100
0001
0010
0001
,
1000
0100
1000
0100
1000
0001
0100
0010
,
1000
0100
0010
0001
0010
0100
1000
0010
,
0100
0001
0100
0001
1000
0010
1000
0100
,
0010
0001
1000
0100
0010
0001
1000
0000
,
0001
1000
0010
1000
0100
1000
0001
0100
,
0001
0010
0100
1000
0001
0100
0010
0100
,
0001
0010
0001
1000
0100
0010
0001
0100
,
0010
1000
0001
0100
0001
1000
0100
0010
,
0001
1000
0100
1000
0010
1000
0001
0010
,
0001
0100
0010
1000
0001
0010
0100
0010
,
0001
0100
0001
1000
0010
0100
0001
0020
,
0000
0000
0000
0000
0000
0030
0000
0000
,
0002
0000
2003
0000
3200
0320
0230
2300
,
0000
3000
0000
0002
0203
0320
2030
3200
,
0320
0000
0000
0030
0000
0000
0002
0000
2003
0000
3200
0000
2300
0000
3020
0000
,
0230
0000
0000
0300
0000
0000
0002
0000
0203
0000
0320
0000
2030
0000
3000
0000
,
0002
0003
2000
3000
0020
0230
0302
0023
,
0000
0030
0000
0200
2300
3002
2003
3020
,
0030
0200
0300
0002
0203
0302
2003
3200
,
0300
0020
0000
0030
0000
0000
0000
0000
,
0000
0000
0000
0000
,
0000
0000
0000
0000
,
0001
0010
0100
1000
0010
1000
0100
0010
,
0011
0000
0000
0000
1001
0000
0000
0000
1001
0000
1000
0000
0010
0000
1000
0001
,
1000
0100
1000
0001
0100
0010
1000
0001
,
0101
0000
0000
0000
0110
0000
0000
0000
0110
0000
0100
0000
0010
0000
1000
0001
,
1000
0010
1000
0010
0100
0001
0010
0001
,
1001
0000
0000
0000
1100
0000
0000
0000
1100
0000
1000
0000
0100
0000
1000
0001
,
1000
0001
0100
0001
0010
0100
1000
0010
,
2000
0000
0000
3000
,
0001
0000
0001
0000
0100
0000
0100
0010
,
1000
0000
1000
0000
0100
0000
0100
1000
,
0010
0000
0010
0000
1000
0000
1000
0100
,
0010
0000
0000
0000
0010
0000
0000
0000
0100
0000
0000
0000
0100
0000
1000
0001
,
0100
0000
0000
0000
0010
0000
1000
0001
1000
0000
0020
0000
0130
0000
0001
0000
,
1000
0000
0000
0000
0001
0000
1000
0001
1000
0000
0020
0000
0130
0000
0000
0000
,
0001
0100
0010
0100
0010
0100
0001
0001
,
0002
0000
0000
0000
0003
0100
0010
1000
,
0001
0100
0001
0010
0100
1000
0001
0100
,
0010
0100
0001
0010
0100
1000
0001
0001
,
0100
0001
0010
0001
0100
0010
1000
0100
,
0010
0100
1000
0010
0100
0001
0010
0100
,
1000
0001
0100
0010
1000
0100
0010
0100
,
1000
0010
0100
0001
0010
0100
1000
1000
,
0001
0100
0010
1000
0100
1000
0010
0100
,
0001
0010
0001
0100
0010
1000
0100
1000
,
0001
0000
1000
0010
1000
0000
0001
0000
0010
0000
0100
1000
0100
0000
1000
0000
,
0010
0000
0100
0001
0100
0000
0010
0000
1000
0000
0001
0010
0001
0000
0010
0100
,
1000
0000
0001
0100
0001
0000
0010
0000
0100
0000
1000
0001
1000
0000
0010
0100
,
0001
0000
1000
0010
1000
0000
0001
0000
0010
0000
0001
0010
0100
0000
1000
0000
,
0010
0000
1000
0100
1000
0000
0001
0000
0100
0000
0010
1000
0010
0000
1000
0000
,
0100
0000
0010
0001
0010
0000
0100
0000
1000
0000
0001
0100
0001
0000
0100
0010
,
1000
0001
1000
0001
1000
0001
0010
0100
,
0000
1000
0000
0010
0000
0100
0001
0010
,
0001
0000
1000
0000
0001
0100
0001
0000
0010
0000
0100
0000
1000
0001
1000
0000
,
0100
0000
0010
0000
0001
0100
0001
0000
1000
0000
0100
0000
0010
0100
0010
0000
,
0001
0000
1000
0000
0010
1000
0010
0000
0100
0000
0001
0000
1000
0100
1000
0000
,
0001
0000
0010
0000
0001
1000
0001
0000
0100
0000
0010
0000
0100
0001
0100
0000
,
0010
0000
1000
0000
0001
0010
0001
0000
0100
0000
0010
0000
1000
0001
1000
0000
,
0100
0000
0010
0000
0001
0100
0001
0000
1000
0000
0100
0000
1000
0010
1000
0000
,
0001
0000
0100
0000
0010
1000
0010
0000
0100
0000
0001
0000
0010
0100
0010
0000
,
0100
0000
1000
0000
0001
0100
0001
0000
0010
0000
0100
0000
1000
0010
1000
0000
,
0001
1000
0001
1000
0010
0100
0001
0010
,
0100
0010
0100
0010
0001
0100
0010
1000
,
0100
1000
0100
1000
0010
0100
0001
0010
,
0100
0010
0001
1000
0001
0100
0010
1000
,
0001
0010
0001
0010
0100
0010
0001
0100
,
0010
0100
0010
0100
0001
0010
0100
1000
,
0010
1000
0010
1000
0100
0010
0001
0100
,
0010
0000
0000
0000
,
1000
0000
0100
0000
1000
0000
0001
0000
0100
0001
0100
0000
0001
1000
0001
0000
,
0010
0000
0100
0000
1000
0000
0001
0000
1000
0010
1000
0000
0001
0010
0001
0000
,
1000
0000
0010
0000
0100
0000
0001
0000
1000
0100
1000
0000
0001
0100
0001
0000
,
0010
0000
0100
0000
0010
0000
0001
0000
0100
0010
0100
0000
0001
1000
0001
0000
,
0100
0000
0010
0000
1000
0000
0001
0000
0010
0001
0010
0000
0001
1000
0001
0000
,
0100
0000
0010
0000
1000
0000
0001
0000
1000
0100
1000
0000
0001
0100
0001
0000
,
1000
0000
0100
0000
0010
0000
0001
0000
1000
0010
1000
0000
0001
0010
0001
0000
,
0100
0000
0010
0000
1000
0000
0010
0000
0100
0001
0100
0000
0001
1000
0001
0000
,
0100
0010
1010
1000
0001
0010
0011
0001
,
0100
0010
0110
0100
0001
1000
1001
0001
,
0010
0100
1100
1000
0001
0100
0101
0001
,
1000
0010
0110
0100
0001
1000
1100
0100
,
0010
0001
0011
0010
0100
1000
1010
0010
,
0100
0001
1001
1000
0100
0010
0110
0100
,
1000
0001
0101
0100
0010
1000
1100
0001
,
0000
0000
0000
0000
,
2000
0000
3002
0000
0023
0230
0320
0032
,
2000
0003
3000
0000
0020
0230
0302
0000
,
2003
0000
3002
0203
0320
2030
3200
0320
,
0200
0030
0300
0000
2000
3020
0230
0302
,
0023
0000
0230
0000
2300
3002
0023
0032
,
0200
0003
0000
0300
0000
0000
0000
0000
,
0000
0020
2030
3002
2003
3200
0320
0230
,
2000
0300
3000
0000
0020
0230
0302
0000
,
2003
0000
3002
0023
0032
2003
3020
2030
,
0200
3000
0300
0000
0020
0032
2003
0000
,
3020
0000
0230
0000
0302
0203
0302
2003
,
0200
3000
0300
0000
2000
3020
0230
0302
,
0023
0000
0230
0000
0320
0032
2003
3020
,
0200
0030
0000
0300
0000
0000
0000
0000
,
0000
0002
2003
3200
2300
3020
0230
0302
,
2000
0003
0000
0000
0000
3000
0200
0320
,
0031
0000
0010
0000
0001
0100
0010
1000
,
0000
0000
0000
0001
0010
0001
0200
0320
,
1030
0000
0000
0100
1000
0010
2000
3002
,
0103
0000
0000
0010
0100
0001
2000
3200
,
0310
0000
0100
0000
0010
0001
1000
0010
,
0000
0000
0000
0100
0001
0010
0200
0320
,
0030
0001
0000
1000
0100
1000
0020
0230
,
0300
0001
0000
0000
0000
0000
0000
0000
,
1000
0000
1000
0200
0320
0000
0032
0023
,
0000
0130
0000
0010
0000
0001
0100
0100
,
0010
0000
0010
0200
0302
0000
0203
0320
,
0000
1030
0000
0001
0000
1000
0100
0010
,
0001
0000
0001
0020
0230
0000
2300
3020
,
0000
0130
0000
0001
0000
0100
0010
0010
,
1000
0000
1000
0200
0320
0000
0032
2003
,
0000
0000
0000
3000
,
0001
0000
1000
0000
0001
0010
0001
0000
0100
0000
0010
0000
1000
0001
1000
0000
,
0010
0000
0100
0000
0001
0010
0001
0000
1000
0000
0010
0000
0100
0010
0100
0000
,
0001
0000
1000
0000
0100
1000
0100
0000
0010
0000
0001
0000
1000
0010
1000
0000
,
0001
0000
0100
0000
0001
1000
0001
0000
0010
0000
0100
0000
0010
0001
0010
0000
,
0100
0000
1000
0000
0001
0100
0001
0000
0010
0000
0100
0000
1000
0001
1000
0000
,
0010
0000
0100
0000
0001
0010
0001
0000
1000
0000
0010
0000
1000
0100
1000
0000
,
0001
0000
0010
0000
0100
1000
0100
0000
0010
0000
0001
0000
0100
0010
0100
0000
,
0010
0000
1000
0000
0001
0010
0001
0000
0100
0000
0010
0000
1000
0100
1000
0000
,
0001
1000
0001
1000
0100
0010
0001
0100
,
0010
0100
0010
0100
0001
0010
0100
1000
,
0010
1000
0010
1000
0100
0010
0001
0100
,
0010
0100
0001
1000
0001
0010
0100
1000
,
0001
0100
0001
0100
0010
0100
0001
0010
,
0100
0010
0100
0010
0001
0100
0010
1000
,
0100
1000
0100
1000
0010
0100
0001
0010
,
0100
1000
0001
0000
0100
0001
1000
0000
0010
0000
0100
0000
0001
0000
1000
0000
,
0001
0010
0100
0010
0001
1000
0001
0010
,
0001
1000
0010
1000
0100
0010
0001
0001
,
1000
0010
0100
0010
1000
0100
0010
0001
,
1000
0010
1000
0001
0010
0100
0010
0001
,
1000
0100
0010
0100
1000
0001
1000
0010
,
1000
0001
0010
0001
0100
0010
1000
1000
,
0001
0010
0100
0010
0001
0100
0010
1000
,
0001
0010
0001
1000
0010
0100
0010
1000
,
1001
0000
1001
0001
0010
0100
0010
0001
,
0100
0010
1000
0100
1000
0001
0010
0001
,
0100
0010
1000
0001
0010
0100
1000
0010
,
1000
0001
0100
0001
1000
0100
0010
0010
,
0001
0100
0010
1000
0001
0010
0001
1000
,
0100
1000
0010
0100
0010
1000
0001
1000
,
0100
0010
0001
1000
0010
0100
0001
1000
,
0200
0000
0300
0000
;
