#TITLE:pocketful of sunshine;
#SUBTITLE:11/16/09;
#ARTIST:Natasha Bedingfield;
#TITLETRANSLIT:;
#SUBTITLETRANSLIT:;
#ARTISTTRANSLIT:;
#CREDIT:(R.n.A.);
#BANNER:;
#BACKGROUND:;
#LYRICSPATH:;
#CDTITLE:;
#MUSIC:Natasha Bedingfield - Pocketful Of Sunshine(short).ogg;
#OFFSET:-0.117;
#SAMPLESTART:64.299;
#SAMPLELENGTH:12.000;
#SELECTABLE:YES;
#BPMS:0.000=123.870,175.500=61.935,193.000=123.870,337.000=61.935;
#STOPS:192.500=0.736
;
#BGCHANGES:;
// cache tags:
#FIRSTBEAT:0.000;
#LASTBEAT:338.000;
#SONGFILENAME:Songs/toune 8/pocketful of sunshine/Natasha Bedingfield - Pocketful Of Sunshine(short).sm;
#HASMUSIC:1;
#HASBANNER:0;
#MUSICLENGTH:105.000;
// end cache tags

//---------------dance-single - a4us----------------
#NOTES:
     dance-single:
     a4us:
     Challenge:
     12:
     1.000,1.000,0.295,0.724,1.000,949.000,31.000,76.000,125.000,0.000:

MMMM
M00M
MMMM
MM00
M0M0
M00M
0000
0000
MMMM
M00M
M00M
M00M
0000
0000
MMMM
M00M
,
MMMM
0000
M00M
0000
M00M
0000
0000
0000
0000
0000
0000
MMMM
0000
0000
0000
0000
MMMM
0000
M00M
0000
MMMM
0000
M000
0000
M000
0000
M000
0000
0000
0000
0000
0000
,
MMMM
M00M
MMMM
M00M
M00M
0000
0000
MMM0
M000
M000
0000
0000
MMMM
0MM0
0MM0
0MM0
,
0000
0000
M00M
M00M
M00M
0MM0
0MM0
0MM0
0000
0000
0000
0000
MMM1
0000
0000
0000
,
1000
0001
1000
0100
1000
0001
1000
0100
0010
0001
1000
0001
1000
0100
1000
0010
,
0100
0001
0100
0010
1000
0010
1000
0001
0010
0001
1000
0001
1000
0010
1000
0100
,
2000
0000
000M
000M
3000
0000
M000
0000
0000
0000
0010
0000
2000
0M00
3020
0000
,
0030
0000
0010
0010
1000
1000
0001
0001
,
0010
0001
0010
0100
1000
0010
0100
0001
0100
0001
0100
0010
0100
0001
0010
0100
,
1000
0001
0010
0001
1000
0100
1000
0001
1000
0100
1000
0010
0100
0001
0100
0010
,
2000
0000
000M
000M
3000
0000
M000
0000
0000
0000
0001
0000
2000
00M0
3002
0000
,
0003
0000
0100
0100
0020
2030
3002
0023
,
0031
0010
0001
0010
0001
1000
0001
1000
0001
0100
0001
0100
0001
1000
0001
1000
,
0001
0010
0001
1000
0001
0010
0001
1000
0001
0100
0001
1000
0001
0100
0010
1000
,
0001
0100
0010
1000
0100
0010
0001
0010
0001
1000
0100
1000
0010
1000
0010
1000
,
0001
1000
0001
1000
0010
1000
0001
1000
0001
1000
0010
0100
0010
1000
0010
1000
,
0010
0100
0010
0100
0001
0100
0001
0100
0010
1000
0001
0100
0010
1000
0100
0010
,
0001
0100
0010
1000
0100
1000
0001
0010
0001
0100
0010
1000
0010
0100
0001
0010
,
0001
1000
0001
1000
0001
0010
0100
1000
0001
0010
0100
1000
0010
0100
0010
1000
,
0001
1000
0010
1000
0100
1000
0010
0100
0001
0010
0001
0100
0001
0010
0001
0010
,
0001
0010
0011
0010
0110
1000
0110
0001
,
0011
0000
0010
0001
0010
0000
0010
0100
1000
0000
0100
0000
1100
0000
1000
0000
,
4004
0000
0000
0000
3003
0000
0000
0000
0000
0000
0001
0000
2000
0MM0
3002
0000
,
0003
0000
1000
0001
1000
0000
0001
1000
0001
0000
0001
0010
0001
0000
0010
0000
,
0011
0010
1100
0100
0110
0010
0011
0001
,
0110
0000
0010
1000
0010
0000
1000
0001
1000
0000
0100
0000
1100
0000
0001
0000
,
2002
0000
0000
0000
3003
0000
0000
0000
0000
0000
1000
0000
0002
0MM0
2003
0000
,
3000
0000
0001
0010
0100
0000
1000
0100
1000
0000
0100
0010
0002
0000
0000
0000
,
0013
0001
0010
0001
1000
0001
1000
0001
0010
0001
1000
0001
1000
0000
1000
0000
,
0010
1000
0010
0100
0010
1000
0001
0100
0010
1000
0100
1000
0100
0010
0001
0000
,
0002
0000
0000
M000
M003
0000
0000
0000
0000
0000
0020
0000
0230
0000
230M
00M0
,
3000
0000
0000
0000
1000
0100
0010
0000
1000
0100
0010
0000
1000
0100
0010
0000
,
0001
0010
0001
1000
0001
0010
0100
1000
0010
0100
0010
1000
0001
0000
0001
0000
,
0100
0001
0100
0010
0100
0001
1000
0001
0010
0100
1000
0000
2000
0000
0100
3000
,
2200
0000
0000
000M
330M
0000
0000
0000
0000
0000
1000
0000
0M20
0000
023M
0000
,
M30M
0000
0010
1000
1000
0001
1000
0001
,
1000
0001
1000
0001
1000
0100
1000
0001
1000
0001
0100
0001
1000
0001
0010
0100
,
1000
0010
0100
0001
0010
0001
1000
0100
1000
0001
0010
0001
0100
0010
1000
0010
,
0100
0001
1000
0001
0100
0001
1000
0001
0010
0001
0010
0001
1000
0010
0100
0001
,
1000
0010
0100
0001
1000
0001
0100
0001
0010
0001
0010
0100
1000
0100
1000
0001
,
1000
0100
1000
0001
1000
0010
1000
0001
1000
0100
1000
0010
0100
0001
0010
0001
,
0100
0001
0010
0001
0010
0100
1000
0010
0100
0010
1000
0010
0100
0010
0100
0001
,
0010
0001
1000
0100
1000
0001
1000
0100
0010
0001
1000
0001
0100
0001
0010
0100
,
1000
0010
0100
0001
0010
0100
1000
0001
1000
0100
1000
0001
0010
0000
0020
0000
,
0130
1000
0100
0010
0001
1000
0001
0100
,
0040
0000
1030
0010
2000
0000
3100
1000
,
0100
0000
0010
0000
0001
0000
0010
0000
0001
0000
1000
0000
0001
1000
0001
0100
,
0020
0000
0030
0000
1000
0001
0100
2002
0000
0000
0000
0000
0000
0000
0000
0000
,
0000
0000
0000
0000
0000
0000
0000
0000
0000
0000
0000
0000
0000
0000
0000
0000
0000
0000
0000
0000
0000
0000
0000
0000
3003
0000
M00M
0000
0000
0000
0000
0000
0000
0000
0000
0000
0000
0000
0000
0000
0000
0000
0000
0000
0000
0000
0000
0000
0001
0000
0000
0000
0000
0000
0000
0000
0000
0000
0000
0000
1000
0000
0000
0000
0000
0000
0000
0000
0000
0000
0000
0000
0001
0000
0000
0000
0000
0000
0000
0000
0000
0000
0000
0000
1000
0000
0000
0000
0000
0000
0000
0000
0000
0000
0000
0000
0001
0000
0000
0000
0000
0000
0000
0000
0000
0000
0000
0000
0100
0000
0000
0000
0000
0000
0000
0000
0000
0000
0000
0000
0001
0000
0000
0000
0000
0000
0000
0000
0000
0000
0000
0000
1000
0000
0000
0000
0000
0000
0000
0000
0000
0000
0000
0000
0100
0000
0000
0000
0000
0000
0000
0000
0000
0000
0000
0000
1000
0000
0000
0000
0000
0000
0000
0000
0000
0000
0000
0000
0001
0000
0000
0000
0000
0000
0000
0000
0000
0000
0000
0000
0100
0000
0000
0000
0000
0000
0000
0000
0000
0000
0000
0000
,
0001
0100
0010
0100
0001
0010
0100
1000
0100
0010
0001
1000
0100
1000
0001
1000
,
0100
0010
0001
1000
0001
0100
0001
1000
0001
0010
0001
0010
0001
1000
0001
0100
,
0001
0100
0001
0010
0001
0010
0100
1000
0001
1000
0100
1000
0001
0100
0001
1000
,
0100
1000
0010
0100
0001
0010
0100
1000
0001
0100
0001
1000
0001
0100
0001
1000
,
0001
0010
0001
1000
0001
0010
0100
1000
0100
1000
0100
0010
0001
1000
0100
1000
,
0100
0010
0001
0010
0001
1000
0001
0010
0001
0100
0010
1000
0010
0100
0001
0010
,
0100
1000
0010
1000
0001
1000
0001
1000
0100
1000
0010
1000
0100
1000
0001
1000
,
0010
1000
0010
0100
0001
1000
0010
0100
0001
0010
0100
0010
0001
1000
0100
0010
,
0100
1000
0001
0100
0001
1000
0001
1000
0100
1000
0001
1000
0001
0100
0001
0010
,
0100
1000
0001
0010
0100
1000
0001
0100
0001
0010
0100
0010
0100
1000
0010
1000
,
0010
0100
0010
0100
0001
0100
0010
0100
0001
0010
0100
1000
0001
0010
0100
1000
,
0100
0010
0001
1000
0100
0010
0100
1000
0001
1000
0001
1000
0100
1000
0010
0100
,
0001
0010
0100
1000
0001
0010
0001
0100
0010
0100
0001
0100
0001
0010
0100
1000
,
0100
1000
0100
1000
0010
0100
0001
1000
0001
0010
0001
0010
0100
1000
0001
1000
,
0001
0100
0001
0010
0100
0010
0100
1000
0100
1000
0001
1000
0001
0010
0001
1000
,
0001
0010
0001
0000
0011
0000
1000
0000
0011
0000
0001
0000
0011
0000
0010
0000
,
0110
0000
0100
0000
1000
0001
1000
0100
1000
0001
1000
0001
1000
0100
1000
0001
,
0010
0001
0010
0000
0110
0000
1000
0000
0110
0000
0001
0000
0110
0000
1000
0000
,
1000
0100
0010
0001
1000
0100
0010
0001
0010
0001
1000
0001
0010
0001
1000
0001
,
0100
0001
0100
0000
0101
0000
1000
0000
0101
0000
0010
0000
0110
0000
0100
0000
,
1010
0000
1000
0000
0010
1000
0010
0100
0001
0010
0100
1000
0100
0010
0001
0000
,
0011
0000
1000
0000
0011
0000
0001
0000
1000
0010
1000
0010
0100
0001
1000
0010
,
0100
0001
0010
0100
1000
0001
0010
0100
1000
0001
1000
0100
1000
0001
1000
0100
,
1000
0001
1000
0000
1001
0000
0001
0000
0100
0000
0001
0010
0000
0100
1000
0000
,
0100
0000
1000
0000
0100
0000
0010
0001
0000
0001
0010
0000
0001
0000
0010
0000
,
0001
0000
1000
0000
1001
0000
0001
0000
0100
0000
0001
0100
0000
0100
0001
0000
,
1000
0000
0001
0000
0010
0000
0100
1000
0000
1000
0100
0000
0010
0000
0001
0000
,
1000
0001
0010
0010
0002
0023
0230
2300
,
3020
0000
0000
0000
2030
3002
2003
3200
,
0320
0000
0001
0032
0023
0230
2300
3020
,
2000
3000
0130
0020
2030
3020
0230
0302
,
0023
0000
0001
0000
0230
2300
3200
0320
,
0032
0000
1000
0000
2003
3020
2030
3200
,
0020
0030
0310
0200
2300
3002
0203
0302
,
2003
0000
0000
0000
3002
2003
3200
2300
,
3020
2030
0200
3000
0300
0000
0000
0000
;
