#TITLE:Love Novels;
#SUBTITLE:;
#ARTIST:BiBi;
#TITLETRANSLIT:;
#SUBTITLETRANSLIT:;
#ARTISTTRANSLIT:;
#CREDIT:;
#BANNER:Love Novels-bn.png;
#BACKGROUND:Love Novels-bg.png;
#LYRICSPATH:;
#CDTITLE:;
#MUSIC:Love Novels.ogg;
#OFFSET:0.012;
#SAMPLESTART:53.035;
#SAMPLELENGTH:12.000;
#SELECTABLE:YES;
#BPMS:0.000=135.000;
#STOPS:;
#BGCHANGES:;
// cache tags:
#FIRSTBEAT:8.000;
#LASTBEAT:215.500;
#SONGFILENAME:Songs/Index Tournament 1/Love Novels/Love Novels.sm;
#HASMUSIC:1;
#HASBANNER:1;
#MUSICLENGTH:98.777;
// end cache tags

//---------------dance-single - Loak----------------
#NOTES:
     dance-single:
     Loak:
     Challenge:
     10:
     0.706,0.791,0.182,0.587,0.359,412.000,18.000,58.000,0.000,0.000:
0000
0000
0000
0000
,
0000
0000
0000
0000
,
2000
0000
3001
0001
0020
0000
0130
0002
,
0000
0103
1000
0010
0001
0010
1000
0100
,
0020
0000
0031
0001
0200
0000
0310
0002
,
0000
0000
0000
0013
0000
0000
1000
0000
0000
0001
0000
0000
0010
0000
0000
0000
0000
0000
0100
1000
0100
1000
0100
1000
,
0002
0000
0000
0000
1003
0000
1000
0000
0001
0100
0001
0000
0100
0000
2000
0000
,
0000
3100
0001
0010
1000
0010
0100
1000
,
0002
0000
0000
0000
1003
0000
1000
0000
0001
0100
0001
0000
0010
0000
2000
0000
,
0000
3010
0100
1000
0001
0001
0100
0100
,
0010
0000
0010
0000
1000
0000
1000
0000
0001
0000
0001
0010
0000
0010
0100
0000
,
1000
0000
0100
0000
0010
0001
0000
0000
1000
0000
1000
0000
0001
0000
0001
0000
,
0100
0100
0010
0010
1000
1000
0010
0010
,
0100
0000
0001
0000
1000
0000
0001
0000
0010
0000
0000
0010
0001
1000
0010
0100
,
0010
0100
0001
1000
0100
0010
0001
1000
,
0000
0000
1000
0000
0010
0000
0002
0000
0000
0000
0013
1000
0001
0000
0010
0000
,
0001
1000
0010
0100
0010
0001
0010
0100
0000
0010
0000
1000
0001
0010
0100
0000
,
0010
0001
1000
0000
0010
0100
0001
0100
0000
0001
1000
0100
0001
0100
0010
0001
,
1001
0000
0001
0000
0200
0000
0000
0320
0000
0000
0130
0000
0001
0000
1000
0000
,
0000
0000
0001
0000
0010
0000
2000
0000
0000
0000
3010
0001
1000
0000
0001
0000
,
1000
0001
0010
0100
0010
1000
0010
0001
0000
0100
0000
0010
1000
0001
1000
0000
,
0010
1000
0100
0000
0010
0001
1000
0001
0000
0100
0010
1000
0200
0300
2000
3000
,
1001
0000
0001
0000
0100
0010
0000
0200
0000
0000
0000
0301
1000
0000
0100
0000
,
0001
0100
1000
0002
0000
0000
0013
0000
,
1100
0000
1000
0000
0001
1000
0000
0010
0000
1000
0000
0010
0100
0000
0001
0000
,
0010
0000
0001
0000
0100
0000
0020
0000
0000
0000
0030
0000
1000
0001
1000
0001
,
0200
0000
0320
0000
1030
0001
1000
0200
,
0301
0000
0100
0000
1000
0000
0001
0000
1000
0010
1000
0000
0001
1000
0100
0000
,
1100
0011
1001
0101
,
0110
0000
0100
0000
0001
0000
1000
0000
0100
0010
0001
0010
0100
1000
0001
1000
,
0010
0000
0110
0000
0100
0001
0010
1000
,
0000
0000
0010
0000
0001
0000
1000
0000
0010
0100
0010
0000
1000
0000
0021
0000
,
0000
0130
1000
0001
1000
1000
0010
0200
,
0000
0000
0302
0000
0203
0000
2300
0000
3200
0000
0302
0000
1003
0100
1000
0100
,
0010
0000
0011
0000
0001
1000
0010
0001
,
0000
0000
0010
0000
0100
0000
0001
0000
1000
0001
0100
0000
0010
0000
2010
0000
,
0000
3100
0010
0001
1000
1000
0010
0100
,
0000
0000
0000
0000
0000
0000
0100
0000
0000
0000
0000
0000
0001
0000
0000
0000
0000
0000
1000
0000
0000
0000
0000
0000
0001
0000
0000
0010
0000
0000
0100
0000
0000
0000
0000
0000
1000
0000
0010
0000
1000
0000
0010
0000
1000
0000
0010
0000
,
0100
0000
0101
0000
0001
1000
0100
0001
,
0000
0000
0100
0000
1000
0000
0001
0000
1000
0010
0100
0000
0001
0000
0021
0000
,
0000
0130
1000
0001
0100
0100
0010
2000
,
0000
3200
0302
0203
2300
3020
0032
0023
,
2030
0000
3200
0000
0302
0000
0203
0000
1300
0001
1000
0000
0100
0000
0021
0000
,
0000
0000
0031
0000
0100
0000
0001
0000
1000
0010
0100
0000
0010
0000
2010
0000
,
0000
3001
0010
0100
0010
0010
0001
0101
,
0000
0000
0100
0000
0010
0000
0100
0000
0001
1000
0001
1000
0010
0000
0000
0000
,
0200
0000
0310
0010
2000
0000
3100
0002
,
0000
0103
1000
0010
0001
0010
0100
0001
,
0020
0000
0130
0100
2000
0000
3010
0002
,
0000
0000
0013
0000
1000
0000
0001
0000
0100
0000
0001
0000
1000
0100
0010
0000
,
0002
0000
1003
1000
0020
0000
0130
2000
,
0000
3100
0001
0010
1000
0010
0100
1000
,
0020
0000
0130
0100
0002
0000
0013
2000
,
0000
3010
0001
0100
0010
1000
1002
0003
;
