#TITLE:MAX 300;
#SUBTITLE:Gabber's Future Mix;
#ARTIST:DJ ACUBAVIX FEAT. Ω;
#TITLETRANSLIT:;
#SUBTITLETRANSLIT:;
#ARTISTTRANSLIT:;
#CREDIT:;
#BANNER:BN.jpg;
#BACKGROUND:BG.jpg;
#LYRICSPATH:;
#CDTITLE:;
#MUSIC:MAX 300 [Gabber's Future Mix].mp3;
#OFFSET:-6.410;
#SAMPLESTART:44.490;
#SAMPLELENGTH:11.960;
#SELECTABLE:YES;
#BPMS:0.000=150.000,47.000=300.000,175.000=600.000,247.000=300.000,425.000=250.000,427.000=200.000,429.000=150.000,431.000=100.000;
#STOPS:16.000=2.500
,23.500=0.200
,31.000=0.200
,38.500=0.200
,175.000=2.800
,176.000=0.100
,177.000=0.100
,178.000=0.100
,179.000=0.100
,180.000=0.100
,181.000=0.100
,182.000=0.100
,183.000=0.100
,184.000=0.100
,185.000=0.100
,186.000=0.100
,187.000=0.100
,188.000=0.100
,189.000=0.100
,192.000=0.100
,193.000=0.100
,194.000=0.100
,195.000=0.100
,196.000=0.100
,197.000=0.100
,198.000=0.100
,199.000=0.100
,200.000=0.100
,201.000=0.100
,202.000=0.100
,203.000=0.100
,204.000=0.100
,205.000=0.100
,206.000=0.100
,209.000=0.100
,210.000=0.100
,211.000=0.100
,212.000=0.100
,213.000=0.100
,214.000=0.100
,215.000=0.100
,216.000=0.100
,217.000=0.100
,218.000=0.100
,219.000=0.100
,220.000=0.100
,221.000=0.100
,222.000=0.100
,223.000=0.100
,226.000=0.100
,227.000=0.100
,228.000=0.100
,229.000=0.100
,230.000=0.100
,231.000=0.100
,232.000=0.100
,233.000=0.100
,234.000=0.100
,235.000=0.100
,236.000=0.100
,237.000=0.100
,238.000=0.100
,407.000=0.200
,408.000=0.200
,409.000=0.200
,410.000=0.200
,411.000=0.200
,412.000=0.200
,413.000=0.200
,416.000=0.200
,417.000=0.200
,418.000=0.200
,419.000=0.200
,420.000=0.200
,421.000=0.200
,422.000=0.200
;
#BGCHANGES:;
// cache tags:
#FIRSTBEAT:0.000;
#LASTBEAT:432.000;
#SONGFILENAME:Songs/toune 3/MAX 300 [Gabber's Future Mix]/MAX 300 [Gabber's Future Mix].sm;
#HASMUSIC:1;
#HASBANNER:1;
#MUSICLENGTH:111.255;
// end cache tags

//---------------dance-single - ----------------
#NOTES:
     dance-single:
     :
     Hard:
     12:
     1.000,1.000,1.000,0.081,0.108,638.000,182.000,9.000,0.000,0.000:
1100
0000
1000
1000
0110
0000
0100
0100
,
0011
0000
0010
0010
1001
1001
1001
0000
,
0011
0000
0001
0001
0011
0000
0010
0010
,
0110
0000
0100
0100
1100
0101
0011
1010
,
1001
0000
1100
0000
0101
0000
0000
1001
0000
0010
0100
0000
1001
0000
0000
0110
,
0000
0001
0010
0000
0011
0000
0000
0110
0000
0010
0100
0000
1010
0000
1100
0000
,
1100
0000
0011
0000
0000
1100
0000
1000
0100
0000
1001
0000
0000
1001
0000
1000
,
0010
0000
1001
0000
0000
0101
0000
0100
0010
0000
0101
0000
1010
0000
0011
0000
,
0101
0000
0000
0110
0000
0001
0100
0000
1001
0000
0000
1100
0000
1000
0010
0000
,
0101
0000
0000
1100
0000
0001
0100
0000
0110
0000
0011
0000
1100
0000
1100
0000
,
0000
1010
0000
0001
0100
0000
0011
0000
0000
0101
0000
1000
0100
0000
0101
0000
,
0000
1100
0000
0010
1000
0000
0011
0000
1010
0000
1100
0000
1001
0000
0000
0000
,
0011
0000
1000
0100
1000
0100
1000
0000
,
0101
0000
0010
0100
0010
0100
0010
0000
,
1100
0000
0001
0010
0001
0010
0001
0000
,
1010
0101
0000
1010
,
1001
0000
1000
0010
0100
0010
1000
0000
,
1100
0000
0001
0100
0010
0100
0001
0000
,
0110
0000
1000
0001
1000
0001
1000
0000
,
0011
1100
0000
0011
,
1100
0000
1000
0001
1000
0001
1000
0000
,
0101
0000
0010
0100
0010
0100
0010
0000
,
1001
0000
0001
0100
0001
0100
0001
0000
,
1010
0101
0000
1001
,
0101
0000
0010
0001
1000
0001
0100
0000
,
0110
0000
1000
0100
0001
0100
1000
0000
,
1010
0000
0100
1000
0001
1000
1100
0000
,
0110
0011
1001
0101
,
0110
0000
0001
1000
0001
1000
0001
0000
,
1100
0000
0010
1000
0010
1000
0010
0000
,
1001
0000
0100
0010
0100
0010
0100
0000
,
0011
1100
0000
0011
,
0101
0000
0001
0010
1000
0010
0001
0000
,
1001
0000
0100
1000
0010
1000
0100
0000
,
1010
0000
0001
0100
0001
0100
0001
0000
,
0110
1001
0000
0110
,
1001
0000
0001
0100
0001
0100
0001
0000
,
1100
0000
0010
1000
0010
1000
0010
0000
,
0101
0000
0100
1000
0100
1000
0100
0000
,
0011
1100
0000
0101
,
1100
0000
0010
0100
0001
0100
1000
0000
,
1010
0000
0001
1000
0100
1000
0001
0000
,
0011
0000
1000
0001
0100
0001
1001
0000
,
1010
0110
0101
1001
,
0110
1100
0011
0110
,
0101
1010
0110
1001
,
1010
0110
0011
0110
,
0101
0110
1000
0100
,
0001
0110
1010
0110
,
0101
0011
1001
0110
,
1010
0110
1010
0110
,
0101
1010
0110
0010
,
0100
0010
1100
0110
,
0011
0101
0110
1010
,
1100
0101
0110
1100
,
0011
0110
1001
0110
,
1000
0100
0010
1100
,
0101
0110
0011
1100
,
1001
0110
1100
0011
,
1010
0101
0110
1000
,
0100
0001
0010
0100
,
0010
0000
1000
0001
1000
0001
1000
0000
,
0002
0000
0000
1003
,
0010
0100
0000
0001
1000
0000
0011
0000
,
2200
0000
3300
0010
,
0001
0100
0000
0010
1000
0010
0100
0000
,
2002
0000
3003
0110
,
0001
0100
0000
0100
1000
0000
0011
0000
,
2200
0000
3300
1001
,
1000
0100
0000
0001
0100
0010
1000
0001
,
0100
0010
1000
0100
0001
0100
0010
1000
,
0010
0100
1000
0010
0100
0001
0100
1000
,
0010
0100
0001
0010
0100
0001
0010
0001
,
0100
0010
1000
0100
0010
1000
0100
0010
,
0100
0001
0010
0100
0001
0100
0010
1000
,
0100
0010
0100
0001
0010
0100
0001
0100
,
0010
1000
0010
0100
0001
0100
0010
1000
,
0100
1000
0010
0100
0001
0100
0010
1000
,
0001
0100
0010
1000
0010
0100
0001
0100
,
0010
1000
0100
1000
0100
0001
0010
0100
,
1000
0010
0100
1000
0010
0100
0001
0010
,
0100
0010
1000
0010
0001
0010
1000
0010
,
0001
0010
1000
0100
0001
0100
1000
0100
,
0001
0100
1000
0100
0001
0100
0010
1000
,
0001
0100
0010
1000
0100
1000
0010
0100
,
0001
0010
0100
1000
0100
0010
1000
0100
,
0010
1000
0001
0100
0010
1000
0100
0010
,
1000
0100
0001
0010
0001
0100
0010
1000
,
0100
0010
1000
0010
0100
0001
0010
0001
,
0100
0010
0001
0100
0010
0100
1000
0010
,
0100
0001
0010
0100
0001
0010
1000
0100
,
0010
1000
0100
0001
0010
0100
0001
0010
,
1000
0100
0010
0100
0001
0010
0001
0100
,
0010
1000
0010
0100
0001
0010
0100
0010
,
0100
0001
1000
0001
1000
0100
0010
0100
,
0010
0001
0010
0100
1000
0100
0001
0100
,
1000
0100
0010
0001
0100
0010
1000
0001
,
0100
0010
1000
0001
0010
0100
0001
0010
,
0001
0100
0010
1000
0100
0010
1000
0100
,
1000
0010
0100
0001
0010
0100
0010
0001
,
0100
0010
1000
0100
0010
1000
0010
0001
,
0100
0010
0001
1000
0001
1000
0110
0000
,
1010
0101
0110
1001
,
1010
1100
0101
0110
,
1010
0101
0110
1010
,
0101
0000
0110
0000
1001
0000
1000
0100
,
0010
0001
2002
0000
0000
0000
0000
0000
,
0000
0000
0000
0000
,
3003
0000
0000
0000
;
