#TITLE:Feel a Fear;
#SUBTITLE:Guilty Gear XX;
#ARTIST:Daisuke Ishiwatari and Koh-Ichi Seiyama;
#TITLETRANSLIT:;
#SUBTITLETRANSLIT:;
#ARTISTTRANSLIT:;
#CREDIT:;
#BANNER:feelfearbn.png;
#BACKGROUND:feelfearbg.png;
#LYRICSPATH:;
#CDTITLE:ducky.png;
#MUSIC:Feel a Fear.mp3;
#OFFSET:-0.670;
#SAMPLESTART:36.920;
#SAMPLELENGTH:12.000;
#SELECTABLE:YES;
#BPMS:0.000=120.000;
#STOPS:;
#BGCHANGES:;
// cache tags:
#FIRSTBEAT:0.000;
#LASTBEAT:360.000;
#SONGFILENAME:Songs/Astronomic Metal Collection 2/(Ducky) Feel a Fear/steps.sm;
#HASMUSIC:1;
#HASBANNER:1;
#MUSICLENGTH:185.443;
// end cache tags

//---------------dance-single - Copied from----------------
#NOTES:
     dance-single:
     Copied from:
     Challenge:
     14:
     1.000,1.000,1.000,0.307,1.000,1109.000,535.000,57.000,0.000,148.000:
1011
1000
1000
1000
0002
0000
0000
0003
1000
1000
1000
1000
0002
0000
0000
0003
,
1000
1000
1000
1000
0002
0000
0000
0003
1000
1000
1000
1000
0002
0000
0000
0003
,
1101
0100
0100
0100
0002
0000
0000
0003
0100
0100
0100
0100
0002
0000
0000
0003
,
1011
0010
0010
0010
0002
0000
0000
0003
1101
0100
0100
0100
0002
0000
0000
0003
,
1011
1000
1000
1000
0002
0000
0000
0003
1010
1000
1000
1000
0002
0000
0000
0003
,
1010
1000
1000
1000
0002
0000
0000
0003
1010
1000
1000
1000
0002
0000
0000
0003
,
0110
0100
0100
0100
0002
0000
0000
0003
0110
0100
0100
0100
0002
0000
0000
0003
,
1010
0000
0000
0010
0000
0000
0010
0000
0000
0010
0000
0000
0102
0000
0000
0000
0000
0000
0000
0000
0000
0003
0000
0000
1100
0000
0000
0100
0001
0000
0100
0000
0010
0100
0000
0000
1002
0000
0000
0000
0010
0000
0000
0000
0100
0003
0000
0000
,
1011
0000
0110
0000
0010
0010
1000
1000
0010
0010
0100
0100
0001
0001
0100
0010
,
1000
0000
0110
0000
0010
0010
1000
1000
0010
0010
0001
1000
0001
0010
0100
1000
,
0010
0000
0110
0000
0010
0010
1000
1000
0010
0010
0100
0100
0001
0001
0100
0010
,
1001
0000
0000
0000
0000
0000
0000
0000
0000
0000
0000
0000
0000
0000
0000
0000
0000
0000
0000
0000
0000
0000
0000
0000
0112
0000
0000
0003
0000
0000
0000
0000
0000
0000
0000
0000
0000
0000
0000
0000
0000
0000
0000
0000
0000
0000
0000
0000
1110
0000
0000
0000
0000
0000
0000
0000
0000
0000
0000
0000
0012
0000
0000
0003
0000
0000
0000
0000
0000
0000
0000
0000
0000
0000
0000
0000
0000
0000
0000
0000
0000
0000
0000
0000
1100
0000
0000
0000
0000
0000
0000
0000
0000
0000
0000
0000
0011
0000
0000
0000
0000
0000
0000
0000
1000
0000
0000
0000
0010
0000
0000
0000
0100
0000
0000
0000
0000
0000
0000
0000
1001
0000
0000
0000
0000
0000
0000
0000
0100
0000
0000
0000
0010
0000
0000
0000
1000
0000
0000
0000
0000
0000
0000
0000
0101
0000
0000
0000
0000
0000
0000
0000
0000
0000
0000
0000
0000
0000
0000
0000
0000
0000
0000
0000
0000
0000
0000
0000
0101
0000
0000
0000
0000
0000
0000
0000
0000
0000
0000
0000
0101
0000
0000
0000
0000
0000
0000
0000
0000
0000
0000
0000
,
1011
0000
0111
0000
1010
0010
1100
1001
0110
1010
0101
0100
1001
0001
1100
0011
,
1101
0000
0111
0000
1010
0010
1100
1001
0110
1010
0101
1000
1001
0010
0101
1010
,
1101
0000
0111
0000
1010
0010
1001
1100
0011
1010
0110
0100
1001
0001
0110
0011
,
1101
0000
0111
0000
1010
0010
1100
1001
0110
1010
0101
1001
0101
0011
0101
1001
,
1011
0000
0111
0000
1010
0010
1100
1001
0110
1010
0101
0100
1001
0001
1100
0011
,
1101
0000
0111
0000
1010
0010
1100
1001
0110
1010
0101
1000
1001
0010
0101
1010
,
1101
0000
0111
0000
1010
0010
1001
1100
0011
1010
0110
0100
1001
0001
0110
0011
,
1101
0000
0111
0000
1010
0010
1100
1001
0110
1010
0101
1001
0101
0011
0101
1001
,
0111
0000
0100
0100
1000
0000
0010
0000
0001
0000
0100
0100
1000
0000
0001
0000
,
0010
0000
0100
0100
1000
0000
0010
0000
0101
0010
1100
0101
0110
1000
0101
0110
,
1101
0000
1101
0110
1001
0000
0110
0000
0101
0000
1101
0110
1001
0000
0101
0000
,
1010
0000
1101
0110
1001
0000
0110
0000
1001
0000
1010
0100
1001
0000
0110
0000
,
1011
0000
1110
0101
1010
0000
0110
0000
0101
0000
1110
0101
1010
0000
1001
0000
,
1010
0000
0000
0000
1110
0000
0101
0000
1010
0000
0000
0000
1100
0000
0000
0000
0101
0000
1001
0010
1100
0000
0101
0000
1001
0000
1100
0000
0101
0000
1001
0000
,
1110
0010
1000
0100
0001
0010
1000
0001
,
0010
0000
0100
0000
1000
0000
0001
0000
0012
0003
0120
0030
1200
0300
0010
0000
,
1001
0010
0100
1000
0001
0100
0010
1000
,
0010
0000
1000
0000
0100
0000
0010
0000
0012
0203
2310
3002
0213
2300
3012
0203
,
1301
0010
1000
0100
0001
0010
1000
0001
,
0010
0000
0100
0000
1000
0000
0001
0000
0012
0003
0120
0030
1200
0300
0010
0000
,
1001
0010
0100
1000
0001
0100
0010
1000
,
0010
0000
0000
0000
0000
0000
1000
0000
0000
0000
0000
0000
0100
0000
0000
0000
0000
0000
0010
0000
0000
0000
0000
0000
0101
0000
0000
1000
0000
0000
0011
0000
0100
0000
1000
0000
0110
0000
0001
0000
0010
0000
0101
0000
1000
0000
0010
0000
,
1001
0100
1001
0100
1010
0101
0011
1100
0101
0010
1001
0100
1010
0001
1100
0010
,
1001
0000
0010
0000
0100
0000
0011
0000
1000
0000
0010
0000
1001
0000
0100
0000
0001
0000
1100
0000
0000
0010
0000
0000
0001
0000
0000
0010
0000
0000
1000
0000
0000
0100
0000
0000
1011
0000
0000
0000
0000
0000
0111
0000
0000
0000
0000
0000
,
1101
0000
1110
0000
0001
0010
1000
0100
1011
0000
0000
0000
1101
0000
0000
0000
,
1111
0000
1000
0000
1000
0000
1100
0010
1101
0000
1000
0000
1010
0000
1000
0000
,
1011
0000
1000
0100
1000
0000
1010
0000
1101
0000
1011
0000
1110
0000
1000
0000
,
1011
0000
1000
0000
1000
0000
1000
0000
1101
0000
1000
0000
1000
0000
1001
0010
,
1101
0000
1000
0000
1000
0000
1010
0001
1110
0000
1001
0100
1001
0001
1010
0010
,
1110
0001
1100
0110
1001
0110
1001
1010
0110
0001
1100
0110
1001
0110
1100
0011
,
1100
0001
1100
0110
1001
0110
1100
0011
1100
0010
0101
0101
1001
0110
1010
0011
,
1101
0000
1000
0000
1000
0000
1100
0010
1101
0000
1100
0000
1011
0000
1000
0000
,
1101
0000
0000
0000
0000
0000
1000
0000
0000
0100
0000
0000
1000
0000
0000
0000
0000
0000
1010
0000
0000
0000
0000
0000
1101
0000
0000
0000
0000
0000
1011
0000
0000
0000
0000
0000
1110
0000
0001
0000
0010
0000
1100
0000
0001
0000
0100
0000
,
1011
0000
1000
0000
1000
0000
1000
0000
1010
0000
1100
0000
1001
0000
1001
0010
,
1101
0000
1000
0000
1000
0000
1010
0001
1100
0000
1100
0001
1010
0010
1100
0100
,
1001
0010
0100
0010
1000
0001
0010
0100
1000
0010
0100
0010
1000
0001
0010
0100
1000
0010
0100
0010
1000
0001
0010
0100
1000
0010
0100
0010
1000
0001
0010
0100
,
1000
0100
0010
0001
1000
0100
0010
0001
1000
0100
0010
0001
1000
0100
0010
0001
1000
0100
0010
0001
1000
0100
0010
0001
1000
0100
0010
0001
1000
0100
0010
0001
,
2010
0010
0010
0010
0002
0000
0000
0003
0100
0100
0100
0100
3002
0000
0000
0003
,
1000
1000
1000
1000
0002
0000
0000
0003
0100
0100
0100
0100
0002
0000
0000
0003
,
0010
0010
0010
0010
0002
0000
0000
0003
0100
0100
0100
0100
0002
0000
0000
0003
,
1000
1000
1000
1000
0002
0000
0000
0003
0100
0100
0100
0100
0002
0000
0000
0003
,
1101
0010
0101
1000
0111
1000
0110
0001
1010
0100
1001
0010
1101
0010
1100
0001
,
1010
0100
0011
1000
0111
1000
0011
1000
0101
0010
1100
0001
1110
0001
0110
1000
,
0111
1000
0101
0010
1101
0010
1100
0001
0110
1000
0011
0100
1011
0100
1010
0001
,
1100
0010
0101
1000
0111
1000
0110
0001
1110
0011
1001
1010
1101
0010
1100
0011
,
1101
0010
1100
0001
1110
0001
1100
0010
1001
0100
1010
0001
1110
0001
1100
0010
,
0101
0010
1001
0100
1011
0100
1010
0001
1100
0010
1100
0001
1110
0001
1110
0011
,
1101
0010
1100
0001
1110
0001
1010
0100
1001
0010
0101
1000
0111
1000
0101
0010
,
1101
0011
1110
0101
1011
0100
1010
0101
1010
0011
1010
0011
1101
0010
1101
0110
,
1101
0010
1100
0010
1101
0010
1100
0001
0110
1000
0101
0010
1101
0010
1001
0010
,
1100
0001
1010
0100
1011
0100
1011
0101
1100
0110
1101
0010
1101
0010
1101
0101
,
1011
0100
1010
0001
1110
0001
1010
0001
1100
0010
1001
0100
1011
0100
1010
0001
,
0110
0011
1101
0010
1101
0010
1101
0110
1101
0101
1101
0011
0111
1001
1011
0101
,
1011
0100
1010
0100
1011
0100
1001
0010
1100
0001
1010
0100
1011
0100
1001
0010
,
1100
0010
0101
1000
0111
1000
0110
0001
1100
0010
0101
1000
0111
1000
0101
0010
,
1001
0010
1100
0001
1110
0001
1100
0010
1101
0101
1011
0100
1011
0100
1001
0010
,
1100
0010
1001
0100
1011
0100
1001
0010
1101
0010
1101
1010
1101
0011
1101
0101
,
1111
0000
0111
0000
1010
0010
1100
1001
0110
1010
0101
0100
1001
0001
1100
0011
,
1101
0000
0111
0000
1010
0010
1100
1001
0110
1010
0101
1000
1001
0010
0101
1001
,
1111
0000
0111
0000
1010
0010
1001
1100
0011
1010
0110
0100
1001
0001
0110
0011
,
1101
0000
0111
0001
1011
0010
1101
1001
0110
1010
0101
1001
0110
0011
0110
1010
,
1101
0000
0111
0000
1010
0010
1100
1001
0110
1010
0101
0100
1001
0001
1100
0011
,
1101
0000
0111
0000
1010
0010
1100
1001
0110
1010
0101
1000
1001
0010
0101
1010
,
1101
0000
0111
0000
1010
0010
1001
1100
0011
1010
0110
0100
1001
0001
0110
0011
,
1101
0000
0000
0010
0000
0000
0111
0000
0000
0001
0000
0000
1001
0000
0000
0011
0000
0000
0101
0000
0000
1001
0000
0000
0011
0000
0000
1001
0000
0000
0110
0000
0000
1010
0000
0000
0110
0000
0001
1000
0100
0000
0011
0000
1000
0010
0100
0000
,
1011
1000
1000
1000
0002
0000
0000
0003
1000
1000
1000
1000
0002
0000
0000
0003
,
1000
1000
1000
1000
0002
0000
0000
0003
1000
1000
1000
1000
0002
0000
0000
0003
,
1101
0100
0100
0100
0002
0000
0000
0003
0100
0100
0100
0100
0002
0000
0000
0003
,
1011
0010
0010
0010
0002
0000
0000
0003
1101
0100
0100
0100
0002
0000
0000
0003
,
1011
1000
1000
1000
0002
0000
0000
0003
1010
1000
1000
1000
0002
0000
0000
0003
,
1010
1000
1000
1000
0002
0000
0000
0003
1010
1000
1000
1000
0002
0000
0000
0003
,
0110
0100
0100
0100
0002
0000
0000
0003
0110
0100
0100
0100
0002
0000
0000
0003
,
1010
0010
0010
0010
0102
0000
0000
0003
1110
0000
0000
0111
0000
0000
1101
0000
,
1021
0000
0000
0000
,
0000
0000
0000
0000
,
0000
0000
0000
0000
,
0000
0000
0000
0000
,
0000
0000
0000
0000
,
0030
0000
0000
0000
;
