#TITLE:Amazing Nurse Nanako;
#SUBTITLE:- Nanako No Sentaku;
#ARTIST:Maria Yamamoto;
#TITLETRANSLIT:;
#SUBTITLETRANSLIT:;
#ARTISTTRANSLIT:;
#CREDIT:;
#BANNER:nanakologo.png;
#BACKGROUND:nanakobg.png;
#LYRICSPATH:;
#CDTITLE:;
#MUSIC:NanakoEnding.mp3;
#OFFSET:0.000;
#SAMPLESTART:52.209;
#SAMPLELENGTH:12.000;
#SELECTABLE:YES;
#BPMS:0.000=36.000,7.000=141.980;
#STOPS:;
#BGCHANGES:6.250=nanako.avi=1.000=0=0=1,
203.000=nanakobg.png=1.000=0=0=1,
99999=-nosongbg-=1.000=0=0=0 // don't automatically add -songbackground-
;
// cache tags:
#FIRSTBEAT:4.500;
#LASTBEAT:204.000;
#SONGFILENAME:Songs/Anime Songs/Nanako/Nanako.sm;
#HASMUSIC:1;
#HASBANNER:1;
#MUSICLENGTH:96.786;
// end cache tags

//---------------dance-single - BASIC----------------
#NOTES:
     dance-single:
     BASIC:
     Easy:
     3:
     0.251,0.263,0.124,0.031,0.000,155.000,12.000,3.000,0.000,0.000:



0000
0000
0000
0000
,
0000
0000
0000
0000
0000
0000
0000
0010
,
0000
0100
0000
0000
0000
0010
0000
0100
,
0000
1001
0000
1001
0000
0000
0000
0001
,
0000
0001
0000
1000
0000
1000
0000
0010
,
0000
0000
0000
0001
0000
0001
0000
1000
,
0000
1000
0000
0100
0000
0000
0000
0001
,
0000
0010
0000
0001
0000
1000
0000
0100
,
0000
0000
0000
0010
0000
0001
0000
0100
,
0000
0100
0000
1000
0000
0000
0000
0010
,
0000
1000
0000
0100
0000
0001
0000
0100
,
0000
0000
0000
1000
0000
0100
0000
0010
,
0000
0001
0000
1000
0000
0100
0000
0010
,
0000
0001
0000
1000
0000
0100
0000
0010
,
0000
0001
0000
0001
0000
1000
0000
0001
,
0000
1000
0000
0001
0000
1000
0000
0001
,
0000
0001
0000
1000
0000
1000
0000
0100
,
0000
0100
0000
0100
0000
0100
0000
0100
,
0000
0100
0000
0100
0000
0000
0000
0000
,
0000
0000
0000
0000
0000
0001
0000
0001
,
0000
0001
0000
0001
0000
0001
0000
0000
,
0000
0000
0000
0000
0000
1000
0000
1000
,
0000
1000
0000
1000
0000
1000
0000
0000
,
0000
0000
0000
0000
0000
0010
0000
0010
,
0000
0010
0000
0010
0000
0010
0000
0000
,
0000
0000
0000
1001
0000
0000
0000
0100
,
0000
0001
0000
1000
0000
0100
0000
0000
,
0000
1001
0000
1001
0000
1000
0000
1000
,
0000
1000
0000
1000
0000
0001
0000
0001
,
0000
0001
0000
0001
0000
0100
0000
0100
,
0000
0100
0000
0100
0000
0010
0000
0010
,
0000
0010
0000
0010
0000
0000
0000
0100
,
0000
0010
0000
0100
0000
1000
0000
0001
,
0000
0010
0000
1000
0000
0100
0000
0001
,
0000
0010
0000
0100
0000
0000
0000
1001
,
0000
0110
0000
1001
0000
0100
0000
1000
,
0000
0100
0000
0010
0000
0001
0000
0100
,
0000
0001
0000
0010
0000
0010
0000
0100
,
0000
0100
0000
0001
0000
0010
0000
0100
,
0000
1000
0000
0100
0000
0010
0000
0001
,
0000
0010
0000
0100
0000
0010
0000
0100
,
0000
0010
0000
0000
0020
0000
0000
0000
,
0030
0000
0000
0000
,
0000
0000
0000
0000
0000
0000
0000
0010
,
0000
1000
0000
0100
0000
0001
0000
0100
,
0000
1000
0000
0010
0000
0001
0000
0100
,
0000
1000
0000
0010
0000
0100
0000
0010
,
0000
1000
0000
0100
0000
1001
0000
0000
,
0000
0000
0000
0000
,
0000
0110
0000
0110
0000
0000
0000
2002
,
0000
0000
0000
0000
,
3003
0000
0000
0000;

//---------------dance-single - ANOTHER----------------
#NOTES:
     dance-single:
     ANOTHER:
     Medium:
     4:
     0.300,0.263,0.248,0.103,0.000,169.000,24.000,10.000,0.000,0.000:

0000
0000
0000
0000
,
0000
0200
0000
0000
0300
0000
0000
0100
,
0000
0110
0000
0000
0000
0010
0000
0110
,
0000
1001
0000
1001
0000
0000
0000
0010
,
0000
0001
0000
1000
0000
1000
0000
0100
,
0000
0010
0000
0001
0000
0001
0000
0010
,
0000
0100
0000
1000
0000
1000
0000
0100
,
0000
0010
0000
0001
0000
0010
0000
1000
,
0000
0100
0000
0010
0000
0001
0000
0010
,
0000
0001
0000
1000
0000
0100
0000
1000
,
0000
0010
0000
0100
0000
0010
0000
0100
,
0000
0010
0000
1000
0000
0100
0000
0010
,
0000
0001
0000
0100
0000
0100
0000
1000
,
0000
1000
0000
0001
0000
0001
0000
1000
,
0000
1000
0000
0001
0000
0001
0000
1000
,
0000
1000
0000
0001
0000
1000
0000
0001
,
0000
0001
0000
1000
0000
1000
0000
0100
,
0000
1000
0000
0100
0000
1000
0000
0100
,
0000
0001
0000
0100
0000
0001
0000
0100
,
0000
0000
0000
0000
0000
1001
0000
0100
,
0000
0010
0000
0100
0000
0010
0000
0100
,
0000
0010
0000
1001
0000
0010
0000
0100
,
0000
0010
0000
0100
0000
0010
0000
0100
,
0000
1001
0000
1000
0000
0100
0000
0001
,
0000
0100
0000
1000
0000
0110
0000
0000
,
0011
0000
1010
2000
,
0000
3000
0000
0000
0002
0000
0000
0003
,
0000
0101
0000
1100
0000
1000
0000
0100
,
0000
1000
0000
1000
0000
0001
0000
0100
,
0000
0001
0000
0001
0000
0100
0000
0010
,
0000
0100
0000
1000
0000
0001
0000
1000
,
0000
1001
0000
0000
0000
0010
0000
0100
,
0000
0010
0000
0100
0000
1000
0000
0010
,
0000
0001
0000
2002
0000
3003
0000
0000
,
0000
0000
0000
0000
0000
1001
0000
0110
,
0000
1001
0000
0110
0000
0100
0000
0001
,
0000
1000
0000
0001
0000
0010
0000
0100
,
0000
1000
0000
0010
0000
0001
0000
0100
,
0000
0001
0000
0100
0000
1000
0000
0001
,
0000
1000
0000
0100
0000
0010
0000
0100
,
0000
0010
0000
0100
0000
0010
0000
0100
,
0000
0010
0000
0000
0220
0000
0000
0000
,
0000
0000
0000
0330
0000
1100
0000
0000
,
0000
0101
0000
0000
0000
1001
0000
0010
,
0000
1000
0000
0100
0000
0001
0000
0010
,
0000
1000
0000
0100
0000
0001
0000
0010
,
0000
1000
0000
0100
0000
0001
0000
0010
,
0000
1000
0000
0100
0000
0000
0002
0000
,
0000
0003
0000
0000
2000
0000
0000
3000
,
0000
0101
0000
0101
0000
0000
0000
0200
,
0000
0000
0000
0000
,
0300
0000
0000
0000;

//---------------dance-single - MANIAC----------------
#NOTES:
     dance-single:
     MANIAC:
     Hard:
     7:
     0.437,0.448,0.258,0.103,0.010,261.000,25.000,10.000,0.000,0.000:





0000
0000
0000
0000
,
0000
0000
0000
0220
0000
0000
0000
0000
0000
0000
0000
0000
0330
0000
0000
0000
0101
0000
0010
0000
0000
0100
0000
0000
,
0001
0100
0000
0000
1000
0010
1000
0100
,
0000
0110
0000
0110
0000
0000
0000
0010
,
0000
0001
0000
1000
0100
1000
0000
0100
,
0000
0010
0000
0001
0100
0001
0000
0010
,
0000
0100
0000
1000
0100
0010
0000
0001
,
0000
0010
0000
0001
0010
0100
0000
1000
,
0000
0100
0000
0010
0010
0001
0000
0100
,
0000
0100
0000
1000
0010
0100
0000
0010
,
0000
0010
0000
0100
0010
0001
0000
0100
,
0000
0010
0000
1000
0100
0100
0000
0100
,
0010
0100
0000
0100
0010
0100
0000
1000
,
0100
1000
0000
1000
0100
1000
0000
0001
,
0010
0001
0000
0001
0010
0001
0000
1000
,
0010
1000
0000
1000
0010
1000
0000
0001
,
0010
0001
0000
0001
0010
0001
0000
0100
,
0100
1000
0000
0100
0100
1000
0000
0100
,
0100
0001
0000
0100
0100
0001
0110
0100
,
0110
0000
0000
0000
0000
2001
0000
0100
,
0000
0001
0000
0100
0000
0001
0000
0100
,
0000
0001
0000
3001
0000
1002
0000
0100
,
0000
1000
0000
0100
0000
1000
0000
0100
,
0000
1000
0000
1003
0000
0120
0000
0001
,
0000
0000
1000
0000
0000
0000
0031
0000
0000
0000
0110
0000
0000
1000
0001
0000
,
0100
0000
0010
0010
0010
0000
1000
0100
,
0001
0001
0000
0000
0001
0100
1000
1000
,
0000
1001
0000
1001
0000
1000
0100
1000
,
0100
1000
0100
1000
0100
0001
0100
0001
,
0100
0001
0100
0001
0010
0100
0010
0100
,
0010
0100
0010
1000
0001
1000
0001
1000
,
0001
1000
0000
0000
0010
0100
1000
0100
,
0001
0010
0100
1000
0100
1000
0100
0010
,
0001
0010
0100
1000
0001
0000
0000
0000
,
0000
0000
0000
0000
0100
0000
0100
0000
0200
0000
0000
0300
0000
0000
1100
0000
,
0000
0101
0000
1001
0000
0100
0001
0100
,
0010
0100
1000
0100
0000
0100
0001
0100
,
0010
1000
0100
0010
0000
0010
0010
0100
,
1000
0010
0100
0100
0000
0010
0001
0100
,
0100
1000
0010
0100
0000
0010
0010
0100
,
0001
0010
0100
0100
0000
0100
0010
0100
,
1000
0100
0010
0010
0220
0000
0000
0000
,
0000
0000
0000
0330
0000
0010
0000
0100
,
0100
0000
0001
0100
0001
0000
0000
0110
,
0000
1000
0000
0110
0000
0001
0000
0110
,
0000
1000
0000
0110
0000
0001
0000
0110
,
0000
1000
0000
0110
0000
0001
0000
0110
,
0000
1000
0000
0110
0000
0000
0001
0010
,
0100
1000
0000
0000
0001
0010
0100
1000
,
0000
0100
0000
0100
0000
0000
0000
2002
,
0000
0000
0000
0000
,
3003
0000
0000
0000;
