#TITLE:Ace of Hz;
#SUBTITLE:;
#ARTIST:Ladytron;
#TITLETRANSLIT:;
#SUBTITLETRANSLIT:;
#ARTISTTRANSLIT:;
#CREDIT:Braeden47;
#BANNER:../Banner.png;
#BACKGROUND:../BG.png;
#LYRICSPATH:;
#CDTITLE:../CDTitleBRAEDEN.png;
#MUSIC:Ace of Hz.ogg;
#OFFSET:0.201;
#SAMPLESTART:34.474;
#SAMPLELENGTH:24.000;
#SELECTABLE:YES;
#DISPLAYBPM:132.000;
#BPMS:0.000=66.000,16.000=132.000,237.000=173.020,237.500=156.800,238.000=133.180,238.500=116.600;
#STOPS:;
#BGCHANGES:;
// cache tags:
#FIRSTBEAT:0.500;
#LASTBEAT:240.000;
#SONGFILENAME:Songs/Index Tesseract/Ace of Hz - [Braeden]/Ace of Hz.sm;
#HASMUSIC:1;
#HASBANNER:1;
#MUSICLENGTH:118.700;
// end cache tags

//---------------dance-single - Braeden47----------------
#NOTES:
     dance-single:
     Braeden47:
     Hard:
     7:
     0.442,0.455,0.177,0.286,0.084,312.000,21.000,34.000,0.000,0.000:
0000
0000
0000
0000
0000
0000
0000
0000
0000
0000
0000
0000
0000
0000
0000
1000
,
0010
0100
0002
0000
0000
0000
2003
0000
0000
3020
0000
0000
0030
0000
0000
0000
,
0000
0000
1000
0000
0000
0000
0001
0100
0010
2000
0000
3000
0000
0000
0000
0001
,
0100
0001
0200
0000
0000
0000
0310
0000
0000
1000
0000
0000
0000
0000
0000
0000
,
1001
0000
1000
0100
0001
0100
0010
0001
,
1000
0000
0001
0000
0000
0000
0001
0010
0000
0000
0001
0010
0000
0000
0001
1000
,
0001
2002
0003
0010
,
0000
0000
3001
0000
0000
0000
0001
0100
0000
0000
0001
0100
0000
0000
0010
0000
,
1000
0000
0100
0000
0011
0000
0001
0100
,
0010
1000
0000
0100
0000
0010
0000
0010
,
0100
1000
0002
0000
0000
0000
1000
0000
,
0000
0103
0000
0010
0000
0010
0000
0010
,
1001
0000
1000
0010
0100
0001
0100
0001
,
0010
0000
0100
1000
0100
1000
0010
0100
,
0001
2002
0003
0010
,
0001
3001
0000
0010
0000
0100
0000
1000
,
1001
0000
1000
0000
1010
0000
1000
0100
,
0001
0100
0000
1000
0000
0010
0000
1000
,
0001
1000
0002
0000
0100
0000
0023
0000
,
0100
0000
0130
0000
0000
0000
1000
0100
0000
0000
0100
0010
0000
0000
0010
0001
,
0000
0000
1000
0010
0100
0001
0010
0100
,
1000
0010
0001
0010
1000
0010
0100
0001
,
1001
0202
0300
1000
,
0000
1003
0000
0010
0000
0100
0000
0001
,
1001
0000
2000
0000
3020
0000
1030
0100
,
0000
0100
0000
0100
0010
0000
0001
0100
,
0001
2020
0030
0001
,
0000
3100
0000
0010
0000
0001
0100
1000
,
0100
0001
1000
0100
0001
0100
0010
0100
,
1000
0000
0001
0010
1000
0010
0100
0010
,
0001
0000
1000
0001
0000
0100
0000
0010
,
0000
1000
0002
0000
0000
0000
0103
0100
,
0101
0010
1000
0001
,
0010
0000
0100
0000
1000
0000
0001
0100
,
0010
1000
0002
0000
0000
0000
1000
0000
,
0000
0103
0000
0010
0000
1000
0000
0001
,
0010
0100
1000
0000
0001
0000
1000
0010
,
0200
0001
0000
0301
0000
0100
0000
0010
,
1000
0010
0200
0000
0000
0000
0001
0000
,
0000
0310
0000
1000
0000
1000
0000
0010
,
1010
0000
0000
1000
0020
0000
0000
0000
2030
0000
0000
0000
3001
0000
0100
0000
,
0020
1000
0000
1030
0000
0001
0000
0001
,
1001
0000
0000
1000
0100
0000
0000
0000
0110
0000
0000
0000
0001
0000
0000
0000
,
1001
0001
0000
0100
0000
0010
0000
1000
,
1001
0000
0000
0001
0200
0000
0000
0000
0320
0000
0000
0000
1030
0000
0100
0000
,
0001
0100
0000
1000
0000
0100
0000
1000
,
0100
0010
0002
0000
0010
0000
2003
0000
,
0001
3001
0000
0100
0000
0010
0000
1000
,
0000
0001
0001
0000
1001
0000
0010
1000
,
0000
0001
0000
0100
0000
0010
0000
1000
,
0100
0010
0002
0000
0000
0000
1000
0000
,
0000
0103
0000
0010
0000
1000
0000
0001
,
1001
0000
0000
1000
0010
0000
0100
0000
0001
0000
0010
0000
0100
0000
1000
0000
,
0001
0010
0100
1000
0001
0010
0100
0001
,
0100
2000
0010
3002
,
0100
0103
0000
0010
0000
1000
0001
0100
,
0010
1000
0100
1000
0100
1000
0100
0001
,
0100
0001
1000
0010
1000
0010
0001
0010
,
0001
1000
0000
0001
0000
0100
0000
0010
,
0000
1000
2002
0000
0000
0000
3003
0000
,
1001
0000
0000
0000
;

//---------------dance-double - Blank----------------
#NOTES:
     dance-double:
     Blank:
     Hard:
     1:
     0.005,0.070,0.008,0.000,0.000,1.000,1.000,0.000,0.000,1.000:
00000000
00000000
00000000
00000000
,
00000000
00000000
00000000
00000000
,
00000000
00000000
00000000
00000000
,
00000000
00000000
00000000
00000000
,
00000000
00000000
00000000
00000000
,
00000000
00000000
00000000
00000000
,
00000000
00000000
00000000
00000000
,
00000000
00000000
00000000
00000000
,
00000000
00000000
00000000
00000000
,
00000000
00000000
00000000
00000000
,
00000000
00000000
00000000
00000000
,
00000000
00000000
00000000
00000000
,
00000000
00000000
00000000
00000000
,
00000000
00000000
00000000
00000000
,
00000000
00000000
00000000
00000000
,
00000000
00000000
00000000
00000000
,
00000000
00000000
00000000
00000000
,
00000000
00000000
00000000
00000000
,
00000000
00000000
00000000
00000000
,
00000000
00000000
00000000
00000000
,
00000000
00000000
00000000
00000000
,
00000000
00000000
00000000
00000000
,
00000000
00000000
00000000
00000000
,
00000000
00000000
00000000
00000000
,
00000000
00000000
00000000
00000000
,
00000000
00000000
00000000
00000000
,
00000000
00000000
00000000
00000000
,
00000000
00000000
00000000
00000000
,
00000000
00000000
00000000
00000000
,
00000000
00000000
00000000
00000000
,
00000000
00000000
00000000
00000000
,
00000000
00000000
00000000
00000000
,
00000000
00000000
00000000
00000000
,
00000000
00000000
00000000
00000000
,
00000000
00000000
00000000
00000000
,
00000000
00000000
00000000
00000000
,
00000000
00000000
00000000
00000000
,
00000000
00000000
00000000
00000000
,
00000000
00000000
00000000
00000000
,
00000000
00000000
00000000
00000000
,
00000000
00000000
00000000
00000000
,
00000000
11110000
00000000
00000000
;

//---------------dance-single - ----------------
#NOTES:
     dance-single:
     :
     Easy:
     3:
     0.172,0.227,0.059,0.084,0.000,126.000,7.000,10.000,0.000,0.000:
0000
0000
0000
0000
,
0000
0000
0000
0000
,
0000
1000
0000
0001
0000
0000
0000
0000
,
0000
0010
0000
0100
0000
0000
0000
0000
,
1001
1000
0010
1000
,
0000
0001
1000
0001
,
0000
1000
0000
0100
,
0000
0010
0000
0000
0000
0000
0000
0000
,
1001
0010
0100
0010
,
0000
1000
0000
0000
0000
0000
0000
0000
,
0001
0200
0000
0310
,
0000
1000
0000
0000
0000
0000
0000
0000
,
0000
1000
0010
0100
,
0001
0010
0000
0000
,
0100
2000
0000
3001
,
0000
0100
0000
0000
0000
0000
0010
0000
,
1000
0001
0001
0100
,
0000
0100
0000
0000
0000
0000
0000
0000
,
0010
1000
0000
0001
,
0000
1000
0000
0000
0000
0000
0000
0000
,
0000
1000
1001
0001
,
0000
0100
0000
0000
0000
0000
0000
0000
,
0000
0020
0000
1030
,
0000
0001
0000
0000
0000
0000
0000
0000
,
0000
0100
0010
0001
,
0000
1000
0000
0000
0001
0000
0000
0000
,
0000
1000
0000
0001
,
0000
0100
0000
0000
0000
0000
0010
0000
,
1000
0001
0000
0010
,
0000
0100
0000
1000
,
0000
0002
0000
0003
,
0000
2000
0000
3000
,
0000
0001
0000
0001
,
0000
0010
0000
0010
,
0000
0100
0000
1000
,
0000
0001
0000
0000
0000
0000
1000
0000
,
0000
1001
0000
0010
,
0000
0010
0000
0100
,
0000
0100
0000
0001
,
0000
1000
0000
0000
0000
0000
0000
0000
,
0000
1000
0010
0100
,
0000
0001
0010
0100
,
0000
1000
0000
0001
,
0000
1000
0000
0000
0000
0000
0000
0000
,
0000
0001
0010
0100
,
0000
1000
0010
0100
,
0000
0002
0000
1003
,
0000
0001
0000
0000
0000
0000
0000
0000
,
0000
1000
1001
0001
,
0000
0100
0000
0000
0000
0000
0000
0000
,
0000
0020
0000
1030
,
0000
0001
0000
0000
0000
0000
0000
0000
,
0000
1000
0001
0100
,
0000
0010
0000
0000
1000
0000
0000
0000
,
0000
0002
0000
1003
,
0000
0010
0000
0000
0000
0000
0100
0000
,
0001
0010
0010
0100
,
0100
1000
1000
0001
,
0001
0010
0000
0000
,
0000
2002
0000
3003
,
1001
0000
0000
0000
;

//---------------dance-single - ----------------
#NOTES:
     dance-single:
     :
     Medium:
     5:
     0.319,0.303,0.034,0.270,0.013,229.000,4.000,32.000,0.000,0.000:
0000
0000
0000
0000
,
0000
0000
0001
0000
0000
0000
1000
0000
0000
0010
0000
0000
0000
0000
0000
0000
,
0000
0000
1000
0000
0000
0000
0010
0000
0000
1000
0000
0000
0000
0000
0000
0000
,
0001
0000
0010
0000
0000
0000
0010
0000
0000
1000
0000
0000
0000
0000
0000
0000
,
1001
0000
0001
0000
1000
0000
0010
1000
,
0010
1000
0000
0001
0000
0001
0000
0100
,
0000
0020
0000
2030
,
0000
3001
0000
0000
0000
0000
0000
0000
,
0000
0000
1000
0000
0010
0000
0100
0001
,
0100
0001
0000
1000
0000
1000
0000
0001
,
0100
0001
0200
0000
0000
0000
0320
0000
,
0000
1030
0000
0001
0000
0001
0000
1000
,
0000
0000
0001
0000
1000
0000
0010
1000
,
0010
1000
0000
0001
0000
0001
0000
0000
,
0000
0200
0000
0320
,
0000
1030
0000
0001
0000
0001
0000
0001
,
1000
0000
0001
0000
0100
0000
0010
1000
,
0010
1000
0000
0001
0000
0100
0000
0010
,
1000
0010
2000
0000
0000
0000
3002
0000
,
0000
0103
0000
0010
0000
1000
0000
0001
,
1000
0000
0010
0000
0100
0000
0001
0010
,
0000
0001
0000
1000
0000
1000
0000
0010
,
0100
0002
0000
0203
,
0000
1300
0000
1000
0000
0100
0000
0001
,
0000
0001
0100
0000
0010
0000
1000
0001
,
0000
0100
0000
0010
1000
0000
0000
0000
,
0000
0002
0000
2003
,
0000
3010
0000
0100
0000
0000
0001
0010
,
0001
0010
0002
0000
0000
0000
2003
0000
,
0000
3020
0000
0230
,
0000
0000
0301
1000
0000
1000
0000
0001
,
0000
0100
0000
0010
0000
1000
0000
0001
,
1000
0001
0100
0010
,
1000
0001
0010
0100
,
1000
0010
0000
0001
,
0000
0010
0000
1000
0000
1000
0000
1000
,
0000
0000
0100
0000
0010
0000
0001
0100
,
0010
1000
0000
0001
0000
0100
0000
0010
,
1000
0010
2000
0000
0000
0000
3002
0000
,
0000
0103
0000
0010
0000
1000
0000
0001
,
1000
0000
0010
0000
1000
0000
0001
0010
,
0001
0010
0000
0100
0000
1000
0000
0001
,
0100
0010
2000
0000
0000
0000
0001
0000
,
0000
3010
0000
0100
0000
0100
0000
0001
,
1000
0000
0010
0000
0100
0000
0001
0010
,
0100
2000
0000
0001
0000
3001
0000
0100
,
0010
0100
0020
0000
0000
0000
2030
0000
,
0000
3001
0000
0100
0000
0010
0000
1000
,
0001
0000
0100
0000
0010
0000
1000
0001
,
0000
0100
0000
0010
0000
1000
0000
0100
,
0000
0001
0200
0000
0000
0000
2300
0000
,
0000
3010
0000
0100
0000
0100
0000
0001
,
0010
0001
1000
0000
0001
0000
0100
0010
,
0000
1000
0000
0001
0010
0000
0000
0000
,
1001
2000
0000
3002
,
0000
0103
0000
0010
0000
0000
1000
0001
,
1000
0001
0200
0000
0000
0000
0320
0000
,
0000
2030
0000
3002
,
0000
0000
0103
0010
0000
1000
0000
0001
,
0000
1000
2002
0000
0000
0000
3003
0000
,
1001
0000
0000
0000
;

//---------------dance-single - ----------------
#NOTES:
     dance-single:
     :
     Challenge:
     11:
     0.840,1.000,0.059,0.522,1.000,627.000,7.000,62.000,30.000,6.000:

0000
0000
0000
0000
1000
0100
0010
0100
1000
0001
0100
0010
1000
0100
0010
0100
1000
0001
0010
0100
1000
0001
0100
0010
1000
0100
0010
0100
1000
0001
0010
0100
,
1000
0001
0100
0010
1000
0100
0010
0100
1000
0001
0010
0100
1000
0001
0100
0010
0100
0001
1000
0100
0010
0001
1000
0010
0200
0000
0000
0000
0000
0000
0000
0000
,
0000
0000
0302
0000
0000
0000
0203
0320
0230
0320
0000
0000
0000
0000
0000
2030
,
3200
2300
3200
0000
0000
0000
0320
0000
0000
0032
0000
0000
0000
0000
0000
0003
,
1101
0000
0000
0000
1000
0100
0010
0100
1000
0001
0100
0010
0100
0001
1000
0100
,
0010
0100
1000
0001
0100
0010
1000
0100
0010
0100
1000
0001
0010
0100
1000
0001
,
0100
0010
1000
0001
0100
0010
1000
0001
0100
0010
1000
0001
0010
0100
1000
0001
,
0010
0001
1000
0100
0010
0001
0010
0100
1000
0001
0100
0010
1000
0100
0010
0001
,
1000
0010
2000
3200
0310
0001
0100
0010
1000
0001
0010
0100
1000
0001
0100
0010
,
1000
0001
0020
0032
1003
0100
0010
0100
1000
0001
0100
0010
0100
0001
0010
0100
,
1000
0001
0200
0320
1030
0100
0010
0100
1000
0001
0010
0100
1000
0001
0100
0010
,
0100
0001
1000
0100
0010
0100
1000
0001
0010
0100
1000
0001
0100
0010
0100
0001
,
1000
0100
0010
0001
2000
0000
0000
0000
3200
0000
0000
0000
2300
0000
3200
0000
,
2300
0000
3200
0000
1300
0001
1000
0001
1000
0001
1000
0001
1000
0010
0100
0001
,
1000
0100
0010
0100
2000
0000
0000
0000
0000
0000
0000
0000
3010
0000
0000
0000
,
0000
0000
0100
0001
1000
0100
0010
0100
1000
0001
0010
0100
1000
0001
0100
0010
,
1000
0001
0010
0100
1000
0001
0100
0010
0100
0001
1000
0100
0010
0100
1000
0001
,
0100
0010
1000
0100
0010
0001
0010
0100
1000
0001
0100
0010
0100
0001
1000
0100
,
0010
0001
0010
0100
1000
0001
0100
0010
0000
1000
0100
1000
0000
0001
0100
0001
,
0000
1000
0010
0100
0000
0001
0100
0010
0000
1000
0100
0010
0000
0001
0100
0010
,
0000
0000
1000
0001
1000
0001
1000
0001
1000
0000
0001
0000
1000
0000
0001
0000
1000
0000
0001
0000
1000
0000
0001
0000
1000
0000
0100
0000
0010
0000
0100
0000
,
1000
0001
0100
0010
1000
0100
0010
0100
1000
0001
0010
0100
1000
0001
0100
0010
,
0100
0001
1000
0100
0010
0100
1000
0001
0100
0010
1000
0100
0010
0100
1000
0001
,
0100
0001
0010
0100
1000
0001
0100
0010
1000
0100
0010
0001
0010
0100
1000
0001
,
0100
0010
1000
0001
0200
0000
0000
0000
0302
0000
0M00
0000
0103
0000
010M
0000
,
0000
0000
0001
0000
0000
0000
0001
0000
0001
1000
0010
0100
000M
0100
1000
0001
,
0000
1000
0100
0010
000M
0010
1000
0010
0000
1000
0001
0100
000M
0100
1000
0001
,
0000
1000
0100
0010
0000
0010
0100
1000
0000
0001
0100
0010
0000
1000
0100
0010
,
0002
0000
0103
0020
0000
2030
00M0
3020
,
M000
2030
0000
30M2
0000
M203
0000
032M
,
0000
2M30
0000
32M0
0000
M320
0000
0032
,
0000
0000
0000
1003
0000
0000
0001
0010
0100
1000
0001
0010
0100
1000
0001
0100
0010
1000
0100
0010
0100
1000
0001
0010
,
0100
2001
0010
0004
,
0000
3003
0000
0100
0000
0010
0000
1000
,
0100
0010
0200
0000
0000
0000
0320
0000
,
0000
1031
MMMM
0000
0000
0000
0000
0000
,
0000
0000
1001
0000
0010
0000
0100
0010
,
1000
0010
MM0M
0000
0000
0000
0000
0010
,
1000
0010
0200
0000
0000
0000
0002
0000
,
0000
2000
0000
0000
0000
0000
0000
0000
,
3303
0000
0000
0000
0001
0100
0010
1000
0001
0010
0100
1000
0001
0100
0010
1000
,
0100
0010
0100
1000
0001
0100
0010
1000
0100
0010
0100
1000
0001
0010
0100
1000
,
0001
0100
0010
0100
0001
0010
0100
1000
0001
0100
0010
1000
0100
0010
0100
1000
,
0001
0010
0100
1000
0001
0100
0010
1000
0100
0010
0100
1000
0001
0010
0100
1000
,
0001
0100
0010
0100
0001
1000
0100
0010
0100
1000
0001
0010
0100
1000
0001
0100
,
0010
1000
0100
0010
0100
1000
0001
0010
0100
1000
0001
0100
0010
1000
0100
0010
,
0100
1000
0001
0100
0001
0010
0100
1000
0001
0100
0010
1000
0001
0010
0100
1000
,
0001
0100
0010
0000
0000
1000
0001
0100
0000
0100
0001
1000
0000
0010
0100
0001
,
0000
1000
1001
MMMM
1001
M00M
0001
001M
,
00M0
0200
0000
0000
0000
0000
0300
0000
,
00MM
2200
0000
0010
,
0000
0000
3301
0000
0000
0000
1000
0001
0000
0000
1000
0010
0000
0000
0100
0001
,
0000
0000
1000
0010
0200
0000
0000
0000
0302
0000
0000
0000
0100
0000
0103
0000
,
0000
0001
1000
0010
0000
1000
0100
0010
0000
0001
0100
0010
0000
1000
0100
0000
,
0010
2000
0000
0002
,
0000
0020
0000
0000
3033
0000
1000
0100
,
0010
0001
1000
2000
0000
3020
0000
0230
,
0000
0010
0010
0320
0000
0032
0000
0023
,
0000
0031
0100
0002
0000
0203
0000
0310
,
0000
0001
2000
0000
3000
0000
0000
0000
;
