#TITLE:ErAseRmoToR maXimUM;
#SUBTITLE:;
#ARTIST:L.E.D.-G VS GUHROOVY;
#TITLETRANSLIT:;
#SUBTITLETRANSLIT:;
#ARTISTTRANSLIT:;
#CREDIT:;
#BANNER:ErAseRmoToR maXimUM.png;
#BACKGROUND:ErAseRmoToR maXimUM-bg.png;
#LYRICSPATH:;
#CDTITLE:!tear-cdtitle.png;
#MUSIC:ErAseRmoToR maXimUM.mp3;
#OFFSET:-0.448;
#SAMPLESTART:18.840;
#SAMPLELENGTH:12.000;
#SELECTABLE:YES;
#BPMS:0.000=125.000,40.000=250.000,160.000=125.000,192.000=250.000;
#STOPS:;
#BGCHANGES:;
// cache tags:
#FIRSTBEAT:8.000;
#LASTBEAT:414.000;
#SONGFILENAME:Songs/Keyboard Collaboration II/Tear - ErAseRmoToR maXimUM/ErAseRmoToR maXimUM.sm;
#HASMUSIC:1;
#HASBANNER:1;
#MUSICLENGTH:120.457;
// end cache tags

//---------------dance-single - ----------------
#NOTES:
     dance-single:
     :
     Hard:
     11:
     1.000,1.000,1.000,0.100,0.461,711.000,202.000,12.000,0.000,0.000:  // measure 1
0000
0000
0000
0000
,  // measure 2
0000
0000
0000
0000
,  // measure 3
1001
0000
0000
0000
0000
0000
0000
0000
0001
0000
0100
0000
0010
1000
0000
0010
,  // measure 4
1001
0000
0000
0000
0000
0000
0000
0000
1000
0000
0100
0000
1000
0001
0000
1000
,  // measure 5
0110
0000
0000
0000
0000
0000
0000
0000
0001
1000
0001
0000
0100
0010
1000
0001
,  // measure 6
1010
0000
0000
0000
0000
0000
0000
0000
0001
1000
0100
0010
0001
1000
0010
0100
,  // measure 7
1001
1000
0100
0000
0000
0000
0000
0000
1000
0100
0010
0001
0000
1000
0000
0001
,  // measure 8
1001
0000
0001
0000
0100
0000
0000
0000
0010
0000
0000
0000
0000
0000
0000
0000
0010
0000
0000
0000
0010
0000
0000
0000
0100
0000
0010
0000
1000
0010
1000
0010
,  // measure 9
1001
0000
1100
0000
,  // measure 10
1001
0000
0000
0000
0001
0000
0000
0000
0001
0000
0000
0000
0001
0000
0000
0000
0100
0000
0001
0000
0100
0000
0001
0000
0010
0100
1000
0100
1000
0000
0100
0000
,  // measure 11
1001
1100
1010
1001
,  // measure 12
0101
0110
1001
0011
,  // measure 13
0110
1100
1010
1001
,  // measure 14
0101
0000
0000
0000
0011
0000
0000
0000
1001
0000
0000
0000
0100
0010
1000
0001
,  // measure 15
0010
1001
0110
1010
,  // measure 16
0101
0011
0101
0110
,  // measure 17
1010
1001
1100
1001
,  // measure 18
0101
0000
0101
0000
0101
0101
0101
0101
,  // measure 19
0101
0001
1000
0101
0010
1000
0011
1000
,  // measure 20
0001
0110
0001
1000
0001
1000
0101
0010
,  // measure 21
1000
0001
0110
0001
1000
0101
0010
1000
,  // measure 22
0001
1010
0001
1000
0100
1000
0200
0000
,  // measure 23
1300
0001
1000
0110
1000
0001
0010
1100
,  // measure 24
0001
0100
0010
1000
0101
0010
0101
1000
,  // measure 25
0001
0100
1010
0001
0100
0010
1001
0100
,  // measure 26
0001
1000
0000
1000
0000
1000
0002
1000
,  // measure 27
1003
0010
0100
0011
0100
0010
1000
0101
,  // measure 28
0010
2000
0000
3002
0000
0203
0000
0310
,  // measure 29
1000
0001
1100
0001
0100
1001
0100
0010
,  // measure 30
1000
2000
0000
3200
0000
0320
0000
0031
,  // measure 31
0100
1010
0100
0001
0010
1100
0010
0001
,  // measure 32
1000
0020
0000
0230
0000
0302
0000
1003
,  // measure 33
0100
0010
0001
1000
0010
0100
0001
1000
,  // measure 34
0110
1000
0101
0010
1100
0010
0101
0010
,  // measure 35
1001
0000
0000
0000
,  // measure 36
0000
0000
0000
0000
,  // measure 37
0000
0000
0000
0000
,  // measure 38
0000
0000
0000
0000
,  // measure 39
0000
0000
0000
0000
,  // measure 40
1000
0100
1000
0100
1000
0100
1000
0100
1000
0100
1000
0100
1000
0100
1000
0100
,  // measure 41
0011
0000
0001
0100
0010
1000
0001
0010
0100
0000
0110
0000
0100
0010
0001
1000
,  // measure 42
0010
0000
0110
0000
0010
1000
0001
0010
0100
0000
1000
0100
1000
0000
0100
0000
,  // measure 43
0011
0000
0001
0100
0010
1000
0001
0010
0100
0000
0110
0000
0100
1000
0010
0100
,  // measure 44
0001
0000
1001
0000
0001
0100
0010
1000
0001
0000
0001
1000
0000
1100
0000
0000
,  // measure 45
1100
1010
0110
0101
0011
1001
0101
0011
0110
1100
1010
0110
1001
0101
0011
1010
,  // measure 46
1001
0000
0000
0000
1000
0010
1000
0000
0001
0000
1000
0000
0100
0000
0010
0000
0001
0000
0010
0000
0001
0000
0010
0000
0001
0000
0100
0000
0010
0000
1000
0000
,  // measure 47
1100
0000
0000
0000
1000
0100
1000
0000
0010
1000
0010
0000
0000
0000
0000
0000
1010
0000
0000
0000
0001
0100
0001
0000
1000
0100
1000
0000
0000
0000
0000
0000
,  // measure 48
1001
0000
0000
0000
1010
0000
0000
0000
1001
0000
0100
0001
1000
0000
0010
0000
,  // measure 49
1100
1010
1001
0110
,  // measure 50
1001
0000
1010
0000
0011
0000
0101
1001
,  // measure 51
0110
0000
1010
0000
0100
0001
1000
0010
,  // measure 52
1000
0100
1000
0000
0001
0000
1000
0000
0100
0000
0010
0000
0001
1000
0001
0000
,  // measure 53
1001
1010
0110
1001
,  // measure 54
1010
0000
1001
0001
0100
0110
0110
1001
,  // measure 55
0100
1010
1100
1001
,  // measure 56
1000
0001
1000
0001
1000
0000
0100
0000
0000
0000
0010
0000
0000
0000
0001
0000
,  // measure 57
0010
1100
1010
0101
,  // measure 58
1001
0000
0100
0000
0010
0000
1000
0000
0001
0000
0000
0000
1001
0000
1000
0100
,  // measure 59
1000
0011
1010
0110
,  // measure 60
1001
0000
0000
0000
0101
0000
0000
0000
1000
0100
1000
0000
0001
0100
0001
0000
,  // measure 61
1010
0100
0001
0010
0100
1000
0001
0010
,  // measure 62
0001
0100
0010
1000
0010
0100
0001
1000
,  // measure 63
0011
0100
1001
0100
1010
0100
0011
0100
,  // measure 64
1001
0000
0000
0000
,  // measure 65
1001
0000
0000
0000
,  // measure 66
0001
0100
0001
0000
1000
0010
0000
1000
,  // measure 67
0100
0000
0100
0010
0001
0000
0001
0000
,  // measure 68
0010
0001
0010
0000
0001
0010
0000
0100
,  // measure 69
1000
0000
0000
0000
0001
0000
0100
0000
0001
0000
0000
0000
0001
1000
0001
0000
,  // measure 70
1000
0010
1000
0000
0001
0100
0000
0001
,  // measure 71
0100
0000
0000
0000
0001
0000
0000
0000
0001
1000
0001
0000
1000
0001
1000
0000
,  // measure 72
0001
0100
0001
0000
1000
0100
1000
0000
,  // measure 73
0100
1000
0100
1000
0100
0001
0100
0001
,  // measure 74
0100
1000
0010
0100
0001
0010
0100
1000
,  // measure 75
0010
0001
0010
0001
0010
1000
0010
1000
,  // measure 76
0010
0100
0001
0010
1000
0010
0100
0010
,  // measure 77
0001
0010
0100
1000
0010
0100
0001
1000
,  // measure 78
0010
0001
1000
0100
0001
0010
0100
0001
,  // measure 79
1000
0010
0001
1000
0010
0100
0001
0000
,  // measure 80
1000
0001
1000
0001
1000
0001
1000
0001
1000
0001
1000
0001
1000
0001
1000
0001
,  // measure 81
0110
1010
1001
0101
,  // measure 82
0011
0000
0000
0000
0110
0000
0000
0000
1100
0000
0000
0000
1001
0100
1000
0100
,  // measure 83
0011
1001
0101
0110
,  // measure 84
1010
0000
0000
0000
1001
0100
0010
1000
0001
0000
0000
0000
1001
0100
0010
1000
,  // measure 85
0001
1100
1001
1010
,  // measure 86
0110
0000
0000
0000
1001
0000
0000
0000
0011
0000
0000
0000
0101
0010
1000
0001
,  // measure 87
0010
1100
1010
1001
,  // measure 88
2000
0000
0000
0000
0000
0000
0000
0000
0000
0000
0000
0000
0000
0000
0000
3000
,  // measure 89
0101
1000
0110
0001
1010
0001
1100
0010
,  // measure 90
1001
0000
0100
0000
0011
0000
0100
0000
1000
0001
1000
0000
0001
0100
0001
0000
,  // measure 91
1010
0100
0011
1000
0110
0001
1010
0100
,  // measure 92
1001
0000
0100
0000
0010
0000
1000
0000
0001
0010
0001
0000
1000
0010
1000
0000
,  // measure 93
0001
1000
0010
1000
0001
0100
0001
0100
,  // measure 94
1001
0100
1001
0100
1001
0100
1001
0100
,  // measure 95
1001
0100
0001
1000
0101
0010
1000
0001
,  // measure 96
1100
0000
0001
0000
0010
0000
0001
0000
1000
0100
1000
0000
0100
1000
0100
0000
,  // measure 97
0011
0011
0011
0011
,  // measure 98
1001
0100
0010
1000
0001
1000
0001
0100
,  // measure 99
1010
0000
1010
0000
1010
0001
1010
0001
,  // measure 100
1001
0100
0010
0001
1000
0010
0100
0001
,  // measure 101
1100
1100
1100
0000
1100
0001
1100
0001
,  // measure 102
1100
0001
1100
0010
1001
0100
0010
0001
,  // measure 103
1100
0000
0110
1000
0110
1000
0110
1000
,  // measure 104
1001
0010
1001
0000
;
