#TITLE:Great Wilder;
#SUBTITLE:La Pucelle Tactics;
#ARTIST:Tenpei Satou;
#TITLETRANSLIT:;
#SUBTITLETRANSLIT:;
#ARTISTTRANSLIT:;
#CREDIT:;
#BANNER:Great Wilder.png;
#BACKGROUND:Great Wilder-bg.png;
#LYRICSPATH:;
#CDTITLE:!maliceTitle.png;
#MUSIC:Great Wilder.mp3;
#OFFSET:-0.200;
#SAMPLESTART:20.450;
#SAMPLELENGTH:12.000;
#SELECTABLE:YES;
#BPMS:0.000=118.020,8.000=117.620,28.000=118.020,31.000=118.420,40.000=118.020,104.000=117.820,119.000=118.320,136.000=118.020,152.000=118.020;
#STOPS:;
#BGCHANGES:;
// cache tags:
#FIRSTBEAT:0.000;
#LASTBEAT:231.063;
#SONGFILENAME:Songs/VGMP 2/Great Wilder (Malice)/Great Wilder.sm;
#HASMUSIC:1;
#HASBANNER:1;
#MUSICLENGTH:125.095;
// end cache tags

//---------------dance-single - ----------------
#NOTES:
     dance-single:
     :
     Hard:
     11:
     1.000,0.993,1.000,0.831,1.000,684.000,175.000,104.000,0.000,0.000:


0011
0000
0000
0000
0100
0000
0000
0000
0010
0100
1000
0000
0100
0000
0000
0000
0011
0000
0000
0000
0100
0000
0000
0000
0010
0100
1000
0000
0100
0000
0000
0000
,
0011
0000
0000
0000
0100
0000
0000
0000
1001
0100
0010
0000
0100
0000
0000
0000
0011
0000
0000
0000
0001
0000
0000
0000
0001
0000
1000
0000
0100
0000
0010
0000
,
0101
0000
0000
0000
0000
0000
0000
0000
0000
0000
0000
0000
0000
0000
0000
0000
0000
0000
0000
0000
0000
0000
0000
0000
0000
0000
0000
0000
0000
0000
0000
0000
0000
0000
0000
0000
0001
0000
0000
0000
0000
0000
1000
0000
0000
0000
0000
0000
0110
0000
0000
0000
0000
0000
0000
0000
0000
0000
0000
0000
0000
0000
0000
0000
0000
0000
0000
0000
0000
0000
0000
0000
0000
0000
0000
0001
0000
0000
0000
0000
0000
0010
0000
0000
0000
0000
0000
0000
0100
0000
0000
0000
0000
0000
0000
0000
1001
0000
0000
0000
0000
0000
0000
0000
0000
0000
0000
0000
0000
0000
0000
0000
0000
0000
0000
0000
0000
0000
0000
0000
0100
0000
0000
0000
0000
0000
0000
0000
0000
0000
0000
0000
0000
0000
0000
0000
0000
0000
0000
0000
0000
0000
0000
0000
0100
0000
0000
0000
0000
0000
0000
0000
0000
0000
0000
0000
0000
0000
0000
0000
0000
0000
0000
0000
0000
0000
0000
0000
0010
0000
0000
0000
0000
0000
0000
0000
0000
0000
0000
0000
0100
0000
0000
0000
0000
0000
0010
0000
0000
0000
0000
0000
,
0101
0000
0000
0000
0000
0000
0000
0000
0000
0000
0000
0000
0000
0000
0000
0000
0000
0000
0000
0000
0000
0000
0000
0000
0000
0000
0000
0000
0000
0000
0000
0000
0000
0000
0000
0000
0001
0000
0000
0000
0000
0000
1000
0000
0000
0000
0000
0000
0110
0000
0000
0000
0000
0000
0000
0000
0000
0000
0000
0000
0000
0000
0000
0000
0000
0000
0000
0000
0000
0000
0000
0000
0000
0000
0000
0001
0000
0000
0000
0000
0000
0010
0000
0000
0000
0000
0000
0000
0100
0000
0000
0000
0000
0000
0000
0000
1001
0000
0000
0000
0000
0000
0000
0000
0000
0000
0000
0000
0000
0000
0000
0000
0000
0000
0000
0000
0000
0000
0000
0000
0100
0000
0000
0000
0000
0000
0000
0000
0000
0000
0000
0000
0000
0000
0000
0000
0000
0000
0000
0000
0000
0000
0000
0000
0100
0000
0000
0000
0000
0000
0000
0000
0000
0000
0000
0000
0000
0000
0000
0000
0000
0000
0000
0000
0000
0000
0000
0000
0010
0000
0000
0000
0000
0000
0000
0000
0000
0000
0000
0000
0000
0000
0000
0000
0000
0000
0000
0000
0000
0000
0000
0000
,
0101
0010
0100
1000
0110
0100
0010
0100
,
0110
0100
0101
0100
0110
0100
0101
0100
,
0101
0000
0000
0000
0000
0000
0000
0000
0000
0000
0000
0000
0000
0000
0000
0000
0000
0000
0000
0000
0000
0000
0000
0000
0000
0000
0000
0000
0000
0000
0000
0000
0000
0000
0000
0000
0001
0000
0000
0000
0000
0000
1000
0000
0000
0000
0000
0000
0110
0000
0000
0000
0000
0000
0000
0000
0000
0000
0000
0000
0000
0000
0000
0000
0000
0000
0000
0000
0000
0000
0000
0000
0000
0000
0000
0001
0000
0000
0000
0000
0000
0010
0000
0000
0000
0000
0000
0000
0100
0000
0000
0000
0000
0000
0000
0000
1001
0000
0000
0000
0000
0000
0000
0000
0000
0000
0000
0000
0000
0000
0000
0000
0000
0000
0000
0000
0000
0000
0000
0000
0100
0000
0000
0000
0000
0000
0000
0000
0000
0000
0000
0000
0000
0000
0000
0000
0000
0000
0000
0000
0000
0000
0000
0000
0100
0000
0000
0000
0000
0000
0000
0000
0000
0000
0000
0000
0000
0000
0000
0000
0000
0000
0000
0000
0000
0000
0000
0000
0010
0000
0000
0000
0000
0000
0000
0000
0000
0000
0000
0000
0100
0000
0000
0000
0000
0000
0010
0000
0000
0000
0000
0000
,
0101
0000
0000
0000
0000
0000
0000
0000
0000
0000
0000
0000
0000
0000
0000
0000
0000
0000
0000
0000
0000
0000
0000
0000
0000
0000
0000
0000
0000
0000
0000
0000
0000
0000
0000
0000
0001
0000
0000
0000
0000
0000
1000
0000
0000
0000
0000
0000
0110
0000
0000
0000
0000
0000
0000
0000
0000
0000
0000
0000
0000
0000
0000
0000
0000
0000
0000
0000
0000
0000
0000
0000
0000
0000
0000
0001
0000
0000
0000
0000
0000
0010
0000
0000
0000
0000
0000
0000
0100
0000
0000
0000
0000
0000
0000
0000
1001
0000
0000
0000
0000
0000
0000
0000
0000
0000
0000
0000
0000
0000
0000
0000
0000
0000
0000
0000
0000
0000
0000
0000
0110
0000
0000
0000
0000
0000
0000
0000
0000
0000
0000
0000
0000
0000
0000
0000
0000
0000
0000
0000
0000
0000
0000
0000
0101
0000
0000
0000
0000
0000
0000
0000
0000
0000
0000
0000
0000
0000
0000
0000
0000
0000
0000
0000
0000
0000
0000
0000
0010
0000
0000
0000
0000
0000
0000
0000
0000
0000
0000
0000
0000
0000
0000
0000
0000
0000
0000
0000
0000
0000
0000
0000
,
1000
0000
0000
0000
0101
0000
0000
0000
1010
0000
0000
0000
0011
0100
1000
0000
0100
0000
0000
0000
1001
0000
0000
0000
0110
0000
0000
0000
0011
0000
0000
0000
,
1000
0000
0000
0000
0010
0000
0000
0000
1100
0000
0000
0000
0000
0000
0000
0000
1100
0000
0000
0000
0010
0000
0000
0000
1000
0000
0000
0000
0000
0000
0000
0000
0010
0000
0000
0000
0000
0000
0000
0000
1000
0000
0100
0000
0010
0000
0000
0000
1000
0000
0000
0000
0000
0000
0000
0000
0100
0000
0000
0000
0000
0000
0100
1000
,
0011
0000
0010
0000
0010
0000
0010
0000
1000
0100
1000
0001
0010
0100
0010
1000
,
0100
0000
0000
0000
0001
0000
0000
0000
0100
0000
0000
0000
0010
0000
0000
0000
0001
0000
0000
0000
0100
0000
0000
0000
0001
0000
0000
0000
0010
0000
0000
0000
1000
0000
0000
0000
0000
0000
0000
0000
2010
3000
0000
0000
0000
0000
0000
0000
2001
3000
0000
0000
0000
0000
0000
0000
0000
0000
0000
0000
0000
0000
0100
1000
,
0011
0000
0000
0000
0000
0000
0000
0000
0010
0000
0000
0000
0000
0000
0000
0000
0010
0000
0000
0000
0000
0000
0000
0000
0010
0000
0000
0000
0000
0000
0000
0000
1000
0000
0000
0000
0100
0000
0000
0000
1000
0000
0000
0000
0001
0000
0000
0000
0010
0000
0000
0000
0100
0000
0000
0000
0001
0000
0000
0000
1000
0000
0010
0001
,
0100
0000
0000
0000
0010
0000
0000
0000
0001
0000
0000
0000
0010
0000
0000
0000
1000
0000
0000
0000
0000
0000
0000
0000
0011
0000
0000
0000
0000
0000
0000
0000
0101
0000
0000
0000
0000
0000
0000
0000
0012
0003
0000
0000
0000
0000
0000
0000
0012
0003
0000
0000
0000
0000
0000
0000
1100
0000
0000
0000
0000
0000
0100
1000
,
0011
0000
0000
0000
0000
0000
0000
0000
0010
0000
0000
0000
0000
0000
0100
1000
0011
0000
0000
0000
0000
0000
0000
0000
0010
0000
0000
0000
0000
0000
0100
1000
0011
0000
0000
0000
0100
0000
0000
0000
0001
0000
0000
0000
1000
0000
0000
0000
0100
0000
0000
0000
0010
0000
0000
0000
0100
0000
0000
0000
0001
0000
1000
0100
,
0010
0000
0000
0000
1000
0000
0000
0000
0010
0000
0000
0000
0100
0000
0000
0000
1000
0000
0000
0000
0010
0000
0000
0000
1000
0000
0000
0000
0100
0000
0000
0000
0001
0000
0000
0000
0000
0000
0000
0000
0012
0003
0000
0000
0000
0000
0000
0000
0012
0003
0000
0000
0000
0000
0000
0000
0000
0000
0000
0000
0000
0000
0100
1000
,
0011
0000
0000
0000
0000
0000
0000
0000
0010
0000
0000
0000
0000
0000
0100
1000
0011
0000
0000
0000
0000
0000
0000
0000
0010
0000
0000
0000
0000
0000
0100
1000
0011
0000
0000
0000
0100
0000
0000
0000
0001
0000
0000
0000
1000
0000
0000
0000
0100
0000
0000
0000
0010
0000
0000
0000
1000
0000
0000
0000
0001
0000
0100
1000
,
0010
0000
0000
0100
0000
0000
1000
0000
0000
0100
0000
0000
0001
0000
0000
0000
0000
0000
1100
0000
0000
0000
0000
0000
1010
0000
0000
0000
0000
0000
2010
0000
3000
0000
0000
0000
2001
0000
3000
0000
0000
0000
0011
0000
0000
0000
0000
0000
,
0001
0000
0000
0000
0210
0000
0300
0000
0201
0010
1300
0000
0100
0000
0000
0000
1000
0000
0000
0000
0021
0000
0030
0000
0120
0001
1030
0000
0001
0000
0000
0000
,
1100
0100
0110
0001
1100
0101
0110
0100
,
1100
0000
0000
0000
0000
0000
0022
0000
0033
0000
0000
0000
0022
0033
0000
0000
0000
0000
0010
0000
0000
0000
0000
0000
0100
0000
0000
0000
0000
0000
2020
0000
3030
0000
0000
0000
2020
0000
3030
0000
0000
0000
0001
0000
0000
0010
0000
0000
,
1100
0000
0000
0000
0000
0000
0000
0000
0000
0000
0000
0000
0000
0000
0000
0000
0120
0000
0000
0000
0000
0000
0000
0000
0000
0000
0000
0000
0000
0000
0000
0000
0100
0000
0000
0000
0000
0000
0000
0000
0100
0000
0000
0000
0000
0000
0000
0000
0100
0000
0000
0000
0030
0000
0000
0000
0101
0000
0000
0000
0010
0000
0000
1000
,
0101
0000
0000
0000
0000
0000
0000
0000
1000
0000
0000
0000
0100
0000
0000
0000
0010
0000
0000
0000
0000
0000
0000
0000
0001
0000
0000
0000
0010
0000
0000
1000
0101
0000
0000
0000
0000
0000
0000
0000
1000
0000
0000
0000
0100
0000
0000
0000
0010
0000
0000
0000
0000
0000
0000
0000
0001
0000
0000
0000
0000
0000
0000
0000
,
1002
0003
0120
0030
0210
0300
2001
3000
0120
0030
0210
0300
1002
0003
0020
0030
,
0011
0000
0000
0000
0011
0000
0000
0000
0011
1000
0011
0100
0011
0000
0011
0000
,
0101
0000
0000
0000
0000
0000
0000
0000
0110
0000
0000
0000
0000
0000
0000
0000
0101
0000
0000
0000
0000
0000
0000
0000
0011
0000
0000
0000
0000
0000
0000
0000
0101
0000
0000
0000
0010
0000
0000
0000
0100
0000
0000
0000
1000
0000
0000
0000
0001
0000
0000
0000
0010
0000
0000
0000
0100
0000
0000
0000
1000
0000
0000
0010
,
0101
0000
0000
0000
0000
0000
0000
0000
0100
0000
0000
0000
0000
0000
0000
0000
0010
0000
0000
0000
0000
0000
0000
0000
0100
0000
0000
0000
0000
0000
0000
0010
1100
0000
0000
0000
0000
0000
0000
0000
0001
0000
0000
0000
0000
0000
0000
0000
0100
0000
0000
0000
0000
0000
0000
0000
0001
0000
0000
0000
0000
0000
0000
0010
,
1001
0000
0000
0000
0000
0000
0000
0000
1000
0000
0000
0000
0000
0000
0000
0100
1001
0000
0000
0000
0000
0000
0000
0000
0010
0000
0000
0000
0000
0000
0000
0001
0110
0000
0000
0000
0000
0000
0000
0000
0000
0000
0000
0000
0000
0000
0000
0000
1100
0000
0000
0000
0000
0000
0000
0000
0100
0000
0000
0000
0001
0000
0000
0000
,
1010
0000
0000
0200
2300
3200
0320
0032
0203
0300
0000
0000
1002
0003
0010
0100
,
1010
0000
0000
0000
0100
0000
0000
0000
1000
0000
0000
0000
0011
0000
0000
0000
1100
0000
0000
0000
0001
0000
0000
0000
1010
0000
0000
0000
0000
0000
0000
0000
0100
0000
0000
0000
0000
0000
0000
0000
0001
0000
0000
0000
0100
0000
0000
0000
1010
0000
0000
0000
0000
0000
0000
0000
0010
0000
0000
0000
0000
0000
0001
0010
,
0100
0000
0000
0000
0000
0000
0000
0000
0000
0000
0000
0000
0000
0000
0000
0000
0000
0000
0000
0000
0000
0000
0000
0000
0010
0000
0000
0000
0000
0000
0000
0000
0000
0000
0000
0000
0000
0000
0000
0000
0000
0000
0000
0000
0000
0000
0000
0000
1200
0300
0000
0000
0000
0000
0000
0000
0000
0000
0000
0000
0000
0000
0000
0000
0000
0000
0000
0000
0000
0000
0000
0000
0001
0000
0000
0000
0000
0000
0000
0000
0000
0000
0000
0000
0000
0000
0000
0000
0000
0000
0010
0000
0000
0100
0000
0000
1000
0000
0000
0000
0000
0000
0000
0000
0000
0000
0000
0000
0000
0000
0000
0000
0000
0000
0000
0000
0000
0000
0000
0000
0100
0000
0000
0000
0000
0000
0000
0000
0000
0000
0000
0000
0000
0000
0000
0000
0000
0000
0000
0000
0000
0000
0000
0000
0210
0300
0000
0000
0000
0000
0000
0000
0000
0000
0000
0000
0000
0000
0000
0000
0000
0000
0000
0000
0000
0000
0000
0000
0001
0000
0000
0000
0000
0000
0000
0000
0000
0000
0000
0000
0000
0000
0000
0000
0000
0000
0010
0000
0000
0100
0000
0000
,
1000
0000
0000
0000
0000
0000
0000
0000
0000
0000
0000
0000
0000
0000
0000
0000
0000
0000
0000
0000
0000
0000
0000
0000
0001
0000
0000
0000
0000
0000
0000
0000
0000
0000
0000
0000
0000
0000
0000
0000
0000
0000
0000
0000
0000
0000
0000
0000
0210
0300
0000
0000
0000
0000
0000
0000
0000
0000
0000
0000
0000
0000
0000
0000
0000
0000
0000
0000
0000
0000
0000
0000
0100
0000
0000
0000
0000
0000
0000
0000
0000
0000
0000
0000
0000
0000
0000
0000
0000
0000
0000
0000
0000
0000
0000
0000
1200
0300
0000
0000
0000
0000
0000
0000
0000
0000
0000
0000
0100
0000
0000
0000
0000
0000
0000
0000
0000
0000
0000
0000
1000
0000
0000
0000
0000
0000
0000
0000
0000
0000
0000
0000
0001
0000
0000
0000
0000
0000
0000
0000
0000
0000
0000
0000
0210
0300
0000
0000
0000
0000
0000
0000
0000
0000
0000
0000
0100
0000
0000
0000
0000
0000
0000
0000
0000
0000
0000
0000
0010
0000
0000
0000
0000
0000
0000
0000
0000
0000
0000
0000
1000
0000
0000
0000
0000
0000
0000
0000
0000
0010
0000
0000
,
0101
0000
0000
0000
0000
0000
0000
0000
0100
0000
0000
0000
0000
0000
0000
0000
0010
0000
0000
0000
0000
0000
0000
0000
0100
0000
0000
0000
0000
0000
0000
0001
0110
0000
0000
0000
0000
0000
0000
0000
0001
0000
0000
0000
0000
0000
0000
0000
0100
0000
0000
0000
0000
0000
0000
0000
0001
0000
0000
0000
0000
0000
0000
0100
,
0011
0000
0000
0000
0000
0000
0000
0000
0100
0000
0000
0000
0000
0000
0000
0010
0101
0000
0000
0000
0000
0000
0000
0000
0010
0000
0000
0000
0000
0000
0000
1000
0011
0000
0000
0000
0000
0000
0000
0000
0000
0000
0000
0000
0000
0000
0000
0000
0101
0000
0000
0000
0000
0000
0000
0000
0100
0000
0000
0000
0010
0000
0000
0000
,
0101
0000
0000
0000
0000
0000
0000
0000
2000
0000
0000
0000
0000
0000
0000
0000
3200
0000
1000
0000
0010
0000
0000
0000
0320
0000
0000
0000
0000
0000
0000
0030
0012
0000
0000
0000
0000
0000
0000
0000
0003
0000
0000
0000
0000
0000
0000
0000
0101
0000
0000
0000
0000
0000
0000
0000
0100
0000
0000
0000
0001
0000
0000
0000
,
0110
0000
0001
0000
1000
0000
0000
0000
0012
1000
0000
0000
0000
0000
0000
0003
0021
0100
0000
0000
0000
0000
0000
0030
0210
0000
0000
0000
0000
0000
0000
0300
2010
0000
0000
0000
0000
0000
0000
0000
3001
0000
0000
0000
0000
0000
0000
0000
0110
0000
0001
0000
0100
0000
0000
0000
0001
0000
0000
0000
0000
0000
0000
0000
,
0020
0000
0000
0000
0000
0000
0000
1000
0001
0000
0000
0000
0000
0000
0000
1000
0001
0000
0000
0000
0000
0000
0000
0000
0032
0000
0000
0000
0000
0000
0000
0000
0203
0000
0000
0000
0000
0000
0000
1000
0001
0000
0000
0000
0000
0000
0000
1000
0301
0000
0000
0000
0100
0000
0000
0000
1000
0000
0000
0000
0100
0000
0000
0000
,
0011
0110
1010
1100
2001
0000
0000
0000
,
3002
0000
0003
0000
0000
0000
0010
0000
0000
1000
0000
0000
0100
0000
0000
0010
0000
0000
0101
0000
0000
0000
0000
0000
0010
0000
0000
1000
0000
0000
0100
0000
0000
0010
0000
0000
0101
0000
0000
0000
0000
0000
0010
0000
0000
1000
0000
0000
,
0100
0000
0000
0010
0000
0000
0101
0000
0000
0000
0000
0000
0010
0000
0000
1000
0000
0000
0100
0000
0000
0010
0000
0000
0120
0000
0030
0001
0000
0000
1000
0000
0000
0100
0000
0000
0201
0000
0300
0010
0000
0000
0001
0000
0000
0100
0000
0000
,
2010
0000
3000
0000
0000
0000
0100
0000
0000
0010
0000
0000
0001
0000
0000
0100
0000
0000
1010
0000
0000
0000
0000
0000
0100
0000
0000
0010
0000
0000
0001
0000
0000
0100
0000
0000
1010
0000
0000
0000
0000
0000
0100
0000
0000
0010
0000
0000
,
0001
0000
0000
0100
0000
0000
1010
0000
0000
0000
0000
0000
0100
0000
0000
0010
0000
0000
0001
0000
0000
0100
0000
0000
0210
0000
0300
0001
0000
0000
0100
0000
0000
0010
0000
0000
0021
0000
0030
0100
0000
0000
0010
0000
0000
1000
0000
0000
,
0102
0000
0003
0000
0000
0000
0010
0000
0000
0021
0000
0000
0130
0000
0000
0010
0000
0000
0201
0000
0000
0300
0000
0000
0010
0000
0000
0001
0000
0000
0100
0000
0000
0010
0000
0000
0101
0000
0000
0000
0000
0000
0010
0000
0000
0001
0000
0000
,
0100
0000
0000
0010
0000
0000
0101
0000
0000
0000
0000
0000
0010
0000
0000
0001
0000
0000
0100
0000
0000
0010
0000
0000
0102
0000
0003
1000
0000
0000
0010
0000
0000
0100
0000
0000
0120
0000
0030
0001
0000
0000
1000
0000
0000
0100
0000
0000
,
1010
0000
0000
0000
0000
0000
0200
0000
0300
1000
0000
0000
0001
0000
0000
0100
0000
0000
1010
0000
0000
0000
0000
0000
0100
0000
0000
1000
0000
0000
0001
0000
0000
0100
0000
0000
1010
0000
0000
0000
0000
0000
0100
0000
0000
1000
0000
0000
,
0002
0203
0320
0230
2300
3020
2030
3200
,
0302
0000
0100
0010
0203
0010
0001
0000
0320
0100
1000
0001
2030
0000
0010
0001
,
3200
1000
0320
0000
0230
0000
0300
0000
0002
0000
1000
0000
0100
0000
1000
0000
,
0013
0000
0100
0010
0001
1000
0011
0000
1000
0100
0001
0010
0101
0000
0001
1000
,
0010
0000
0100
0000
0011
0000
0000
0000
0100
0000
1000
0000
0010
0000
0100
0000
2001
3000
0200
0300
0020
0030
0200
0300
2001
3000
0200
0300
0020
0030
0200
0300
,
2002
3000
0000
0000
0100
0000
0010
0000
0203
0000
0010
0000
0001
0000
0000
0000
0320
0000
0100
0000
1000
0000
0001
0000
2030
0000
0000
0000
0010
0000
0001
0000
,
3200
0000
1000
0000
0320
0000
0000
0000
0230
1000
0001
0000
0300
0000
0000
0000
0002
0000
0000
0000
1000
0000
0000
0000
0100
0000
0000
0000
1000
0000
0000
0000
,
0013
0000
0000
0000
0000
0000
0000
0000
0000
0000
0000
0000
0000
0000
0000
0000
0000
0000
0000
0000
0000
0000
0000
0000
0000
0000
0000
0000
0000
0000
0000
0000
0000
0000
0001
0000
0000
0000
0000
0000
0000
0000
0000
0100
0000
0000
0000
0000
0000
0000
0010
0000
0000
0000
0000
0000
0000
0000
1000
0000
0000
0000
0000
0000
0000
0000
0001
0000
0000
0000
0000
0000
0000
0000
0100
0000
0000
0000
0000
0000
0000
0000
0010
0000
0000
0000
0000
0000
0000
0000
1000
0000
0000
0000
0000
0000
0001
0000
0000
0000
0000
0000
0000
0000
0000
0000
0000
0000
0000
0000
0000
0000
0000
0000
0000
0000
0000
0000
0000
0000
1100
0000
0000
0000
0000
0000
0000
0000
0000
0000
0000
0000
0000
0000
0000
0000
0000
0000
0000
0000
0000
0000
0000
0000
1010
0000
0000
0000
0000
0000
0000
0000
0000
0000
0000
0000
0000
0000
0000
0000
0000
0000
0000
0000
0000
0000
0000
0000
0110
0000
0000
0000
0000
0000
0000
0000
0000
0000
0000
0000
0000
0000
0000
0000
0000
0000
0000
0000
0000
0000
0000
0000
,
1010
0000
0000
0000
0000
0000
0000
0000
0110
0000
0000
0000
0000
0000
0000
0000
0101
0000
0000
0000
0000
0000
0000
0000
0011
0000
0000
0000
0000
0000
0000
0000
0110
0000
0000
0000
0000
0000
0000
0000
1010
0000
0000
0000
0000
0000
0000
0000
0000
0000
0000
0000
0000
0000
0000
0000
0100
0000
0000
0000
0001
0000
0010
0100
,
1000
0000
0000
0000
0000
0000
0000
0000
0102
0000
0000
0000
0000
0000
0000
0003
0102
0000
0000
0000
0000
0000
0000
0003
0010
0000
0000
0000
0100
0000
0001
0010
0100
0000
0000
0000
0000
0000
0000
0000
0021
0000
0000
0000
0000
0000
0000
0030
0021
0000
0000
0000
0000
0000
0000
0000
0030
0000
0000
0000
0001
1000
0100
0010
,
0001
0000
0000
0000
0010
0000
0000
0000
0100
0000
0000
0000
1000
0000
0000
0000
0001
0000
0000
0000
0100
0000
0000
0000
0010
0000
0000
0000
1000
0000
0000
0000
0001
0000
0000
0000
1000
0000
0000
0000
0011
0000
0000
0000
0100
0000
0000
0000
0011
0000
0000
0000
0000
0000
0000
0000
0000
0000
0000
0000
0000
0000
0100
1000
,
0011
0000
0010
0000
0010
0000
0010
0000
1000
0100
1000
0001
0010
0100
0010
1000
,
0100
0000
0000
0000
0001
0000
0000
0000
0100
0000
0000
0000
0010
0000
0000
0000
0001
0000
0000
0000
0100
0000
0000
0000
0001
0000
0000
0000
0010
0000
0000
0000
1000
0000
0000
0000
0000
0000
0000
0000
2010
3000
0000
0000
0000
0000
0000
0000
2001
3000
0000
0000
0000
0000
0000
0000
0000
0000
0000
0000
0000
0000
0000
0000
;

//---------------dance-single - ----------------
#NOTES:
     dance-single:
     :
     Challenge:
     12:
     1.000,1.000,1.000,0.831,1.000,684.000,201.000,104.000,0.000,77.000:

1011
0000
0000
0000
0100
0000
0000
0000
0010
0100
1000
0000
0100
0000
0000
0000
1011
0000
0000
0000
0100
0000
0000
0000
0010
0100
1000
0000
0100
0000
0000
0000
,
1011
0000
0000
0000
0100
0000
0000
0000
1001
0100
0010
0000
0100
0000
0000
0000
1011
0000
0000
0000
0001
0000
0000
0000
0001
0000
1000
0000
0100
0000
0010
0000
,
1101
0000
0000
0000
0000
0000
0000
0000
0000
0000
0000
0000
0000
0000
0000
0000
0000
0000
0000
0000
0000
0000
0000
0000
0000
0000
0000
0000
0000
0000
0000
0000
0000
0000
0000
0000
0001
0000
0000
0000
0000
0000
1000
0000
0000
0000
0000
0000
0110
0000
0000
0000
0000
0000
0000
0000
0000
0000
0000
0000
0000
0000
0000
0000
0000
0000
0000
0000
0000
0000
0000
0000
0000
0000
0000
0001
0000
0000
0000
0000
0000
0010
0000
0000
0000
0000
0000
0000
0100
0000
0000
0000
0000
0000
0000
0000
1001
0000
0000
0000
0000
0000
0000
0000
0000
0000
0000
0000
0000
0000
0000
0000
0000
0000
0000
0000
0000
0000
0000
0000
0100
0000
0000
0000
0000
0000
0000
0000
0000
0000
0000
0000
0000
0000
0000
0000
0000
0000
0000
0000
0000
0000
0000
0000
0100
0000
0000
0000
0000
0000
0000
0000
0000
0000
0000
0000
0000
0000
0000
0000
0000
0000
0000
0000
0000
0000
0000
0000
0010
0000
0000
0000
0000
0000
0000
0000
0000
0000
0000
0000
0100
0000
0000
0000
0000
0000
0010
0000
0000
0000
0000
0000
,
1101
0000
0000
0000
0000
0000
0000
0000
0000
0000
0000
0000
0000
0000
0000
0000
0000
0000
0000
0000
0000
0000
0000
0000
0000
0000
0000
0000
0000
0000
0000
0000
0000
0000
0000
0000
0001
0000
0000
0000
0000
0000
1000
0000
0000
0000
0000
0000
0110
0000
0000
0000
0000
0000
0000
0000
0000
0000
0000
0000
0000
0000
0000
0000
0000
0000
0000
0000
0000
0000
0000
0000
0000
0000
0000
0001
0000
0000
0000
0000
0000
0010
0000
0000
0000
0000
0000
0000
0100
0000
0000
0000
0000
0000
0000
0000
1001
0000
0000
0000
0000
0000
0000
0000
0000
0000
0000
0000
0000
0000
0000
0000
0000
0000
0000
0000
0000
0000
0000
0000
0100
0000
0000
0000
0000
0000
0000
0000
0000
0000
0000
0000
0000
0000
0000
0000
0000
0000
0000
0000
0000
0000
0000
0000
0100
0000
0000
0000
0000
0000
0000
0000
0000
0000
0000
0000
0000
0000
0000
0000
0000
0000
0000
0000
0000
0000
0000
0000
0010
0000
0000
0000
0000
0000
0000
0000
0000
0000
0000
0000
0000
0000
0000
0000
0000
0000
0000
0000
0000
0000
0000
0000
,
0101
0010
0100
1000
0110
0100
0010
0100
,
0110
0100
0101
0100
0110
0100
0101
0100
,
1101
0000
0000
0000
0000
0000
0000
0000
0000
0000
0000
0000
0000
0000
0000
0000
0000
0000
0000
0000
0000
0000
0000
0000
0000
0000
0000
0000
0000
0000
0000
0000
0000
0000
0000
0000
0001
0000
0000
0000
0000
0000
1000
0000
0000
0000
0000
0000
0110
0000
0000
0000
0000
0000
0000
0000
0000
0000
0000
0000
0000
0000
0000
0000
0000
0000
0000
0000
0000
0000
0000
0000
0000
0000
0000
0001
0000
0000
0000
0000
0000
0010
0000
0000
0000
0000
0000
0000
0100
0000
0000
0000
0000
0000
0000
0000
1001
0000
0000
0000
0000
0000
0000
0000
0000
0000
0000
0000
0000
0000
0000
0000
0000
0000
0000
0000
0000
0000
0000
0000
0100
0000
0000
0000
0000
0000
0000
0000
0000
0000
0000
0000
0000
0000
0000
0000
0000
0000
0000
0000
0000
0000
0000
0000
0100
0000
0000
0000
0000
0000
0000
0000
0000
0000
0000
0000
0000
0000
0000
0000
0000
0000
0000
0000
0000
0000
0000
0000
0010
0000
0000
0000
0000
0000
0000
0000
0000
0000
0000
0000
0100
0000
0000
0000
0000
0000
0010
0000
0000
0000
0000
0000
,
1101
0000
0000
0000
0000
0000
0000
0000
0000
0000
0000
0000
0000
0000
0000
0000
0000
0000
0000
0000
0000
0000
0000
0000
0000
0000
0000
0000
0000
0000
0000
0000
0000
0000
0000
0000
0001
0000
0000
0000
0000
0000
1000
0000
0000
0000
0000
0000
0110
0000
0000
0000
0000
0000
0000
0000
0000
0000
0000
0000
0000
0000
0000
0000
0000
0000
0000
0000
0000
0000
0000
0000
0000
0000
0000
0001
0000
0000
0000
0000
0000
0010
0000
0000
0000
0000
0000
0000
0100
0000
0000
0000
0000
0000
0000
0000
1001
0000
0000
0000
0000
0000
0000
0000
0000
0000
0000
0000
0000
0000
0000
0000
0000
0000
0000
0000
0000
0000
0000
0000
0110
0000
0000
0000
0000
0000
0000
0000
0000
0000
0000
0000
0000
0000
0000
0000
0000
0000
0000
0000
0000
0000
0000
0000
0101
0000
0000
0000
0000
0000
0000
0000
0000
0000
0000
0000
0000
0000
0000
0000
0000
0000
0000
0000
0000
0000
0000
0000
0010
0000
0000
0000
0000
0000
0000
0000
0000
0000
0000
0000
0000
0000
0000
0000
0000
0000
0000
0000
0000
0000
0000
0000
,
1000
0000
0000
0000
0101
0000
0000
0000
1010
0000
0000
0000
0011
0100
1000
0000
0100
0000
0000
0000
1001
0000
0000
0000
0110
0000
0000
0000
0011
0000
0000
0000
,
1000
0000
0000
0000
0010
0000
0000
0000
1100
0000
0000
0000
0000
0000
0000
0000
1100
0000
0000
0000
0010
0000
0000
0000
1000
0000
0000
0000
0000
0000
0000
0000
0010
0000
0000
0000
0000
0000
0000
0000
1000
0000
0100
0000
0010
0000
0000
0000
1000
0000
0000
0000
0000
0000
0000
0000
0100
0000
0000
0000
0000
0000
0100
1000
,
0011
0000
0010
0000
0010
0000
0010
0000
1000
0100
1000
0001
0010
0100
0010
1000
,
0100
0000
0000
0000
0001
0000
0000
0000
0100
0000
0000
0000
0010
0000
0000
0000
0001
0000
0000
0000
0100
0000
0000
0000
0001
0000
0000
0000
0010
0000
0000
0000
1000
0000
0000
0000
0000
0000
0000
0000
2110
3000
0000
0000
0000
0000
0000
0000
2101
3000
0000
0000
0000
0000
0000
0000
0000
0000
0000
0000
0000
0000
0100
1000
,
0011
0000
0000
0000
0000
0000
0000
0000
0010
0000
0000
0000
0000
0000
0000
0000
0010
0000
0000
0000
0000
0000
0000
0000
0010
0000
0000
0000
0000
0000
0000
0000
1000
0000
0000
0000
0100
0000
0000
0000
1000
0000
0000
0000
0001
0000
0000
0000
0010
0000
0000
0000
0100
0000
0000
0000
0001
0000
0000
0000
1000
0000
0010
0001
,
0100
0000
0000
0000
0010
0000
0000
0000
0001
0000
0000
0000
0010
0000
0000
0000
1000
0000
0000
0000
0000
0000
0000
0000
0011
0000
0000
0000
0000
0000
0000
0000
0101
0000
0000
0000
0000
0000
0000
0000
0112
0003
0000
0000
0000
0000
0000
0000
1012
0003
0000
0000
0000
0000
0000
0000
1100
0000
0000
0000
0000
0000
0100
1000
,
0011
0000
0000
0000
0000
0000
0000
0000
0010
0000
0000
0000
0000
0000
0100
1000
0011
0000
0000
0000
0000
0000
0000
0000
0010
0000
0000
0000
0000
0000
0100
1000
0011
0000
0000
0000
0100
0000
0000
0000
0001
0000
0000
0000
1000
0000
0000
0000
0100
0000
0000
0000
0010
0000
0000
0000
0100
0000
0000
0000
0001
0000
1000
0100
,
0010
0000
0000
0000
1000
0000
0000
0000
0010
0000
0000
0000
0100
0000
0000
0000
1000
0000
0000
0000
0010
0000
0000
0000
1000
0000
0000
0000
0100
0000
0000
0000
0001
0000
0000
0000
0000
0000
0000
0000
0112
0003
0000
0000
0000
0000
0000
0000
1012
0003
0000
0000
0000
0000
0000
0000
0000
0000
0000
0000
0000
0000
0100
1000
,
0011
0000
0000
0000
0000
0000
0000
0000
0010
0000
0000
0000
0000
0000
0100
1000
0011
0000
0000
0000
0000
0000
0000
0000
0010
0000
0000
0000
0000
0000
0100
1000
0011
0000
0000
0000
0100
0000
0000
0000
0001
0000
0000
0000
1000
0000
0000
0000
0100
0000
0000
0000
0010
0000
0000
0000
1000
0000
0000
0000
0001
0000
0100
1000
,
0010
0000
0000
0100
0000
0000
1000
0000
0000
0100
0000
0000
0001
0000
0000
0000
0000
0000
1100
0000
0000
0000
0000
0000
1010
0000
0000
0000
0000
0000
2110
0000
3000
0000
0000
0000
2101
0000
3000
0000
0000
0000
0011
0000
0000
0000
0000
0000
,
0001
0000
0000
0000
1210
0000
0300
0000
0201
0010
1300
0000
0100
0000
0000
0000
1000
0000
0000
0000
0121
0000
0030
0000
0120
0001
1030
0000
0001
0000
0000
0000
,
1100
0100
0110
0001
1100
0101
0110
0100
,
1100
0000
0000
0000
0000
0000
0122
0000
0033
0000
0000
0000
1022
0033
0000
0000
0000
0000
0010
0000
0000
0000
0000
0000
0100
0000
0000
0000
0000
0000
2020
0000
3030
0000
0000
0000
2020
0000
3030
0000
0000
0000
0001
0000
0000
0010
0000
0000
,
1100
0000
0000
0000
0000
0000
0000
0000
0000
0000
0000
0000
0000
0000
0000
0000
1120
0000
0000
0000
0000
0000
0000
0000
0000
0000
0000
0000
0000
0000
0000
0000
1100
0000
0000
0000
0000
0000
0000
0000
0100
0000
0000
0000
0000
0000
0000
0000
1100
0000
0000
0000
0030
0000
0000
0000
0101
0000
0000
0000
0010
0000
0000
1000
,
0101
0000
0000
0000
0000
0000
0000
0000
1000
0000
0000
0000
0100
0000
0000
0000
0010
0000
0000
0000
0000
0000
0000
0000
0001
0000
0000
0000
0010
0000
0000
1000
0101
0000
0000
0000
0000
0000
0000
0000
1000
0000
0000
0000
0100
0000
0000
0000
0010
0000
0000
0000
0000
0000
0000
0000
0001
0000
0000
0000
0000
0000
0000
0000
,
1002
0003
0120
0030
0210
0300
2001
3000
0120
0030
0210
0300
1002
0003
0020
0030
,
0111
0000
0000
0000
0111
0000
0000
0000
0111
1000
0011
0100
1011
0000
0111
0000
,
1101
0000
0000
0000
0000
0000
0000
0000
0110
0000
0000
0000
0000
0000
0000
0000
0101
0000
0000
0000
0000
0000
0000
0000
0011
0000
0000
0000
0000
0000
0000
0000
1101
0000
0000
0000
0010
0000
0000
0000
0100
0000
0000
0000
1000
0000
0000
0000
0001
0000
0000
0000
0010
0000
0000
0000
0100
0000
0000
0000
1000
0000
0000
0010
,
0101
0000
0000
0000
0000
0000
0000
0000
0100
0000
0000
0000
0000
0000
0000
0000
0010
0000
0000
0000
0000
0000
0000
0000
0100
0000
0000
0000
0000
0000
0000
0010
1100
0000
0000
0000
0000
0000
0000
0000
0001
0000
0000
0000
0000
0000
0000
0000
0100
0000
0000
0000
0000
0000
0000
0000
0001
0000
0000
0000
0000
0000
0000
0010
,
1001
0000
0000
0000
0000
0000
0000
0000
1000
0000
0000
0000
0000
0000
0000
0100
1001
0000
0000
0000
0000
0000
0000
0000
0010
0000
0000
0000
0000
0000
0000
0001
0110
0000
0000
0000
0000
0000
0000
0000
0000
0000
0000
0000
0000
0000
0000
0000
1100
0000
0000
0000
0000
0000
0000
0000
0100
0000
0000
0000
0001
0000
0000
0000
,
1010
0000
0000
0200
2301
3200
0320
0032
1203
0300
0000
0000
1002
0003
0010
0100
,
1010
0000
0000
0000
0100
0000
0000
0000
1000
0000
0000
0000
0011
0000
0000
0000
1100
0000
0000
0000
0001
0000
0000
0000
1010
0000
0000
0000
0000
0000
0000
0000
0100
0000
0000
0000
0000
0000
0000
0000
0001
0000
0000
0000
0100
0000
0000
0000
1010
0000
0000
0000
0000
0000
0000
0000
0010
0000
0000
0000
0000
0000
0001
0010
,
0100
0000
0000
0000
0000
0000
0000
0000
0000
0000
0000
0000
0000
0000
0000
0000
0000
0000
0000
0000
0000
0000
0000
0000
0010
0000
0000
0000
0000
0000
0000
0000
0000
0000
0000
0000
0000
0000
0000
0000
0000
0000
0000
0000
0000
0000
0000
0000
1200
0300
0000
0000
0000
0000
0000
0000
0000
0000
0000
0000
0000
0000
0000
0000
0000
0000
0000
0000
0000
0000
0000
0000
0001
0000
0000
0000
0000
0000
0000
0000
0000
0000
0000
0000
0000
0000
0000
0000
0000
0000
0010
0000
0000
0100
0000
0000
1000
0000
0000
0000
0000
0000
0000
0000
0000
0000
0000
0000
0000
0000
0000
0000
0000
0000
0000
0000
0000
0000
0000
0000
0100
0000
0000
0000
0000
0000
0000
0000
0000
0000
0000
0000
0000
0000
0000
0000
0000
0000
0000
0000
0000
0000
0000
0000
0210
0300
0000
0000
0000
0000
0000
0000
0000
0000
0000
0000
0000
0000
0000
0000
0000
0000
0000
0000
0000
0000
0000
0000
0001
0000
0000
0000
0000
0000
0000
0000
0000
0000
0000
0000
0000
0000
0000
0000
0000
0000
0010
0000
0000
0100
0000
0000
,
1000
0000
0000
0000
0000
0000
0000
0000
0000
0000
0000
0000
0000
0000
0000
0000
0000
0000
0000
0000
0000
0000
0000
0000
0001
0000
0000
0000
0000
0000
0000
0000
0000
0000
0000
0000
0000
0000
0000
0000
0000
0000
0000
0000
0000
0000
0000
0000
0210
0300
0000
0000
0000
0000
0000
0000
0000
0000
0000
0000
0000
0000
0000
0000
0000
0000
0000
0000
0000
0000
0000
0000
0100
0000
0000
0000
0000
0000
0000
0000
0000
0000
0000
0000
0000
0000
0000
0000
0000
0000
0000
0000
0000
0000
0000
0000
1200
0300
0000
0000
0000
0000
0000
0000
0000
0000
0000
0000
0100
0000
0000
0000
0000
0000
0000
0000
0000
0000
0000
0000
1000
0000
0000
0000
0000
0000
0000
0000
0000
0000
0000
0000
0001
0000
0000
0000
0000
0000
0000
0000
0000
0000
0000
0000
1210
0300
0000
0000
0000
0000
0000
0000
0000
0000
0000
0000
0100
0000
0000
0000
0000
0000
0000
0000
0000
0000
0000
0000
0010
0000
0000
0000
0000
0000
0000
0000
0000
0000
0000
0000
1000
0000
0000
0000
0000
0000
0000
0000
0000
0010
0000
0000
,
1101
0000
0000
0000
0000
0000
0000
0000
0100
0000
0000
0000
0000
0000
0000
0000
0010
0000
0000
0000
0000
0000
0000
0000
0100
0000
0000
0000
0000
0000
0000
0001
1110
0000
0000
0000
0000
0000
0000
0000
0001
0000
0000
0000
0000
0000
0000
0000
0100
0000
0000
0000
0000
0000
0000
0000
0001
0000
0000
0000
0000
0000
0000
0100
,
1011
0000
0000
0000
0000
0000
0000
0000
0100
0000
0000
0000
0000
0000
0000
0010
1101
0000
0000
0000
0000
0000
0000
0000
0010
0000
0000
0000
0000
0000
0000
1000
0111
0000
0000
0000
0000
0000
0000
0000
0000
0000
0000
0000
0000
0000
0000
0000
0101
0000
0000
0000
0000
0000
0000
0000
0100
0000
0000
0000
0010
0000
0000
0000
,
0101
0000
0000
0000
0000
0000
0000
0000
2000
0000
0000
0000
0000
0000
0000
0000
3211
0000
1000
0000
0010
0000
0000
0000
1320
0000
0000
0000
0000
0000
0000
0030
0112
0000
0000
0000
0000
0000
0000
0000
0003
0000
0000
0000
0000
0000
0000
0000
0101
0000
0000
0000
0000
0000
0000
0000
0100
0000
0000
0000
0001
0000
0000
0000
,
1110
0000
0001
0000
1000
0000
0000
0000
0012
1000
0000
0000
0000
0000
0000
0003
1021
0100
0000
0000
0000
0000
0000
0030
0210
0000
0000
0000
0000
0000
0000
0300
2110
0000
0000
0000
0000
0000
0000
0000
3001
0000
0000
0000
0000
0000
0000
0000
1110
0000
0001
0000
0100
0000
0000
0000
0001
0000
0000
0000
0000
0000
0000
0000
,
0020
0000
0000
0000
0000
0000
0000
1000
0101
0000
0000
0000
0000
0000
0000
1000
0101
0000
0000
0000
0000
0000
0000
0000
0032
0000
0000
0000
0000
0000
0000
0000
0203
0000
0000
0000
0000
0000
0000
1000
0011
0000
0000
0000
0000
0000
0000
1000
0311
0000
0000
0000
0100
0000
0000
0000
1000
0000
0000
0000
0100
0000
0000
0000
,
1011
0110
1010
1100
2001
0000
0000
0000
,
3102
0000
0003
0000
0000
0000
0010
0000
0000
1000
0000
0000
0100
0000
0000
0010
0000
0000
0101
0000
0000
0000
0000
0000
0010
0000
0000
1000
0000
0000
0100
0000
0000
0010
0000
0000
0101
0000
0000
0000
0000
0000
0010
0000
0000
1000
0000
0000
,
0100
0000
0000
0010
0000
0000
0101
0000
0000
0000
0000
0000
0010
0000
0000
1000
0000
0000
0100
0000
0000
0010
0000
0000
0120
0000
0030
0001
0000
0000
1000
0000
0000
0100
0000
0000
1201
0000
0300
0010
0000
0000
0001
0000
0000
0100
0000
0000
,
2010
0000
3000
0000
0000
0000
0100
0000
0000
0010
0000
0000
0001
0000
0000
0100
0000
0000
1010
0000
0000
0000
0000
0000
0100
0000
0000
0010
0000
0000
0001
0000
0000
0100
0000
0000
1010
0000
0000
0000
0000
0000
0100
0000
0000
0010
0000
0000
,
0001
0000
0000
0100
0000
0000
1010
0000
0000
0000
0000
0000
0100
0000
0000
0010
0000
0000
0001
0000
0000
0100
0000
0000
0210
0000
0300
0001
0000
0000
0100
0000
0000
0010
0000
0000
1021
0000
0030
0100
0000
0000
0010
0000
0000
1000
0000
0000
,
0102
0000
0003
0000
0000
0000
0010
0000
0000
0021
0000
0000
0130
0000
0000
0010
0000
0000
0201
0000
0000
0300
0000
0000
0010
0000
0000
0001
0000
0000
0100
0000
0000
0010
0000
0000
0101
0000
0000
0000
0000
0000
0010
0000
0000
0001
0000
0000
,
0100
0000
0000
0010
0000
0000
0101
0000
0000
0000
0000
0000
0010
0000
0000
0001
0000
0000
0100
0000
0000
0010
0000
0000
0102
0000
0003
1000
0000
0000
0010
0000
0000
0100
0000
0000
0120
0000
0030
0001
0000
0000
1000
0000
0000
0100
0000
0000
,
1010
0000
0000
0000
0000
0000
0200
0000
0300
1000
0000
0000
0001
0000
0000
0100
0000
0000
1010
0000
0000
0000
0000
0000
0100
0000
0000
1000
0000
0000
0001
0000
0000
0100
0000
0000
1010
0000
0000
0000
0000
0000
0100
0000
0000
1000
0000
0000
,
0002
0203
0320
0230
2300
3020
2030
3200
,
1312
0000
0100
0010
1203
0010
1001
0000
0321
0100
1000
0001
2131
0000
0010
0001
,
3210
1000
1321
0000
0230
0000
0300
0000
0002
0000
1000
0000
0100
0000
1000
0000
,
1113
0000
0100
0010
0001
1000
0111
0000
1000
0100
0001
0010
1101
0000
0001
1000
,
0010
0000
0100
0000
1011
0000
0000
0000
0100
0000
1000
0000
0010
0000
0100
0000
2001
3000
0200
0300
0020
0030
0200
0300
2001
3000
0200
0300
0020
0030
0200
0300
,
2002
3000
0000
0000
0100
0000
0010
0000
1203
0000
0010
0000
1001
0000
0000
0000
0321
0000
0100
0000
1000
0000
0001
0000
2131
0000
0000
0000
0010
0000
0001
0000
,
3210
0000
1000
0000
1321
0000
0000
0000
0230
1000
0001
0000
0300
0000
0000
0000
0002
0000
0000
0000
1000
0000
0000
0000
0100
0000
0000
0000
1000
0000
0000
0000
,
0113
0000
0000
0000
0000
0000
0000
0000
0000
0000
0000
0000
0000
0000
0000
0000
0000
0000
0000
0000
0000
0000
0000
0000
0000
0000
0000
0000
0000
0000
0000
0000
0000
0000
0001
0000
0000
0000
0000
0000
0000
0000
0000
0100
0000
0000
0000
0000
0000
0000
0010
0000
0000
0000
0000
0000
0000
0000
1000
0000
0000
0000
0000
0000
0000
0000
0001
0000
0000
0000
0000
0000
0000
0000
0100
0000
0000
0000
0000
0000
0000
0000
0010
0000
0000
0000
0000
0000
0000
0000
1000
0000
0000
0000
0000
0000
0001
0000
0000
0000
0000
0000
0000
0000
0000
0000
0000
0000
0000
0000
0000
0000
0000
0000
0000
0000
0000
0000
0000
0000
1100
0000
0000
0000
0000
0000
0000
0000
0000
0000
0000
0000
0000
0000
0000
0000
0000
0000
0000
0000
0000
0000
0000
0000
1010
0000
0000
0000
0000
0000
0000
0000
0000
0000
0000
0000
0000
0000
0000
0000
0000
0000
0000
0000
0000
0000
0000
0000
0110
0000
0000
0000
0000
0000
0000
0000
0000
0000
0000
0000
0000
0000
0000
0000
0000
0000
0000
0000
0000
0000
0000
0000
,
1010
0000
0000
0000
0000
0000
0000
0000
0110
0000
0000
0000
0000
0000
0000
0000
0101
0000
0000
0000
0000
0000
0000
0000
0011
0000
0000
0000
0000
0000
0000
0000
0110
0000
0000
0000
0000
0000
0000
0000
1010
0000
0000
0000
0000
0000
0000
0000
0000
0000
0000
0000
0000
0000
0000
0000
0100
0000
0000
0000
0001
0000
0010
0100
,
1000
0000
0000
0000
0000
0000
0000
0000
1102
0000
0000
0000
0000
0000
0000
0003
1102
0000
0000
0000
0000
0000
0000
0003
0010
0000
0000
0000
0100
0000
0001
0010
0100
0000
0000
0000
0000
0000
0000
0000
1021
0000
0000
0000
0000
0000
0000
0030
1021
0000
0000
0000
0000
0000
0000
0000
0030
0000
0000
0000
0001
1000
0100
0010
,
0001
0000
0000
0000
0010
0000
0000
0000
0100
0000
0000
0000
1000
0000
0000
0000
0001
0000
0000
0000
0100
0000
0000
0000
0010
0000
0000
0000
1000
0000
0000
0000
0001
0000
0000
0000
1000
0000
0000
0000
0011
0000
0000
0000
0100
0000
0000
0000
0011
0000
0000
0000
0000
0000
0000
0000
0000
0000
0000
0000
0000
0000
0100
1000
,
0011
0000
0010
0000
0010
0000
0010
0000
1000
0100
1000
0001
0010
0100
0010
1000
,
0100
0000
0000
0000
0001
0000
0000
0000
0100
0000
0000
0000
0010
0000
0000
0000
0001
0000
0000
0000
0100
0000
0000
0000
0001
0000
0000
0000
0010
0000
0000
0000
1000
0000
0000
0000
0000
0000
0000
0000
2110
3000
0000
0000
0000
0000
0000
0000
2101
3000
0000
0000
0000
0000
0000
0000
0000
0000
0000
0000
0000
0000
0000
0000
;
