#TITLE:Please II;
#SUBTITLE:;
#ARTIST:Renard vs Kitsune?;
#TITLETRANSLIT:;
#SUBTITLETRANSLIT:;
#ARTISTTRANSLIT:;
#CREDIT:;
#BANNER:../fallback-bn.png;
#BACKGROUND:../fallback-bg.png;
#LYRICSPATH:;
#CDTITLE:;
#MUSIC:please.ogg;
#OFFSET:0.009;
#SAMPLESTART:25.073;
#SAMPLELENGTH:12.000;
#SELECTABLE:YES;
#BPMS:0.000=180.000,64.000=360.000,257.000=200.000,321.000=400.000;
#STOPS:64.000=3.833
,498.000=0.225
,499.500=0.225
;
#BGCHANGES:;
// cache tags:
#FIRSTBEAT:32.000;
#LASTBEAT:509.000;
#SONGFILENAME:Songs/SSSC PACK/[Aoreo] - Please II/please.sm;
#HASMUSIC:1;
#HASBANNER:1;
#MUSICLENGTH:119.722;
// end cache tags

//---------------dance-single - Renard----------------
#NOTES:
     dance-single:
     Renard:
     Challenge:
     14:
     0.928,1.000,0.727,0.184,0.117,652.000,87.000,22.000,0.000,13.000:
0000
0000
0000
0000
,
0000
0000
0000
0000
,
0000
0000
0000
0000
,
0000
0000
0000
0000
,
0000
0000
0000
0000
,
0000
0000
0000
0000
,
0000
0000
0000
0000
,
0000
0000
0000
0000
,
0001
0100
0000
0222
0333
0001
1000
0000
,
1100
0000
1001
0000
2022
3033
0000
0000
,
0001
0100
0000
0222
0333
1000
0010
0000
,
0110
0000
1100
0000
0204
0000
0000
0303
,
1000
0010
0000
2220
3330
0100
0001
0000
,
0101
0000
1010
0000
2220
3330
0000
0000
,
0100
0010
0000
0111
0000
0001
0100
0000
,
0101
1010
0220
0000
,
0000
0330
0000
0000
0000
0000
0000
0000
0000
0000
0000
0000
0000
0000
0000
0000
0000
0000
0000
0000
0000
0000
0000
0000
0000
0000
0000
0000
0000
0000
0000
0000
0000
0000
0000
0000
0000
0000
0000
0000
0000
0000
0000
0000
0000
0000
0000
0000
0010
0000
0000
0000
0000
0000
0000
0000
0000
0000
0000
0000
0000
0000
0000
0000
0000
0000
0000
0000
0000
0000
0000
0000
0000
0000
0000
0000
0000
0000
0000
0000
0000
0000
0000
0000
0000
0000
0000
0000
0000
0000
0000
0000
0000
0000
0000
0000
1000
0000
0000
0000
0000
0000
0000
0000
0000
0000
0000
0000
0000
0000
0000
0000
0000
0000
0000
0000
0000
0000
0000
0000
0000
0000
0000
0000
0000
0000
0000
0000
0000
0000
0000
0000
0000
0000
0000
0000
0000
0000
0000
0000
0000
0000
0000
0000
0001
0000
0000
0000
0000
0000
0000
0000
0000
0000
0000
0000
0000
0000
0000
0000
0000
0000
0000
0000
0000
0000
0000
0000
0000
0000
0000
0000
0000
0000
0000
0000
0000
0000
0000
0000
0000
0000
0000
0000
0000
0000
0000
0000
0000
0000
0000
0000
,
0100
0000
0001
0000
0100
0000
0010
1000
,
0010
0000
1000
0000
0001
0100
0010
0000
,
0010
0100
0001
1000
0100
0000
1000
0010
,
0100
0000
0001
0000
0010
0001
0100
0000
,
0010
1000
0100
1000
,
0010
0100
0001
1000
0100
1000
0010
0000
,
0100
0000
0001
0000
0100
0010
1000
0000
,
0100
1100
1000
0010
,
1000
0000
0001
0000
0100
0000
0001
1000
,
0100
0000
1000
0000
0001
0010
0100
0000
,
0010
0000
0001
0100
0010
0000
1000
0100
,
0010
0000
0100
0000
1000
0001
1000
0000
,
0010
0100
0001
1000
,
0010
0000
1000
0100
0010
0100
1000
0000
,
0001
0000
1000
0000
0010
0100
0010
0000
,
0100
0101
0001
0100
,
0001
0000
1000
0001
1000
0000
0001
0100
,
0010
0000
1000
0000
0001
0100
0010
0000
,
1000
0010
0100
0010
1000
0000
0001
0100
,
0001
0000
1000
0000
0100
1000
0010
0000
,
1000
0100
0010
0100
,
1000
0100
0010
0001
0010
0100
1000
0000
,
0001
0000
0100
0000
0001
1000
0010
0000
,
0100
0110
0010
1000
,
0001
0000
0100
0000
0001
0000
1000
0010
,
0100
0000
0001
0000
1000
0010
1000
0000
,
0001
0100
0001
0100
0010
0000
1000
0010
,
0100
0000
0001
0100
0010
1000
0001
0000
,
0100
0010
1000
0100
,
1000
0010
0100
0001
0010
0001
1000
0010
,
0200
0000
0000
0000
,
0300
0000
0010
1000
0010
0100
0001
1000
,
0010
0100
0010
1000
0001
0100
0010
1000
,
0010
0100
0001
0010
0001
1000
0001
0100
,
0001
0010
0001
1000
0001
0100
0001
0010
,
0001
1000
0010
1000
0100
1000
0001
1000
,
0010
1000
0100
1000
0001
1000
0010
1000
,
0001
0100
0010
0100
0001
1000
0010
1000
,
0001
0010
0001
1000
0010
0100
0010
1000
,
0010
0110
1010
0101
,
0110
1010
0000
0101
,
0110
0000
1010
0110
,
1001
0000
0101
0000
0000
0000
0001
0010
,
0100
1000
0001
0000
0110
0000
1010
0000
,
0101
0110
0000
0101
,
0110
0000
1001
0101
,
1100
0000
1010
0000
0000
0000
0001
1000
,
0010
0100
0001
0010
0000
0011
0001
0000
,
1000
0010
0000
0100
0010
0000
1110
0000
,
0000
0000
0010
0001
0000
1101
1000
0000
,
0010
0100
0000
0010
0100
0000
0404
0000
,
0303
0000
1000
0100
0000
1110
0010
0000
,
0100
0010
0000
0100
0010
0000
0111
0000
,
0000
0000
1000
0010
0000
1110
0010
0000
,
0100
0001
0000
0100
0001
0000
0404
0000
,
0303
0000
0000
0000
0001
0100
0010
0100
0001
1000
0100
1000
0010
1000
0010
0100
,
0001
0100
0001
0000
0100
0000
0001
0000
1000
0000
0000
0000
0111
0000
0000
0000
,
0000
0000
0000
0000
1000
0010
1000
0001
0100
0010
0100
0001
1000
0010
1000
0100
,
1000
0001
0100
0000
0001
0000
1000
0000
0010
0000
0000
0000
0440
0000
0000
0000
,
0330
0000
0000
0000
0001
1000
0010
0100
0001
1000
0010
0100
0010
1000
0001
0010
,
0001
0100
0010
0000
1000
0000
0010
0000
0100
0000
0000
0000
0111
0000
0000
0000
,
0000
0000
0000
0000
1000
0010
0100
0001
0010
0001
1000
0010
0100
0010
1000
0100
,
1000
0100
1000
0000
0010
0000
1000
0000
0001
0000
0000
0000
0110
0000
0110
0000
,
0110
0000
0001
1000
0010
0100
0001
1000
,
0100
1000
0010
0100
0001
0100
0001
0010
,
0001
1000
0010
1000
0100
1000
0001
0010
,
0001
0100
0010
1000
0010
0100
0001
1000
,
0100
1000
0100
1000
0100
0010
0100
0010
,
0001
1000
0010
0100
0001
0010
0001
0100
,
0010
1000
0100
1000
0001
0010
0100
1000
,
0100
0010
0001
0010
0100
1000
0100
1000
,
0001
0010
0001
1000
0010
1000
0010
0100
,
0001
1000
0010
1000
0001
0100
0010
1000
,
0100
0010
0001
0100
0010
1000
0001
0010
,
0001
1000
0010
0100
0010
1000
0001
1000
,
0100
0010
0001
1000
0010
0100
0001
0100
,
0010
1000
0010
0100
0001
1000
0100
1000
,
0001
1000
0200
0000
0000
0000
0000
0000
,
0000
0000
0000
0000
,
0000
0300
1100
0000
0000
0000
0101
0000
,
1001
0000
0110
1010
,
0110
0000
0001
1000
,
0001
0000
0100
0001
1000
0010
0100
0001
,
1000
0010
0100
0000
0000
0000
0101
0000
,
0110
0000
1010
0110
,
0101
0000
0001
0100
,
0001
0000
1000
0010
0100
0001
0010
0001
,
1000
0010
1000
0000
0000
0000
1010
0000
,
0110
0000
1010
0110
,
0101
0000
1000
0001
,
1000
0000
0010
1000
0001
0100
0010
1000
,
0001
0100
0001
0000
0000
0000
0110
0000
,
1010
0000
0101
0011
,
0110
0000
0001
0100
,
0001
0000
1000
0100
0010
0001
0010
0100
,
1000
1001
0001
1000
,
0010
1010
1000
0001
,
1001
0100
0110
0010
,
1000
0000
0001
1000
0010
1000
0001
0100
,
0010
1001
0101
0100
,
0001
1100
0100
1000
,
0110
0010
0110
0100
,
1000
0001
0010
0001
0100
0010
0100
0001
,
1000
1010
0010
0100
,
0001
0101
0100
0010
,
1010
1000
1001
0001
,
0100
0000
0001
1000
0010
0100
0001
1000
,
0010
0000
1000
0100
0010
0001
0100
0010
,
1000
0001
0200
0000
0000
0000
0000
0000
,
0000
0000
0300
0000
0010
1000
0001
0100
,
0020
0030
0000
0000
;
