#TITLE:50 Ways To Say Goodbye;
#SUBTITLE:Sexuality Violation;
#ARTIST:Train;
#TITLETRANSLIT:;
#SUBTITLETRANSLIT:;
#ARTISTTRANSLIT:;
#CREDIT:;
#BANNER:50 Ways to Say Goodbye-bn.png;
#BACKGROUND:50 Ways to Say Goodbye-bg.png;
#LYRICSPATH:;
#CDTITLE:GazeboCD.png;
#MUSIC:50 Ways To Say Goodbye.ogg;
#OFFSET:-0.539;
#SAMPLESTART:44.595;
#SAMPLELENGTH:29.900;
#SELECTABLE:YES;
#BPMS:0.000=140.000;
#STOPS:;
#BGCHANGES:;
// cache tags:
#FIRSTBEAT:0.000;
#LASTBEAT:568.000;
#SONGFILENAME:Songs/Sexuality Violation 2/50 Ways To Say Goodbye - [Gazebo]/50 Ways To Say Goodbye.sm;
#HASMUSIC:1;
#HASBANNER:1;
#MUSICLENGTH:245.931;
// end cache tags

//---------------dance-single - Gazebo----------------
#NOTES:
     dance-single:
     Gazebo:
     Challenge:
     18:
     1.000,1.000,0.057,0.187,1.000,2346.000,14.000,46.000,0.000,0.000:

0002
0000
0000
0203
,
0320
0000
0000
0000
0000
0000
0000
0000
0030
0000
0010
0100
0001
1000
0001
0010
,
0200
0000
0000
0320
,
0032
0000
0000
0000
0000
0000
0000
0000
0000
0000
0000
0000
0000
0000
0000
0000
0000
0000
0000
0000
0000
0000
0000
0000
0003
0000
0000
0000
0000
0000
0001
0000
0000
1000
0000
0000
0010
0000
0000
0100
0000
0000
0010
0000
1000
0000
0001
0000
,
0020
0000
0000
0230
,
2300
0000
3000
0020
,
0230
0000
0000
0302
,
2003
3200
0320
0032
,
1003
0000
0000
0001
0010
0001
0010
0000
0000
0001
0000
0000
0100
0000
0000
0001
0000
0000
1000
0000
0000
0010
0000
0000
,
1000
0000
0000
0001
0100
0001
0100
0000
0000
0010
0000
0000
0100
0000
0000
0001
0000
0000
1000
0000
0000
0001
0000
0000
,
1000
0000
0000
0100
0010
0100
0010
0000
0000
0001
0000
0000
0100
0000
0000
0001
0000
0000
1000
0000
0000
0010
0000
0000
,
1000
0000
0000
0001
1000
0001
1000
0000
0000
0100
0000
0000
0010
0000
0000
0001
0000
0000
1000
0000
0000
0001
0000
0000
,
1000
0000
0000
0010
1000
0010
1000
0000
0000
0001
0000
0000
0100
0000
0000
0001
0000
0000
1000
0000
0000
0100
0000
0000
,
0010
0000
0000
0001
1000
0001
1000
0000
0000
0001
0000
0000
1000
0000
0000
0010
0000
0000
0100
0000
0000
0001
0000
0000
,
1000
0000
0000
0001
0010
0001
0010
0000
0000
0001
0000
0000
0000
0000
0000
0001
0000
0000
0000
0000
0000
0001
0000
0000
,
1000
0000
0000
0000
0000
0000
0010
0000
0100
0000
0010
0000
0100
0000
0000
0000
0000
0000
0001
0000
0000
0100
0000
0000
0001
0000
0000
0000
0000
0000
1000
0000
0000
0000
0000
0000
0100
0000
0000
0000
0000
0000
0010
0000
0000
0000
0000
0000
,
0001
0000
0000
1000
0010
1000
0010
0000
0000
1000
0000
0000
0100
0000
0000
1000
0000
0000
0001
0000
0000
0010
0000
0000
,
0001
0000
0000
1000
0100
1000
0100
0000
0000
0010
0000
0000
0100
0000
0000
1000
0000
0000
0001
0000
0000
1000
0000
0000
,
0001
0000
0000
0100
0010
0100
0010
0000
0000
1000
0000
0000
0100
0000
0000
1000
0000
0000
0001
0000
0000
0010
0000
0000
,
0001
0000
0000
1000
0001
1000
0001
0000
0000
0100
0000
0000
0010
0000
0000
1000
0000
0000
0001
0000
0000
1000
0000
0000
,
0001
0000
0000
0010
0001
0010
0001
0000
0000
1000
0000
0000
0100
0000
0000
1000
0000
0000
0001
0000
0000
0100
0000
0000
,
0010
0000
0000
1000
0001
1000
0001
0000
0000
1000
0000
0000
0001
0000
0000
0010
0000
0000
0100
0000
0000
1000
0000
0000
,
0001
0000
0000
1000
0010
1000
0010
0000
0000
1000
0000
0000
0000
0000
0000
1000
0000
0000
0000
0000
0000
1000
0000
0000
,
0001
0000
0000
0010
0100
0010
0100
0000
0000
0010
0000
0000
0000
0000
0000
0010
0000
0000
0000
0000
0000
0010
0000
0000
,
0000
0000
0000
0000
,
0000
0000
0000
0000
0001
0001
2001
0000
,
3001
0100
0010
1000
0010
1000
0001
0010
0100
0010
0001
1000
0001
1000
0100
1000
0001
1000
0010
0100
0001
1000
0001
0100
,
0001
0010
0100
1000
0100
1000
0001
0100
0010
0100
0001
1000
0001
1000
0010
1000
0001
1000
0100
0010
0001
1000
0100
1000
,
0001
1000
0001
0100
0001
1000
0010
1000
0001
0010
0100
1000
0001
0100
0001
1000
0001
1000
0010
1000
0001
0010
0100
1000
,
0001
0010
0001
1000
0100
1000
0001
0100
0001
1000
0010
1000
0100
0010
0001
0010
0100
1000
0001
0100
0001
1000
0001
0100
,
0001
0010
0100
1000
0001
1000
0001
0100
0001
0010
0100
1000
0001
1000
0001
0100
0001
1000
0010
1000
0001
1000
0100
0010
,
0100
1000
0001
0100
0001
1000
0001
1000
0010
1000
0001
0100
0001
1000
0001
0010
0100
1000
0001
0100
0001
1000
0010
1000
,
0001
0100
0001
1000
0001
1000
0100
1000
0001
0010
0001
1000
0100
0010
0001
1000
0010
1000
0001
0100
0001
0010
0001
1000
,
0100
0010
0001
1000
0010
1000
0001
1000
0001
0100
0001
1000
0001
0010
0100
1000
0001
0100
0001
1000
0010
1000
0100
1000
,
0001
0010
0100
1000
0100
1000
0001
0100
0010
0100
0001
1000
0001
1000
0010
1000
0001
1000
0100
0010
0001
1000
0001
0010
,
0001
0100
0010
1000
0010
1000
0001
0010
0100
0010
0001
1000
0001
1000
0100
1000
0001
1000
0010
0100
0001
1000
0010
1000
,
0001
1000
0001
0010
0001
1000
0100
1000
0001
0100
0010
1000
0001
0010
0001
1000
0001
1000
0100
1000
0001
0100
0010
1000
,
0001
0100
0001
1000
0010
1000
0001
0010
0001
1000
0100
1000
0010
0100
0001
0100
0010
1000
0001
0010
0001
1000
0001
0010
,
0001
0100
0010
1000
0001
1000
0001
0010
0001
0100
0010
1000
0001
1000
0001
0010
0001
1000
0100
1000
0001
1000
0010
0100
,
0010
1000
0001
0010
0001
1000
0001
1000
0100
1000
0001
0010
0001
1000
0001
0100
0010
1000
0001
0010
0001
1000
0100
1000
,
0001
0010
0001
1000
0001
1000
0010
1000
0001
0100
0001
1000
0001
1000
0010
1000
0001
0010
0100
0010
0001
1000
0100
1000
,
0001
0100
0001
0100
0010
1000
0001
0010
0001
1000
0100
1000
0001
0010
0100
0010
0001
1000
0010
1000
0001
0100
0001
1000
,
0002
0000
0000
0023
,
0230
0000
0000
0000
0000
0000
0000
0000
0300
0000
0100
0010
0001
1000
0001
0100
,
0020
0000
0000
0230
,
0302
0000
0000
0000
0000
0000
0000
0000
0000
0000
0000
0000
0000
0000
0000
0000
0000
0000
0000
0000
0000
0000
0000
0000
0003
0000
0000
0000
0000
0000
0001
0000
0000
1000
0000
0000
0100
0000
0000
0010
0000
0000
0100
0000
1000
0000
0001
0000
,
0200
0000
0000
0320
,
2030
0000
3000
0200
,
0320
0000
0000
0032
,
2003
3020
0230
0302
,
1003
0000
0000
0001
0100
0001
0100
0000
0000
0001
0000
0000
0010
0000
0000
0001
0000
0000
1000
0000
0000
0100
0000
0000
,
1000
0000
0000
0001
0010
0001
0010
0000
0000
0100
0000
0000
0010
0000
0000
0001
0000
0000
1000
0000
0000
0001
0000
0000
,
1000
0000
0000
0010
0100
0010
0100
0000
0000
0001
0000
0000
0010
0000
0000
0001
0000
0000
1000
0000
0000
0100
0000
0000
,
1000
0000
0000
0001
1000
0001
1000
0000
0000
0010
0000
0000
0100
0000
0000
0001
0000
0000
1000
0000
0000
0001
0000
0000
,
1000
0000
0000
0100
1000
0100
1000
0000
0000
0001
0000
0000
0010
0000
0000
0001
0000
0000
1000
0000
0000
0010
0000
0000
,
0100
0000
0000
0001
1000
0001
1000
0000
0000
0001
0000
0000
1000
0000
0000
0100
0000
0000
0010
0000
0000
0001
0000
0000
,
1000
0000
0000
0000
0000
0000
0001
0000
0100
0000
0001
0000
0100
0000
0000
0000
0000
0000
0001
0000
0000
0000
0000
0000
0000
0000
0000
0000
0000
0000
0001
0000
0000
0000
0000
0000
2000
0000
0000
0000
0000
0000
0000
0000
0000
3000
0000
0000
,
2000
3200
0320
0032
,
1003
0000
0000
0001
0100
0001
0100
0000
0000
0001
0000
0000
0010
0000
0000
0001
0000
0000
1000
0000
0000
0100
0000
0000
,
1000
0000
0000
0001
0010
0001
0010
0000
0000
0100
0000
0000
0010
0000
0000
0001
0000
0000
1000
0000
0000
0001
0000
0000
,
1000
0000
0000
0010
0100
0010
0100
0000
0000
0001
0000
0000
0010
0000
0000
0001
0000
0000
1000
0000
0000
0100
0000
0000
,
1000
0000
0000
0001
1000
0001
1000
0000
0000
0010
0000
0000
0100
0000
0000
0001
0000
0000
1000
0000
0000
0001
0000
0000
,
1000
0000
0000
0100
1000
0100
1000
0000
0000
0001
0000
0000
0010
0000
0000
0001
0000
0000
1000
0000
0000
0010
0000
0000
,
0100
0000
0000
0001
1000
0001
1000
0000
0000
0001
0000
0000
1000
0000
0000
0100
0000
0000
0010
0000
0000
0001
0000
0000
,
1000
0000
0000
0001
0100
0001
0100
0000
0000
0001
0000
0000
0000
0000
0000
0001
0000
0000
0000
0000
0000
0001
0000
0000
,
0010
0000
0000
0100
1000
0100
1000
0000
0000
1000
0000
0000
0000
0000
0000
1000
0000
0000
0000
0000
0000
0010
0000
0000
,
0100
0010
1000
0010
0100
0010
1000
0010
,
0100
0000
0010
0000
0010
0000
1000
0000
0001
0010
0001
0010
0002
0000
1000
0000
,
1003
0010
0100
0001
0100
0001
1000
0100
0010
0100
1000
0001
1000
0001
0010
0001
1000
0001
0100
0010
1000
0001
1000
0010
,
1000
0100
0010
0001
0010
0001
1000
0010
0100
0010
1000
0001
1000
0001
0100
0001
1000
0001
0010
0100
1000
0001
0010
0001
,
1000
0001
1000
0010
1000
0001
0100
0001
1000
0100
0010
0001
1000
0010
1000
0001
1000
0001
0100
0001
1000
0100
0010
0001
,
1000
0100
1000
0001
0010
0001
1000
0010
1000
0001
0100
0001
0010
0100
1000
0100
0010
0001
1000
0010
1000
0001
1000
0010
,
1000
0100
0010
0001
1000
0001
1000
0010
1000
0100
0010
0001
1000
0001
1000
0010
1000
0001
0100
0001
1000
0001
0010
0100
,
0010
0001
1000
0010
1000
0001
1000
0001
0100
0001
1000
0010
1000
0001
1000
0100
0010
0001
1000
0010
1000
0001
0100
0001
,
1000
0010
1000
0001
1000
0001
0010
0001
1000
0100
1000
0001
0010
0100
1000
0001
0100
0001
1000
0010
1000
0100
1000
0001
,
0010
0100
1000
0001
0100
0001
1000
0001
1000
0010
1000
0001
1000
0100
0010
0001
1000
0010
1000
0001
0100
0001
0010
0001
,
1000
0100
0010
0001
0010
0001
1000
0010
0100
0010
1000
0001
1000
0001
0100
0001
1000
0001
0010
0100
1000
0001
1000
0100
,
1000
0010
0100
0001
0100
0001
1000
0100
0010
0100
1000
0001
1000
0001
0010
0001
1000
0001
0100
0010
1000
0001
0100
0001
,
1000
0001
1000
0100
1000
0001
0010
0001
1000
0010
0100
0001
1000
0100
1000
0001
1000
0001
0010
0001
1000
0010
0100
0001
,
1000
0010
1000
0001
0100
0001
1000
0100
1000
0001
0010
0001
0100
0010
1000
0010
0100
0001
1000
0100
1000
0001
1000
0100
,
1000
0010
0100
0001
1000
0001
1000
0100
1000
0010
0100
0001
1000
0001
1000
0100
1000
0001
0010
0001
1000
0001
0100
0010
,
0100
0001
1000
0100
1000
0001
1000
0001
0010
0001
1000
0100
1000
0001
1000
0010
0100
0001
1000
0100
1000
0001
0010
0001
,
1000
0100
1000
0001
1000
0001
0100
0001
1000
0010
1000
0001
1000
0001
0100
0001
1000
0100
0010
0100
1000
0001
0010
0001
,
1000
0010
1000
0010
0100
0001
1000
0100
1000
0001
0010
0001
1000
0100
0010
0100
1000
0001
0100
0001
1000
0010
1000
0100
,
1000
0001
0010
0001
1000
0001
1000
0010
1000
0010
0100
0001
1000
0100
1000
0100
0010
0001
1000
0010
1000
0010
0100
0001
,
1000
0010
1000
0001
0100
0001
1000
0001
1000
0100
0010
0100
1000
0001
0010
0001
1000
0001
0100
0010
1000
0010
0100
0001
,
1000
0100
0010
0100
1000
0001
0100
0001
0100
0010
1000
0001
0010
0001
0010
0100
1000
0001
0100
0001
0100
0010
1000
0001
,
1000
0001
0100
0001
1000
0010
1000
0001
1000
0001
0010
0100
0010
0001
1000
0100
1000
0001
0100
0010
1000
0010
0100
0001
,
1000
0001
0010
0100
0010
0001
1000
0010
1000
0010
0100
0001
1000
0100
1000
0100
0010
0001
1000
0010
1000
0010
0100
0001
,
1000
0100
1000
0001
1000
0001
0010
0001
1000
0010
1000
0100
1000
0001
0010
0001
1000
0010
1000
0001
0100
0001
1000
0001
,
0010
0100
1000
0001
0100
0001
1000
0010
1000
0001
1000
0001
0100
0001
1000
0010
1000
0001
1000
0001
0010
0100
0010
0001
,
1000
0000
0100
0000
1000
0000
0001
0000
1000
0000
0001
0000
0100
0000
0001
0000
1000
0000
0010
0000
1000
0000
0001
0000
1000
0000
0000
0000
0000
0000
0010
0000
0000
0000
0000
0000
0010
0000
0000
1000
0000
0000
0010
0000
0000
1000
0000
0000
,
0001
0100
0001
1000
0010
1000
0001
0010
0001
1000
0100
1000
0001
0010
0100
1000
0001
1000
0001
0100
0001
1000
0010
0100
,
0001
1000
0001
1000
0010
1000
0100
1000
0001
0010
0001
1000
0001
0100
0010
1000
0010
1000
0001
0010
0100
1000
0001
0100
,
0001
1000
0001
1000
0010
1000
0001
0010
0001
1000
0100
1000
0001
0010
0100
1000
0001
1000
0001
0100
0001
1000
0010
0100
,
0001
1000
0001
1000
0010
1000
0100
1000
0001
0010
0001
1000
0001
0100
0010
1000
0010
1000
0001
0100
0001
1000
0100
0010
,
0100
1000
0001
0010
0001
1000
0001
1000
0100
1000
0001
0100
0010
0100
0001
1000
0001
1000
0010
1000
0001
0100
0001
1000
,
0001
1000
0100
0010
0001
1000
0100
1000
0001
0100
0010
0100
0001
1000
0010
1000
0001
0100
0001
1000
0001
0010
0100
1000
,
0100
0010
0001
1000
0010
1000
0001
0100
0001
0010
0100
0010
0001
1000
0100
1000
0001
1000
0001
0010
0001
0100
0010
0100
,
0001
1000
0010
1000
0001
1000
0001
0100
0001
0010
0100
0010
0001
1000
0100
1000
0001
1000
0001
0010
0001
1000
0001
0100
,
0010
1000
0001
1000
0010
1000
0001
1000
,
0010
1000
1000
0001
2000
0000
3001
1001
,
0011
1000
1100
0001
0101
1000
1010
0001
,
0011
0000
1000
0000
1001
0000
0001
0000
1010
0000
0010
0000
0100
0001
0100
0001
,
1000
0100
0010
0001
0010
0001
1000
0010
0100
0010
1000
0001
1000
0001
0100
0001
1000
0001
0010
0100
1000
0001
1000
0100
,
1000
0010
0100
0001
0100
0001
1000
0100
0010
0100
1000
0001
1000
0001
0010
0001
1000
0001
0100
0010
1000
0001
0100
0001
,
1000
0001
1000
0100
1000
0001
0010
0001
1000
0010
0100
0001
1000
0100
1000
0001
1000
0001
0010
0001
1000
0010
0100
0001
,
1000
0010
1000
0001
0100
0001
1000
0100
1000
0001
0010
0001
0100
0010
1000
0010
0100
0001
1000
0100
1000
0001
1000
0100
,
1000
0010
0100
0001
1000
0001
1000
0100
1000
0010
0100
0001
1000
0001
1000
0100
1000
0001
0010
0001
1000
0001
0100
0010
,
0100
0001
1000
0100
1000
0001
1000
0001
0010
0001
1000
0100
1000
0001
1000
0010
0100
0001
1000
0100
1000
0001
0010
0001
,
1000
0100
1000
0001
1000
0001
0100
0001
1000
0010
1000
0001
0100
0010
1000
0001
0010
0001
1000
0100
1000
0010
1000
0001
,
0100
0010
1000
0001
0010
0001
1000
0001
1000
0100
1000
0001
1000
0010
0100
0001
1000
0100
1000
0001
0010
0001
0100
0001
,
1000
0010
0100
0001
0100
0001
1000
0100
0010
0100
1000
0001
1000
0001
0010
0001
1000
0001
0100
0010
1000
0001
1000
0010
,
1000
0100
0010
0001
0010
0001
1000
0010
0100
0010
1000
0001
1000
0001
0100
0001
1000
0001
0010
0100
1000
0001
0010
0001
,
1000
0001
1000
0010
1000
0001
0100
0001
1000
0100
0010
0001
1000
0010
1000
0001
1000
0001
0100
0001
1000
0100
0010
0001
,
1000
0100
1000
0001
0010
0001
1000
0010
1000
0001
0100
0001
0010
0100
1000
0100
0010
0001
1000
0010
1000
0001
1000
0010
,
1000
0100
0010
0001
1000
0001
1000
0010
1000
0100
0010
0001
1000
0001
1000
0010
1000
0001
0100
0001
1000
0001
0010
0100
,
0010
0001
1000
0010
1000
0001
1000
0001
0100
0001
1000
0010
1000
0001
1000
0100
0010
0001
1000
0010
1000
0001
0100
0001
,
1000
0010
1000
0001
1000
0001
0010
0001
1000
0100
1000
0001
1000
0001
0100
0010
0100
0001
1000
0001
1000
0010
1000
0001
,
0100
0001
1000
0001
1000
0100
0010
0001
1000
0100
1000
0001
0100
0001
1000
0010
1000
0001
1000
0100
0010
0001
0100
0001
,
1000
0010
0100
0001
0100
0001
1000
0100
0010
0100
1000
0001
1000
0001
0010
0001
1000
0001
0100
0010
1000
0001
1000
0010
,
1000
0100
0010
0001
0010
0001
1000
0010
0100
0010
1000
0001
1000
0001
0100
0001
1000
0001
0010
0100
1000
0001
0010
0001
,
1000
0001
1000
0010
1000
0001
0100
0001
1000
0100
0010
0001
1000
0010
1000
0001
1000
0001
0100
0001
1000
0100
0010
0001
,
1000
0100
1000
0001
0010
0001
1000
0010
1000
0001
0100
0001
0010
0100
1000
0100
0010
0001
1000
0010
1000
0001
1000
0010
,
1000
0100
0010
0001
1000
0001
1000
0010
1000
0100
0010
0001
1000
0001
1000
0010
1000
0001
0100
0001
1000
0001
0010
0100
,
0010
0001
1000
0010
1000
0001
1000
0001
0100
0001
1000
0010
1000
0001
1000
0100
0010
0001
1000
0010
1000
0001
0100
0001
,
1000
0010
1000
0001
1000
0001
0010
0001
1000
0100
1000
0001
0010
0100
1000
0001
0100
0001
1000
0010
1000
0100
1000
0001
,
0010
0100
1000
0001
0100
0001
1000
0001
1000
0010
1000
0001
1000
0100
0010
0001
1000
0010
1000
0001
0100
0001
0010
0001
,
1000
0100
0010
0001
0010
0001
1000
0010
0100
0010
1000
0001
1000
0001
0100
0001
1000
0001
0010
0100
1000
0001
1000
0100
,
1000
0010
0100
0001
0100
0001
1000
0100
0010
0100
1000
0001
1000
0001
0010
0001
1000
0001
0100
0010
1000
0001
0100
0001
,
1000
0001
1000
0100
1000
0001
0010
0001
1000
0010
0100
0001
1000
0100
1000
0001
1000
0001
0010
0001
1000
0010
0100
0001
,
1000
0010
1000
0001
0100
0001
1000
0100
1000
0001
0010
0001
0100
0010
1000
0010
0100
0001
1000
0100
1000
0001
1000
0100
,
1000
0010
0100
0001
1000
0001
1000
0100
1000
0010
0100
0001
1000
0001
1000
0100
1000
0001
0010
0001
1000
0001
0100
0010
,
0100
0001
1000
0100
1000
0001
1000
0001
0010
0001
1000
0100
1000
0001
1000
0010
0100
0001
1000
0100
1000
0001
0010
0001
,
1000
0100
1000
0001
1000
0001
0100
0001
1000
0010
1000
0001
1000
0001
0100
0001
1000
0100
0010
0100
1000
0001
0010
0001
,
1000
0010
1000
0010
0100
0001
1000
0100
1000
0001
0010
0001
1000
0100
0010
0100
1000
0001
0100
0001
1000
0010
1000
0100
,
0020
0000
0031
1002
0000
0003
2010
0000
,
3001
0000
0000
0000
0000
0000
0001
0000
0000
0000
0000
0000
0001
0000
0000
1000
0100
1000
0100
0000
0000
0010
0000
0000
,
0021
0001
0031
1002
0000
0003
2010
0000
,
0000
0000
0000
0000
,
0000
0000
0000
0000
,
0000
0000
0000
0000
,
3000
0000
0000
0000
;

//---------------dance-single - Gazebo----------------
#NOTES:
     dance-single:
     Gazebo:
     Hard:
     17:
     1.000,1.000,0.057,0.252,1.000,2129.000,14.000,62.000,0.000,0.000:
0002
0000
0000
0203
,
0320
0000
0000
0000
0000
0000
0000
0000
0030
0000
0010
0100
0001
1000
0001
0010
,
0200
0000
0000
0320
,
0032
0000
0000
0000
0000
0000
0000
0000
0000
0000
0000
0000
0000
0000
0000
0000
0000
0000
0000
0000
0000
0000
0000
0000
0003
0000
0000
0000
0000
0000
0001
0000
0000
1000
0000
0000
0010
0000
0000
0100
0000
0000
0010
0000
1000
0000
0001
0000
,
0020
0000
0000
0230
,
2300
0000
3000
0020
,
0230
0000
0000
0302
,
2003
3200
0320
0032
,
1003
0000
0000
0001
0010
0001
0010
0000
0000
0001
0000
0000
0100
0000
0000
0001
0000
0000
1000
0000
0000
0010
0000
0000
,
1000
0000
0000
0001
0100
0001
0100
0000
0000
0010
0000
0000
0100
0000
0000
0001
0000
0000
1000
0000
0000
0001
0000
0000
,
1000
0000
0000
0100
0010
0100
0010
0000
0000
0001
0000
0000
0100
0000
0000
0001
0000
0000
1000
0000
0000
0010
0000
0000
,
1000
0000
0000
0001
1000
0001
1000
0000
0000
0100
0000
0000
0010
0000
0000
0001
0000
0000
1000
0000
0000
0001
0000
0000
,
1000
0000
0000
0010
1000
0010
1000
0000
0000
0001
0000
0000
0100
0000
0000
0001
0000
0000
1000
0000
0000
0100
0000
0000
,
0010
0000
0000
0001
1000
0001
1000
0000
0000
0001
0000
0000
1000
0000
0000
0010
0000
0000
0100
0000
0000
0001
0000
0000
,
1000
0000
0000
0001
0010
0001
0010
0000
0000
0001
0000
0000
0000
0000
0000
0001
0000
0000
0000
0000
0000
0001
0000
0000
,
1000
0000
0000
0000
0000
0000
0010
0000
0100
0000
0010
0000
0100
0000
0000
0000
0000
0000
0001
0000
0000
0100
0000
0000
0001
0000
0000
0000
0000
0000
1000
0000
0000
0000
0000
0000
0100
0000
0000
0000
0000
0000
0010
0000
0000
0000
0000
0000
,
0001
0000
0000
1000
0010
1000
0010
0000
0000
1000
0000
0000
0100
0000
0000
1000
0000
0000
0001
0000
0000
0010
0000
0000
,
0001
0000
0000
1000
0100
1000
0100
0000
0000
0010
0000
0000
0100
0000
0000
1000
0000
0000
0001
0000
0000
1000
0000
0000
,
0001
0000
0000
0100
0010
0100
0010
0000
0000
1000
0000
0000
0100
0000
0000
1000
0000
0000
0001
0000
0000
0010
0000
0000
,
0001
0000
0000
1000
0001
1000
0001
0000
0000
0100
0000
0000
0010
0000
0000
1000
0000
0000
0001
0000
0000
1000
0000
0000
,
0001
0000
0000
0010
0001
0010
0001
0000
0000
1000
0000
0000
0100
0000
0000
1000
0000
0000
0001
0000
0000
0100
0000
0000
,
0010
0000
0000
1000
0001
1000
0001
0000
0000
1000
0000
0000
0001
0000
0000
0010
0000
0000
0100
0000
0000
1000
0000
0000
,
0001
0000
0000
1000
0010
1000
0010
0000
0000
1000
0000
0000
0000
0000
0000
1000
0000
0000
0000
0000
0000
1000
0000
0000
,
0001
0000
0000
0010
0100
0010
0100
0000
0000
0010
0000
0000
0000
0000
0000
0010
0000
0000
0000
0000
0000
0010
0000
0000
,
0000
0000
0000
0000
,
0000
0000
0000
0000
0001
0001
2001
0000
,
3001
0100
0010
1000
0010
1000
0001
0010
0100
0010
0001
1000
0001
1000
0100
1000
0001
1000
0010
0100
0001
1000
0001
0100
,
0001
0010
0100
1000
0100
1000
0001
0100
0010
0100
0001
1000
0001
1000
0010
1000
0001
1000
0100
0010
0001
1000
0100
1000
,
0001
1000
0001
0100
0001
1000
0010
1000
0001
0010
0100
1000
0001
0100
0001
1000
0001
1000
0010
1000
0001
0010
0100
1000
,
0001
0010
0001
1000
0100
1000
0001
0100
0001
1000
0010
1000
0100
0010
0001
0010
0100
1000
0001
0100
0001
1000
0001
0100
,
0001
0010
0100
1000
0001
1000
0001
0100
0001
0010
0100
1000
0001
1000
0001
0100
0001
1000
0010
1000
0001
1000
0100
0010
,
0100
1000
0001
0100
0001
1000
0001
1000
0010
1000
0001
0100
0001
1000
0001
0010
0100
1000
0001
0100
0001
1000
0010
1000
,
0001
0100
0001
1000
0001
1000
0100
1000
0001
0010
0001
1000
0100
0010
0001
1000
0010
1000
0001
0100
0001
0010
0001
1000
,
0100
0010
0001
1000
0010
1000
0001
1000
0001
0100
0001
1000
0001
0010
0100
1000
0001
0100
0001
1000
0010
1000
0100
1000
,
0001
0010
0100
1000
0100
1000
0001
0100
0010
0100
0001
1000
0001
1000
0010
1000
0001
1000
0100
0010
0001
1000
0001
0010
,
0001
0100
0010
1000
0010
1000
0001
0010
0100
0010
0001
1000
0001
1000
0100
1000
0001
1000
0010
0100
0001
1000
0010
1000
,
0001
1000
0001
0010
0001
1000
0100
1000
0001
0100
0010
1000
0001
0010
0001
1000
0001
1000
0100
1000
0001
0100
0010
1000
,
0001
0100
0001
1000
0010
1000
0001
0010
0001
1000
0100
1000
0010
0100
0001
0100
0010
1000
0001
0010
0001
1000
0001
0010
,
0001
0100
0010
1000
0001
1000
0001
0010
0001
0100
0010
1000
0001
1000
0001
0010
0001
1000
0100
1000
0001
1000
0010
0100
,
0010
1000
0001
0010
0001
1000
0001
1000
0100
1000
0001
0010
0001
1000
0001
0100
0010
1000
0001
0010
0001
1000
0100
1000
,
0001
0010
0001
1000
0001
1000
0010
1000
0001
0100
0001
1000
0001
1000
0010
1000
0001
0010
0100
0010
0001
1000
0100
1000
,
0001
0100
0001
0100
0010
1000
0001
0010
0001
1000
0100
1000
0001
0010
0100
0010
0001
1000
0010
1000
0001
0100
0001
1000
,
0002
0000
0000
0023
,
0230
0000
0000
0000
0000
0000
0000
0000
0300
0000
0100
0010
0001
1000
0001
0100
,
0020
0000
0000
0230
,
0302
0000
0000
0000
0000
0000
0000
0000
0000
0000
0000
0000
0000
0000
0000
0000
0000
0000
0000
0000
0000
0000
0000
0000
0003
0000
0000
0000
0000
0000
0001
0000
0000
1000
0000
0000
0100
0000
0000
0010
0000
0000
0100
0000
1000
0000
0001
0000
,
0200
0000
0000
0320
,
2030
0000
3000
0200
,
0320
0000
0000
0032
,
2003
3020
0230
0302
,
1003
0000
0000
0001
0100
0001
0100
0000
0000
0001
0000
0000
0010
0000
0000
0001
0000
0000
1000
0000
0000
0100
0000
0000
,
1000
0000
0000
0001
0010
0001
0010
0000
0000
0100
0000
0000
0010
0000
0000
0001
0000
0000
1000
0000
0000
0001
0000
0000
,
1000
0000
0000
0010
0100
0010
0100
0000
0000
0001
0000
0000
0010
0000
0000
0001
0000
0000
1000
0000
0000
0100
0000
0000
,
1000
0000
0000
0001
1000
0001
1000
0000
0000
0010
0000
0000
0100
0000
0000
0001
0000
0000
1000
0000
0000
0001
0000
0000
,
1000
0000
0000
0100
1000
0100
1000
0000
0000
0001
0000
0000
0010
0000
0000
0001
0000
0000
1000
0000
0000
0010
0000
0000
,
0100
0000
0000
0001
1000
0001
1000
0000
0000
0001
0000
0000
1000
0000
0000
0100
0000
0000
0010
0000
0000
0001
0000
0000
,
1000
0000
0000
0000
0000
0000
0001
0000
0100
0000
0001
0000
0100
0000
0000
0000
0000
0000
0001
0000
0000
0000
0000
0000
0000
0000
0000
0000
0000
0000
0001
0000
0000
0000
0000
0000
2000
0000
0000
0000
0000
0000
0000
0000
0000
3000
0000
0000
,
2000
3200
0320
0032
,
1003
0000
0000
0001
0100
0001
0100
0000
0000
0001
0000
0000
0010
0000
0000
0001
0000
0000
1000
0000
0000
0100
0000
0000
,
1000
0000
0000
0001
0010
0001
0010
0000
0000
0100
0000
0000
0010
0000
0000
0001
0000
0000
1000
0000
0000
0001
0000
0000
,
1000
0000
0000
0010
0100
0010
0100
0000
0000
0001
0000
0000
0010
0000
0000
0001
0000
0000
1000
0000
0000
0100
0000
0000
,
1000
0000
0000
0001
1000
0001
1000
0000
0000
0010
0000
0000
0100
0000
0000
0001
0000
0000
1000
0000
0000
0001
0000
0000
,
1000
0000
0000
0100
1000
0100
1000
0000
0000
0001
0000
0000
0010
0000
0000
0001
0000
0000
1000
0000
0000
0010
0000
0000
,
0100
0000
0000
0001
1000
0001
1000
0000
0000
0001
0000
0000
1000
0000
0000
0100
0000
0000
0010
0000
0000
0001
0000
0000
,
1000
0000
0000
0001
0100
0001
0100
0000
0000
0001
0000
0000
0000
0000
0000
0001
0000
0000
0000
0000
0000
0001
0000
0000
,
0010
0000
0000
0100
1000
0100
1000
0000
0000
1000
0000
0000
0000
0000
0000
1000
0000
0000
0000
0000
0000
0010
0000
0000
,
0100
0010
1000
0010
0100
0010
1000
0010
,
0100
0000
0010
0000
0010
0000
1000
0000
0001
0010
0001
0010
0002
0000
1000
0000
,
1003
0010
0100
0001
0100
0001
1000
0100
0010
0100
1000
0001
1000
0001
0010
0001
1000
0001
0100
0010
1000
0001
1000
0010
,
1000
0100
0010
0001
0010
0001
1000
0010
0100
0010
1000
0001
1000
0001
0100
0001
1000
0001
0010
0100
1000
0001
0010
0001
,
1000
0001
1000
0010
1000
0001
0100
0001
1000
0100
0010
0001
1000
0010
1000
0001
1000
0001
0100
0001
1000
0100
0010
0001
,
1000
0100
1000
0001
0010
0001
1000
0010
1000
0001
0100
0001
0010
0100
1000
0100
0010
0001
1000
0010
1000
0001
1000
0010
,
1000
0100
0010
0001
1000
0001
1000
0010
1000
0100
0010
0001
1000
0001
1000
0010
1000
0001
0100
0001
1000
0001
0010
0100
,
0010
0001
1000
0010
1000
0001
1000
0001
0100
0001
1000
0010
1000
0001
1000
0100
0010
0001
1000
0010
1000
0001
0100
0001
,
1000
0010
1000
0001
1000
0001
0010
0001
1000
0100
1000
0001
0010
0100
1000
0001
0100
0001
1000
0010
1000
0100
1000
0001
,
0010
0100
1000
0001
0100
0001
1000
0001
1000
0010
1000
0001
1000
0100
0010
0001
1000
0010
1000
0001
0100
0001
0010
0001
,
1000
0100
0010
0001
0010
0001
1000
0010
0100
0010
1000
0001
1000
0001
0100
0001
1000
0001
0010
0100
1000
0001
1000
0100
,
1000
0010
0100
0001
0100
0001
1000
0100
0010
0100
1000
0001
1000
0001
0010
0001
1000
0001
0100
0010
1000
0001
0100
0001
,
1000
0001
1000
0100
1000
0001
0010
0001
1000
0010
0100
0001
1000
0100
1000
0001
1000
0001
0010
0001
1000
0010
0100
0001
,
1000
0010
1000
0001
0100
0001
1000
0100
1000
0001
0010
0001
0100
0010
1000
0010
0100
0001
1000
0100
1000
0001
1000
0100
,
1000
0010
0100
0001
1000
0001
1000
0100
1000
0010
0100
0001
1000
0001
1000
0100
1000
0001
0010
0001
1000
0001
0100
0010
,
0100
0001
1000
0100
1000
0001
1000
0001
0010
0001
1000
0100
1000
0001
1000
0010
0100
0001
1000
0100
1000
0001
0010
0001
,
1000
0100
1000
0001
1000
0001
0100
0001
1000
0010
1000
0001
1000
0001
0100
0001
1000
0100
0010
0100
1000
0001
0010
0001
,
1000
0010
1000
0010
0100
0001
1000
0100
1000
0001
0010
0001
1000
0100
0010
0100
1000
0001
0100
0001
1000
0010
1000
0100
,
1000
0002
0203
0301
,
0002
0000
0000
1003
2000
0000
0100
0000
,
3001
0020
0032
0013
,
0020
0000
0000
0130
0200
0000
0010
0000
,
1300
0002
0203
0302
,
2003
0000
0000
3010
2000
0000
3200
0000
,
0320
0000
0000
0000
0000
0000
0000
0000
0000
0000
0000
0000
0000
0000
0130
1000
,
0002
0000
0000
0000
0000
0000
0000
0000
0000
0000
0103
0000
0010
1000
0010
1000
,
0001
0010
0001
1000
0001
0010
0001
1000
0001
0100
0010
0100
0001
0010
0100
0010
,
0100
1000
0001
1000
0010
1000
0010
1000
0001
0100
0001
0100
0001
0010
0001
0010
,
0100
1000
0001
1000
0100
1000
0001
1000
0010
0100
0010
1000
0001
0010
0100
0010
,
0100
1000
0001
0100
0001
1000
0010
1000
0100
1000
0100
1000
0100
0010
0001
1000
,
0010
0100
0010
1000
0010
0100
0001
1000
0100
0010
0001
0010
0100
0010
0001
1000
,
0001
0100
0001
1000
0010
1000
0100
0010
0100
0010
0001
1000
0100
1000
0001
0100
,
0001
0100
0010
1000
0010
1000
0001
0010
0001
1000
0100
1000
0001
1000
0010
0100
,
0001
1000
0010
1000
0001
1000
0100
0010
0001
1000
0100
1000
0001
1000
0010
0100
,
0010
1000
0001
1000
0010
1000
0001
1000
,
0010
1000
1000
0001
2000
0000
3001
1001
,
0011
1000
1100
0001
0101
1000
1010
0001
,
0011
0000
1000
0000
1001
0000
0001
0000
1010
0000
0010
0000
0100
0001
0100
0001
,
1000
0100
0010
0001
0010
0001
1000
0010
0100
0010
1000
0001
1000
0001
0100
0001
1000
0001
0010
0100
1000
0001
1000
0100
,
1000
0010
0100
0001
0100
0001
1000
0100
0010
0100
1000
0001
1000
0001
0010
0001
1000
0001
0100
0010
1000
0001
0100
0001
,
1000
0001
1000
0100
1000
0001
0010
0001
1000
0010
0100
0001
1000
0100
1000
0001
1000
0001
0010
0001
1000
0010
0100
0001
,
1000
0010
1000
0001
0100
0001
1000
0100
1000
0001
0010
0001
0100
0010
1000
0010
0100
0001
1000
0100
1000
0001
1000
0100
,
1000
0010
0100
0001
1000
0001
1000
0100
1000
0010
0100
0001
1000
0001
1000
0100
1000
0001
0010
0001
1000
0001
0100
0010
,
0100
0001
1000
0100
1000
0001
1000
0001
0010
0001
1000
0100
1000
0001
1000
0010
0100
0001
1000
0100
1000
0001
0010
0001
,
1000
0100
1000
0001
1000
0001
0100
0001
1000
0010
1000
0001
0100
0010
1000
0001
0010
0001
1000
0100
1000
0010
1000
0001
,
0100
0010
1000
0001
0010
0001
1000
0001
1000
0100
1000
0001
1000
0010
0100
0001
1000
0100
1000
0001
0010
0001
0100
0001
,
1000
0010
0100
0001
0100
0001
1000
0100
0010
0100
1000
0001
1000
0001
0010
0001
1000
0001
0100
0010
1000
0001
1000
0010
,
1000
0100
0010
0001
0010
0001
1000
0010
0100
0010
1000
0001
1000
0001
0100
0001
1000
0001
0010
0100
1000
0001
0010
0001
,
1000
0001
1000
0010
1000
0001
0100
0001
1000
0100
0010
0001
1000
0010
1000
0001
1000
0001
0100
0001
1000
0100
0010
0001
,
1000
0100
1000
0001
0010
0001
1000
0010
1000
0001
0100
0001
0010
0100
1000
0100
0010
0001
1000
0010
1000
0001
1000
0010
,
1000
0100
0010
0001
1000
0001
1000
0010
1000
0100
0010
0001
1000
0001
1000
0010
1000
0001
0100
0001
1000
0001
0010
0100
,
0010
0001
1000
0010
1000
0001
1000
0001
0100
0001
1000
0010
1000
0001
1000
0100
0010
0001
1000
0010
1000
0001
0100
0001
,
1000
0010
1000
0001
1000
0001
0010
0001
1000
0100
1000
0001
1000
0001
0100
0010
0100
0001
1000
0001
1000
0010
1000
0001
,
0100
0001
1000
0001
1000
0100
0010
0001
1000
0100
1000
0001
0100
0001
1000
0010
1000
0001
1000
0100
0010
0001
0100
0001
,
1000
0010
0100
0001
0100
0001
1000
0100
0010
0100
1000
0001
1000
0001
0010
0001
1000
0001
0100
0010
1000
0001
1000
0010
,
1000
0100
0010
0001
0010
0001
1000
0010
0100
0010
1000
0001
1000
0001
0100
0001
1000
0001
0010
0100
1000
0001
0010
0001
,
1000
0001
1000
0010
1000
0001
0100
0001
1000
0100
0010
0001
1000
0010
1000
0001
1000
0001
0100
0001
1000
0100
0010
0001
,
1000
0100
1000
0001
0010
0001
1000
0010
1000
0001
0100
0001
0010
0100
1000
0100
0010
0001
1000
0010
1000
0001
1000
0010
,
1000
0100
0010
0001
1000
0001
1000
0010
1000
0100
0010
0001
1000
0001
1000
0010
1000
0001
0100
0001
1000
0001
0010
0100
,
0010
0001
1000
0010
1000
0001
1000
0001
0100
0001
1000
0010
1000
0001
1000
0100
0010
0001
1000
0010
1000
0001
0100
0001
,
1000
0010
1000
0001
1000
0001
0010
0001
1000
0100
1000
0001
0010
0100
1000
0001
0100
0001
1000
0010
1000
0100
1000
0001
,
0010
0100
1000
0001
0100
0001
1000
0001
1000
0010
1000
0001
1000
0100
0010
0001
1000
0010
1000
0001
0100
0001
0010
0001
,
1000
0100
0010
0001
0010
0001
1000
0010
0100
0010
1000
0001
1000
0001
0100
0001
1000
0001
0010
0100
1000
0001
1000
0100
,
1000
0010
0100
0001
0100
0001
1000
0100
0010
0100
1000
0001
1000
0001
0010
0001
1000
0001
0100
0010
1000
0001
0100
0001
,
1000
0001
1000
0100
1000
0001
0010
0001
1000
0010
0100
0001
1000
0100
1000
0001
1000
0001
0010
0001
1000
0010
0100
0001
,
1000
0010
1000
0001
0100
0001
1000
0100
1000
0001
0010
0001
0100
0010
1000
0010
0100
0001
1000
0100
1000
0001
1000
0100
,
1000
0010
0100
0001
1000
0001
1000
0100
1000
0010
0100
0001
1000
0001
1000
0100
1000
0001
0010
0001
1000
0001
0100
0010
,
0100
0001
1000
0100
1000
0001
1000
0001
0010
0001
1000
0100
1000
0001
1000
0010
0100
0001
1000
0100
1000
0001
0010
0001
,
1000
0100
1000
0001
1000
0001
0100
0001
1000
0010
1000
0001
1000
0001
0100
0001
1000
0100
0010
0100
1000
0001
0010
0001
,
1000
0010
1000
0010
0100
0001
1000
0100
1000
0001
0010
0001
1000
0100
0010
0100
1000
0001
0100
0001
1000
0010
1000
0100
,
0020
0000
0031
1002
0000
0003
2010
0000
,
3001
0000
0000
0000
0000
0000
0001
0000
0000
0000
0000
0000
0001
0000
0000
1000
0100
1000
0100
0000
0000
0010
0000
0000
,
0021
0001
0031
1002
0000
0003
2010
0000
,
0000
0000
0000
0000
,
0000
0000
0000
0000
,
0000
0000
0000
0000
,
3000
0000
0000
0000
;

//---------------dance-single - Gazebo----------------
#NOTES:
     dance-single:
     Gazebo:
     Medium:
     12:
     1.000,0.953,0.069,0.187,1.000,1703.000,17.000,46.000,0.000,0.000:
0002
0000
0000
0203
,
0320
0000
0000
0000
0000
0000
0000
0000
0030
0000
0010
0100
0001
1000
0001
0010
,
0200
0000
0000
0320
,
0032
0000
0000
0000
0000
0000
0000
0000
0000
0000
0000
0000
0000
0000
0000
0000
0000
0000
0000
0000
0000
0000
0000
0000
0003
0000
0000
0000
0000
0000
0001
0000
0000
1000
0000
0000
0010
0000
0000
0100
0000
0000
0010
0000
1000
0000
0001
0000
,
0020
0000
0000
0230
,
2300
0000
3000
0020
,
0230
0000
0000
0302
,
2003
3200
0320
0032
,
1003
0000
0000
0001
0010
0001
0010
0000
0000
0001
0000
0000
0100
0000
0000
0001
0000
0000
1000
0000
0000
0010
0000
0000
,
1000
0000
0000
0001
0100
0001
0100
0000
0000
0010
0000
0000
0100
0000
0000
0001
0000
0000
1000
0000
0000
0001
0000
0000
,
1000
0000
0000
0100
0010
0100
0010
0000
0000
0001
0000
0000
0100
0000
0000
0001
0000
0000
1000
0000
0000
0010
0000
0000
,
1000
0000
0000
0001
1000
0001
1000
0000
0000
0100
0000
0000
0010
0000
0000
0001
0000
0000
1000
0000
0000
0001
0000
0000
,
1000
0000
0000
0010
1000
0010
1000
0000
0000
0001
0000
0000
0100
0000
0000
0001
0000
0000
1000
0000
0000
0100
0000
0000
,
0010
0000
0000
0001
1000
0001
1000
0000
0000
0001
0000
0000
1000
0000
0000
0010
0000
0000
0100
0000
0000
0001
0000
0000
,
1000
0000
0000
0001
0010
0001
0010
0000
0000
0001
0000
0000
0000
0000
0000
0001
0000
0000
0000
0000
0000
0001
0000
0000
,
1000
0000
0000
0000
0000
0000
0010
0000
0100
0000
0010
0000
0100
0000
0000
0000
0000
0000
0001
0000
0000
0100
0000
0000
0001
0000
0000
0000
0000
0000
1000
0000
0000
0000
0000
0000
0100
0000
0000
0000
0000
0000
0010
0000
0000
0000
0000
0000
,
0001
0000
0000
1000
0010
1000
0010
0000
0000
1000
0000
0000
0100
0000
0000
1000
0000
0000
0001
0000
0000
0010
0000
0000
,
0001
0000
0000
1000
0100
1000
0100
0000
0000
0010
0000
0000
0100
0000
0000
1000
0000
0000
0001
0000
0000
1000
0000
0000
,
0001
0000
0000
0100
0010
0100
0010
0000
0000
1000
0000
0000
0100
0000
0000
1000
0000
0000
0001
0000
0000
0010
0000
0000
,
0001
0000
0000
1000
0001
1000
0001
0000
0000
0100
0000
0000
0010
0000
0000
1000
0000
0000
0001
0000
0000
1000
0000
0000
,
0001
0000
0000
0010
0001
0010
0001
0000
0000
1000
0000
0000
0100
0000
0000
1000
0000
0000
0001
0000
0000
0100
0000
0000
,
0010
0000
0000
1000
0001
1000
0001
0000
0000
1000
0000
0000
0001
0000
0000
0010
0000
0000
0100
0000
0000
1000
0000
0000
,
0001
0000
0000
1000
0010
1000
0010
0000
0000
1000
0000
0000
0000
0000
0000
1000
0000
0000
0000
0000
0000
1000
0000
0000
,
0001
0000
0000
0010
0100
0010
0100
0000
0000
0010
0000
0000
0000
0000
0000
0010
0000
0000
0000
0000
0000
0010
0000
0000
,
0000
0000
0000
0000
,
0000
0000
0000
0000
0001
0001
2001
0000
,
3001
0010
0001
0010
0100
1000
0001
1000
0001
0100
0001
0100
0010
1000
0010
1000
,
0001
0010
0001
0010
0100
1000
0001
1000
0001
0100
0001
0100
0010
1000
0010
1000
,
0001
1000
0100
0010
0100
1000
0001
0100
0001
0010
0100
0010
0100
1000
0001
1000
,
0010
1000
0001
0100
0001
1000
0001
0010
0100
0010
0100
1000
0001
0100
0001
0100
,
0001
0010
0100
1000
0001
0100
0001
0010
0100
1000
0001
0100
0001
1000
0100
0010
,
0100
0010
0001
1000
0010
1000
0001
0100
0001
0100
0010
1000
0001
0010
0100
1000
,
0100
0010
0100
1000
0100
0010
0100
1000
0001
1000
0010
0100
0001
0010
0001
1000
,
0001
0100
0010
0100
0001
0100
0010
1000
0001
0010
0100
0010
0001
1000
0010
1000
,
0001
0010
0001
0010
0100
1000
0001
1000
0001
0100
0001
0100
0010
1000
0010
1000
,
0001
0010
0001
0010
0100
1000
0001
1000
0001
0100
0001
0100
0010
1000
0010
1000
,
0001
1000
0100
0010
0100
1000
0001
0010
0001
1000
0100
1000
0001
0100
0001
0010
,
0100
0010
0001
1000
0010
1000
0001
0010
0100
0010
0100
1000
0001
0100
0001
0100
,
0001
0010
0100
1000
0001
0100
0001
0010
0100
1000
0001
0100
0001
1000
0100
0010
,
0100
0010
0001
1000
0010
1000
0001
0100
0001
0100
0010
1000
0001
0010
0001
1000
,
0010
0100
0010
1000
0010
0100
0010
1000
0010
0100
0001
1000
0001
0010
0100
1000
,
0001
0100
0001
0100
0010
1000
0001
0010
0001
0010
0100
1000
0001
0100
0010
1000
,
0002
0000
0000
0023
,
0230
0000
0000
0000
0000
0000
0000
0000
0300
0000
0100
0010
0001
1000
0001
0100
,
0020
0000
0000
0230
,
0302
0000
0000
0000
0000
0000
0000
0000
0000
0000
0000
0000
0000
0000
0000
0000
0000
0000
0000
0000
0000
0000
0000
0000
0003
0000
0000
0000
0000
0000
0001
0000
0000
1000
0000
0000
0100
0000
0000
0010
0000
0000
0100
0000
1000
0000
0001
0000
,
0200
0000
0000
0320
,
2030
0000
3000
0200
,
0320
0000
0000
0032
,
2003
3020
0230
0302
,
1003
0000
0000
0001
0100
0001
0100
0000
0000
0001
0000
0000
0010
0000
0000
0001
0000
0000
1000
0000
0000
0100
0000
0000
,
1000
0000
0000
0001
0010
0001
0010
0000
0000
0100
0000
0000
0010
0000
0000
0001
0000
0000
1000
0000
0000
0001
0000
0000
,
1000
0000
0000
0010
0100
0010
0100
0000
0000
0001
0000
0000
0010
0000
0000
0001
0000
0000
1000
0000
0000
0100
0000
0000
,
1000
0000
0000
0001
1000
0001
1000
0000
0000
0010
0000
0000
0100
0000
0000
0001
0000
0000
1000
0000
0000
0001
0000
0000
,
1000
0000
0000
0100
1000
0100
1000
0000
0000
0001
0000
0000
0010
0000
0000
0001
0000
0000
1000
0000
0000
0010
0000
0000
,
0100
0000
0000
0001
1000
0001
1000
0000
0000
0001
0000
0000
1000
0000
0000
0100
0000
0000
0010
0000
0000
0001
0000
0000
,
1000
0000
0000
0000
0000
0000
0001
0000
0100
0000
0001
0000
0100
0000
0000
0000
0000
0000
0001
0000
0000
0000
0000
0000
0000
0000
0000
0000
0000
0000
0001
0000
0000
0000
0000
0000
2000
0000
0000
0000
0000
0000
0000
0000
0000
3000
0000
0000
,
2000
3200
0320
0032
,
1003
0000
0000
0001
0100
0001
0100
0000
0000
0001
0000
0000
0010
0000
0000
0001
0000
0000
1000
0000
0000
0100
0000
0000
,
1000
0000
0000
0001
0010
0001
0010
0000
0000
0100
0000
0000
0010
0000
0000
0001
0000
0000
1000
0000
0000
0001
0000
0000
,
1000
0000
0000
0010
0100
0010
0100
0000
0000
0001
0000
0000
0010
0000
0000
0001
0000
0000
1000
0000
0000
0100
0000
0000
,
1000
0000
0000
0001
1000
0001
1000
0000
0000
0010
0000
0000
0100
0000
0000
0001
0000
0000
1000
0000
0000
0001
0000
0000
,
1000
0000
0000
0100
1000
0100
1000
0000
0000
0001
0000
0000
0010
0000
0000
0001
0000
0000
1000
0000
0000
0010
0000
0000
,
0100
0000
0000
0001
1000
0001
1000
0000
0000
0001
0000
0000
1000
0000
0000
0100
0000
0000
0010
0000
0000
0001
0000
0000
,
1000
0000
0000
0001
0100
0001
0100
0000
0000
0001
0000
0000
0000
0000
0000
0001
0000
0000
0000
0000
0000
0001
0000
0000
,
0010
0000
0000
0100
1000
0100
1000
0000
0000
1000
0000
0000
0000
0000
0000
1000
0000
0000
0000
0000
0000
0010
0000
0000
,
0100
0010
1000
0010
0100
0010
1000
0010
,
0100
0000
0010
0000
0010
0000
1000
0000
0001
0010
0001
0010
0002
0000
1000
0000
,
1003
0010
1000
0010
0100
0001
1000
0001
1000
0100
1000
0100
0010
0001
0010
0001
,
1000
0010
1000
0010
0100
0001
1000
0001
1000
0100
1000
0100
0010
0001
0010
0001
,
1000
0001
0100
0010
0100
0001
1000
0100
1000
0010
0100
0010
0100
0001
1000
0001
,
0010
0001
1000
0100
1000
0001
1000
0010
0100
0010
0100
0001
1000
0100
1000
0100
,
1000
0010
0100
0001
1000
0100
1000
0010
0100
0001
1000
0100
1000
0001
0100
0010
,
0100
0010
1000
0001
0010
0001
1000
0100
1000
0100
0010
0001
1000
0010
0100
0001
,
0100
0010
0100
0001
0100
0010
0100
0001
1000
0001
0010
0100
1000
0010
1000
0001
,
1000
0100
0010
0100
1000
0100
0010
0001
1000
0010
0100
0010
1000
0001
0010
0001
,
1000
0010
1000
0010
0100
0001
1000
0001
1000
0100
1000
0100
0010
0001
0010
0001
,
1000
0010
1000
0010
0100
0001
1000
0001
1000
0100
1000
0100
0010
0001
0010
0001
,
1000
0001
0100
0010
0100
0001
1000
0010
1000
0001
0100
0001
1000
0100
1000
0010
,
0100
0010
1000
0001
0010
0001
1000
0010
0100
0010
0100
0001
1000
0100
1000
0100
,
1000
0010
0100
0001
1000
0100
1000
0010
0100
0001
1000
0100
1000
0001
0100
0010
,
0100
0010
1000
0001
0010
0001
1000
0100
1000
0100
0010
0001
1000
0010
1000
0001
,
0010
0100
0010
0001
0010
0100
0010
0001
0010
0100
1000
0001
1000
0010
0100
0001
,
1000
0100
1000
0100
0010
0001
1000
0010
1000
0010
0100
0001
1000
0100
0010
0001
,
1000
0010
1000
0010
1000
0100
1000
0001
0100
0010
0100
0001
1000
0100
1000
0001
,
1000
0100
0010
0001
0010
0001
1000
0010
0100
0010
0100
0001
1000
0100
0010
0001
,
0100
0001
0100
0001
1000
0010
1000
0001
0010
0100
0010
0001
1000
0010
1000
0001
,
1000
0010
0100
0001
0100
0001
1000
0100
0010
0100
0010
0001
1000
0010
0100
0001
,
1000
0010
1000
0010
1000
0100
1000
0001
0100
0010
0100
0001
1000
0100
1000
0001
,
0100
0010
1000
0010
0100
0010
1000
0100
0010
0001
0010
0001
1000
0010
1000
0001
,
0010
0100
0010
0001
0010
0100
0010
0001
0010
0100
1000
0001
1000
0001
0100
0010
,
1000
0001
0100
0001
1000
0001
0100
0001
1000
0000
0010
0000
0100
0001
0100
0001
,
1000
0100
1000
0001
1000
0100
1000
0001
1000
0010
0100
0010
1000
0100
0010
0100
,
0010
0001
1000
0001
0100
0001
0100
0001
1000
0010
1000
0010
1000
0100
1000
0100
,
0010
0001
1000
0001
0010
0001
1000
0001
0100
0010
0100
0001
1000
0100
0010
0100
,
0010
0001
1000
0010
1000
0001
0100
0001
0010
0001
0010
0001
0010
0100
1000
0001
,
0100
0010
0100
0001
0100
0010
1000
0001
0010
0100
1000
0100
0010
0100
1000
0001
,
1000
0010
1000
0001
0100
0001
0010
0100
0010
0100
1000
0001
0010
0001
1000
0010
,
1000
0010
0100
0001
0100
0001
1000
0100
1000
0001
0010
0001
1000
0001
0100
0010
,
1000
0001
0100
0001
1000
0001
0010
0100
1000
0001
0010
0001
1000
0001
0100
0010
,
0100
0001
1000
0001
0100
0001
1000
0001
,
0100
0001
0001
1000
0002
0000
0003
1001
,
0011
1000
1100
0001
0101
1000
1010
0001
,
0011
0000
1000
0000
1001
0000
0001
0000
1010
0000
0010
0000
0100
0001
0100
0001
,
1000
0100
1000
0100
0010
0001
1000
0001
1000
0010
1000
0010
0100
0001
0100
0001
,
1000
0100
1000
0100
0010
0001
1000
0001
1000
0010
1000
0010
0100
0001
0100
0001
,
1000
0001
0010
0100
0010
0001
1000
0010
1000
0100
0010
0100
0010
0001
1000
0001
,
0100
0001
1000
0010
1000
0001
1000
0100
0010
0100
0010
0001
1000
0010
1000
0010
,
1000
0100
0010
0001
1000
0010
1000
0100
0010
0001
1000
0010
1000
0001
0010
0100
,
0010
0100
1000
0001
0100
0001
1000
0010
1000
0010
0100
0001
1000
0100
0010
0001
,
0010
0100
0010
0001
0010
0100
0010
0001
1000
0001
0100
0010
1000
0100
1000
0001
,
1000
0010
0100
0010
1000
0010
0100
0001
1000
0100
0010
0100
1000
0001
0100
0001
,
1000
0100
1000
0100
0010
0001
1000
0001
1000
0010
1000
0010
0100
0001
0100
0001
,
1000
0100
1000
0100
0010
0001
1000
0001
1000
0010
1000
0010
0100
0001
0100
0001
,
1000
0001
0010
0100
0010
0001
1000
0100
1000
0001
0010
0001
1000
0010
1000
0100
,
0010
0100
1000
0001
0100
0001
1000
0100
0010
0100
0010
0001
1000
0010
1000
0010
,
1000
0100
0010
0001
1000
0010
1000
0100
0010
0001
1000
0010
1000
0001
0010
0100
,
0010
0100
1000
0001
0100
0001
1000
0010
1000
0010
0100
0001
1000
0100
1000
0001
,
0100
0010
0100
0001
0100
0010
0100
0001
0100
0010
1000
0001
1000
0100
1000
0001
,
1000
0000
0101
0000
0101
0000
1000
0000
1001
0000
0001
0000
1000
0100
1000
0100
,
1000
0010
1000
0010
0100
0001
1000
0001
1000
0100
1000
0100
0010
0001
0010
0001
,
1000
0010
1000
0010
0100
0001
1000
0001
1000
0100
1000
0100
0010
0001
0010
0001
,
1000
0001
0100
0010
0100
0001
1000
0100
1000
0010
0100
0010
0100
0001
1000
0001
,
0010
0001
1000
0100
1000
0001
1000
0010
0100
0010
0100
0001
1000
0100
1000
0100
,
1000
0010
0100
0001
1000
0100
1000
0010
0100
0001
1000
0100
1000
0001
0100
0010
,
0100
0010
1000
0001
0010
0001
1000
0100
1000
0100
0010
0001
1000
0010
0100
0001
,
0100
0010
0100
0001
0100
0010
0100
0001
1000
0001
0010
0100
1000
0010
1000
0001
,
1000
0100
0010
0100
1000
0100
0010
0001
1000
0010
0100
0010
1000
0001
0010
0001
,
1000
0010
1000
0010
0100
0001
1000
0001
1000
0100
1000
0100
0010
0001
0010
0001
,
1000
0010
1000
0010
0100
0001
1000
0001
1000
0100
1000
0100
0010
0001
0010
0001
,
1000
0001
0100
0010
0100
0001
1000
0010
1000
0001
0100
0001
1000
0100
1000
0010
,
0100
0010
1000
0001
0010
0001
1000
0010
0100
0010
0100
0001
1000
0100
1000
0100
,
1000
0010
0100
0001
1000
0100
1000
0010
0100
0001
1000
0100
1000
0001
0100
0010
,
0100
0010
1000
0001
0010
0001
1000
0100
1000
0100
0010
0001
1000
0010
1000
0001
,
0010
0100
0010
0001
0010
0100
0010
0001
0010
0100
1000
0001
1000
0010
0100
0001
,
1000
0100
1000
0100
0010
0001
1000
0010
1000
0001
0100
0010
0100
0001
1000
0100
,
0020
0000
0031
1002
0000
0003
2010
0000
,
3001
0000
0000
0000
0000
0000
0001
0000
0000
0000
0000
0000
0001
0000
0000
1000
0100
1000
0100
0000
0000
0010
0000
0000
,
0021
0001
0031
1002
0000
0003
2010
0000
,
0000
0000
0000
0000
,
0000
0000
0000
0000
,
0000
0000
0000
0000
,
3000
0000
0000
0000
;

//---------------dance-single - Gazebo----------------
#NOTES:
     dance-single:
     Gazebo:
     Easy:
     10:
     0.691,0.751,0.069,0.398,0.370,1075.000,17.000,98.000,0.000,0.000:
0002
0000
0000
0203
,
0320
0000
0000
0000
0000
0000
0000
0000
0030
0000
0010
0100
0001
1000
0001
0010
,
0200
0000
0000
0320
,
0032
0000
0000
0000
0000
0000
0000
0000
0000
0000
0000
0000
0000
0000
0000
0000
0000
0000
0000
0000
0000
0000
0000
0000
0003
0000
0000
0000
0000
0000
0001
0000
0000
1000
0000
0000
0010
0000
0000
0100
0000
0000
0010
0000
1000
0000
0001
0000
,
0020
0000
0000
0230
,
2300
0000
3000
0020
,
0230
0000
0000
0302
,
2003
3200
0320
0032
,
1003
0000
0000
0001
0010
0001
0010
0000
0000
0001
0000
0000
0100
0000
0000
0001
0000
0000
1000
0000
0000
0010
0000
0000
,
1000
0000
0000
0001
0100
0001
0100
0000
0000
0010
0000
0000
0100
0000
0000
0001
0000
0000
1000
0000
0000
0001
0000
0000
,
1000
0000
0000
0100
0010
0100
0010
0000
0000
0001
0000
0000
0100
0000
0000
0001
0000
0000
1000
0000
0000
0010
0000
0000
,
1000
0000
0000
0001
1000
0001
1000
0000
0000
0100
0000
0000
0010
0000
0000
0001
0000
0000
1000
0000
0000
0001
0000
0000
,
1000
0000
0000
0010
1000
0010
1000
0000
0000
0001
0000
0000
0100
0000
0000
0001
0000
0000
1000
0000
0000
0100
0000
0000
,
0010
0000
0000
0001
1000
0001
1000
0000
0000
0001
0000
0000
1000
0000
0000
0010
0000
0000
0100
0000
0000
0001
0000
0000
,
1000
0000
0000
0001
0010
0001
0010
0000
0000
0001
0000
0000
0000
0000
0000
0001
0000
0000
0000
0000
0000
0001
0000
0000
,
1000
0000
0000
0000
0000
0000
0010
0000
0100
0000
0010
0000
0100
0000
0000
0000
0000
0000
0001
0000
0000
0100
0000
0000
0001
0000
0000
0000
0000
0000
1000
0000
0000
0000
0000
0000
0100
0000
0000
0000
0000
0000
0010
0000
0000
0000
0000
0000
,
0001
0000
0000
1000
0010
1000
0010
0000
0000
1000
0000
0000
0100
0000
0000
1000
0000
0000
0001
0000
0000
0010
0000
0000
,
0001
0000
0000
1000
0100
1000
0100
0000
0000
0010
0000
0000
0100
0000
0000
1000
0000
0000
0001
0000
0000
1000
0000
0000
,
0001
0000
0000
0100
0010
0100
0010
0000
0000
1000
0000
0000
0100
0000
0000
1000
0000
0000
0001
0000
0000
0010
0000
0000
,
0001
0000
0000
1000
0001
1000
0001
0000
0000
0100
0000
0000
0010
0000
0000
1000
0000
0000
0001
0000
0000
1000
0000
0000
,
0001
0000
0000
0010
0001
0010
0001
0000
0000
1000
0000
0000
0100
0000
0000
1000
0000
0000
0001
0000
0000
0100
0000
0000
,
0010
0000
0000
1000
0001
1000
0001
0000
0000
1000
0000
0000
0001
0000
0000
0010
0000
0000
0100
0000
0000
1000
0000
0000
,
0001
0000
0000
1000
0010
1000
0010
0000
0000
1000
0000
0000
0000
0000
0000
1000
0000
0000
0000
0000
0000
1000
0000
0000
,
0001
0000
0000
0010
0100
0010
0100
0000
0000
0010
0000
0000
0000
0000
0000
0010
0000
0000
0000
0000
0000
0010
0000
0000
,
0000
0000
0000
0000
,
0000
0000
0000
0000
0001
0001
2001
0000
,
3001
0010
0001
0010
0100
0000
1000
0000
0001
0000
1000
0000
0010
0000
0100
0000
,
0001
0010
0001
0010
0100
0000
1000
0000
0001
0000
1000
0000
0010
0000
0100
0000
,
0001
0010
0100
0010
0100
0010
0001
1000
,
0100
0000
1000
0000
0001
0000
0100
0000
0010
1000
0010
0000
1000
0001
1000
0000
,
0100
0010
0100
0010
0001
0000
0100
0010
0100
0010
1000
0000
0001
0000
0010
0000
,
0001
0100
0001
0100
0010
1000
0001
0002
,
1000
0000
1000
0000
1000
0000
1000
0000
1003
0000
0001
1000
0010
0100
0010
1000
,
0020
0000
0000
0000
2030
0001
0001
0001
,
3001
0010
0001
0010
0100
0000
1000
0000
0001
0000
1000
0000
0010
0000
0100
0000
,
0001
0010
0001
0010
0100
0000
1000
0000
0001
0000
1000
0000
0010
0000
0100
0000
,
0001
0010
0100
0010
0100
0010
0001
1000
,
0100
0000
1000
0000
0001
0000
0100
0000
0010
1000
0010
0000
1000
0001
1000
0000
,
0100
0010
0100
0010
0001
0000
0100
0010
0100
0010
1000
0000
0001
0000
0010
0000
,
0001
0100
0001
0100
0010
1000
0001
0002
,
0010
0010
0010
0010
0013
0001
1000
0010
,
0200
0000
0310
0020
0000
0000
1030
1000
,
0002
0000
0000
0023
,
0230
0000
0000
0000
0000
0000
0000
0000
0300
0000
0100
0010
0001
1000
0001
0100
,
0020
0000
0000
0230
,
0302
0000
0000
0000
0000
0000
0000
0000
0000
0000
0000
0000
0000
0000
0000
0000
0000
0000
0000
0000
0000
0000
0000
0000
0003
0000
0000
0000
0000
0000
0001
0000
0000
1000
0000
0000
0100
0000
0000
0010
0000
0000
0100
0000
1000
0000
0001
0000
,
0200
0000
0000
0320
,
2030
0000
3000
0200
,
0320
0000
0000
0032
,
2003
3020
0230
0302
,
1003
0000
0000
0001
0100
0001
0100
0000
0000
0001
0000
0000
0010
0000
0000
0001
0000
0000
1000
0000
0000
0100
0000
0000
,
1000
0000
0000
0001
0010
0001
0010
0000
0000
0100
0000
0000
0010
0000
0000
0001
0000
0000
1000
0000
0000
0001
0000
0000
,
1000
0000
0000
0010
0100
0010
0100
0000
0000
0001
0000
0000
0010
0000
0000
0001
0000
0000
1000
0000
0000
0100
0000
0000
,
1000
0000
0000
0001
1000
0001
1000
0000
0000
0010
0000
0000
0100
0000
0000
0001
0000
0000
1000
0000
0000
0001
0000
0000
,
1000
0000
0000
0100
1000
0100
1000
0000
0000
0001
0000
0000
0010
0000
0000
0001
0000
0000
1000
0000
0000
0010
0000
0000
,
0100
0000
0000
0001
1000
0001
1000
0000
0000
0001
0000
0000
1000
0000
0000
0100
0000
0000
0010
0000
0000
0001
0000
0000
,
1000
0000
0000
0000
0000
0000
0001
0000
0100
0000
0001
0000
0100
0000
0000
0000
0000
0000
0001
0000
0000
0000
0000
0000
0000
0000
0000
0000
0000
0000
0001
0000
0000
0000
0000
0000
2000
0000
0000
0000
0000
0000
0000
0000
0000
3000
0000
0000
,
2000
3200
0320
0032
,
1003
0000
0000
0001
0100
0001
0100
0000
0000
0001
0000
0000
0010
0000
0000
0001
0000
0000
1000
0000
0000
0100
0000
0000
,
1000
0000
0000
0001
0010
0001
0010
0000
0000
0100
0000
0000
0010
0000
0000
0001
0000
0000
1000
0000
0000
0001
0000
0000
,
1000
0000
0000
0010
0100
0010
0100
0000
0000
0001
0000
0000
0010
0000
0000
0001
0000
0000
1000
0000
0000
0100
0000
0000
,
1000
0000
0000
0001
1000
0001
1000
0000
0000
0010
0000
0000
0100
0000
0000
0001
0000
0000
1000
0000
0000
0001
0000
0000
,
1000
0000
0000
0100
1000
0100
1000
0000
0000
0001
0000
0000
0010
0000
0000
0001
0000
0000
1000
0000
0000
0010
0000
0000
,
0100
0000
0000
0001
1000
0001
1000
0000
0000
0001
0000
0000
1000
0000
0000
0100
0000
0000
0010
0000
0000
0001
0000
0000
,
1000
0000
0000
0001
0100
0001
0100
0000
0000
0001
0000
0000
0000
0000
0000
0001
0000
0000
0000
0000
0000
0001
0000
0000
,
0010
0000
0000
0100
1000
0100
1000
0000
0000
1000
0000
0000
0000
0000
0000
1000
0000
0000
0000
0000
0000
0010
0000
0000
,
0100
0010
1000
0010
0100
0010
1000
0010
,
0100
0000
0010
0000
0010
0000
1000
0000
0001
0010
0001
0010
0002
0000
1000
0000
,
1003
0010
1000
0010
0100
0000
0001
0000
1000
0000
0001
0000
0010
0000
0100
0000
,
1000
0010
1000
0010
0100
0000
0001
0000
1000
0000
0001
0000
0010
0000
0100
0000
,
1000
0010
0100
0010
0100
0010
1000
0001
,
0100
0000
0001
0000
1000
0000
0100
0000
0010
0001
0010
0000
0001
1000
0001
0000
,
0100
0010
0100
0010
1000
0000
0100
0010
0100
0010
0001
0000
1000
0000
0010
0000
,
1000
0100
1000
0100
0010
0001
1000
2000
,
0001
0000
0001
0000
0001
0000
0001
0000
3001
0000
1000
0001
0010
0100
0010
0001
,
0020
0000
0000
0000
0000
0000
0000
0000
0032
0000
1000
0000
0000
1000
0000
0000
,
1003
0010
1000
0010
0100
0000
0001
0000
1000
0000
0001
0000
0010
0000
0100
0000
,
1000
0010
1000
0010
0100
0000
0001
0000
1000
0000
0001
0000
0010
0000
0100
0000
,
1000
0010
0100
0010
0100
0010
1000
0001
,
0100
0000
0001
0000
1000
0000
0100
0000
0010
0001
0010
0000
0001
1000
0001
0000
,
0100
0010
0100
0010
1000
0000
0100
0010
0100
0010
0001
0000
1000
0000
0010
0000
,
1000
0100
1000
0100
0010
0001
1000
2000
,
0010
0010
0010
0010
3010
1000
0001
0010
,
0200
0000
0310
0020
0000
0000
0031
0001
,
1000
0002
0203
0320
,
0230
0000
0000
0301
0002
0000
0100
0000
,
1003
0002
0023
0230
,
0320
0000
0000
0031
0002
0000
0010
0000
,
1003
0002
0203
0302
,
2003
0000
0000
3020
2030
0000
3200
0000
,
0320
0000
0000
0000
0000
0000
0000
0000
0000
0000
0000
0000
0000
0000
0130
1000
,
0002
0000
0000
0000
0000
0000
0000
0000
0000
0000
1003
0000
1000
0010
1000
0010
,
0100
0001
0100
0001
2000
0000
3010
2000
,
0000
0000
3001
0002
0000
0000
0013
0200
,
0000
1300
0100
1000
0002
0000
0013
0002
,
0000
0000
1003
2000
0000
0000
3000
0020
,
0000
0000
0230
0000
,
0300
0000
0001
0010
0000
0010
0000
0010
,
0000
0200
0000
0000
0000
2300
0000
0000
,
0000
0000
0000
0000
0000
0000
0000
3001
,
0100
0001
1000
0001
0100
0001
1000
0001
,
0100
0001
0001
1000
0002
0000
0003
1001
,
0011
1000
1100
0001
0101
1000
1010
0001
,
0011
0000
1000
0000
1001
0000
0001
0000
1010
0000
0010
0000
0100
0001
0100
0001
,
1000
0100
1000
0100
0010
0000
0001
0000
1000
0000
0001
0000
0100
0000
0010
0000
,
1000
0100
1000
0100
0010
0000
0001
0000
1000
0000
0001
0000
0100
0000
0010
0000
,
1000
0100
0010
0100
0010
0100
1000
0001
,
0010
0000
0001
0000
1000
0000
0010
0000
0100
0001
0100
0000
0001
1000
0001
0000
,
0010
0100
0010
0100
1000
0000
0010
0100
0010
0100
0001
0000
1000
0000
0100
0000
,
1000
0010
1000
0010
0100
0001
1000
2000
,
0001
0000
0001
0000
0001
0000
0001
0000
3001
0000
1000
0001
0100
0010
0100
0001
,
0200
0000
0000
0000
0302
1000
1000
1000
,
1003
0100
1000
0100
0010
0000
0001
0000
1000
0000
0001
0000
0100
0000
0010
0000
,
1000
0100
1000
0100
0010
0000
0001
0000
1000
0000
0001
0000
0100
0000
0010
0000
,
1000
0100
0010
0100
0010
0100
1000
0001
,
0010
0000
0001
0000
1000
0000
0010
0000
0100
0001
0100
0000
0001
1000
0001
0000
,
0010
0100
0010
0100
1000
0000
0010
0100
0010
0100
0001
0000
1000
0000
0100
0000
,
1000
0010
1000
0010
0100
0001
1000
2000
,
0100
0100
0100
0100
3100
1000
0001
0100
,
0001
0000
0101
0000
0101
0000
1000
0000
1001
0000
0001
0000
1000
0001
1000
0001
,
1000
0010
1000
0010
0100
0000
0001
0000
1000
0000
0001
0000
0010
0000
0100
0000
,
1000
0010
1000
0010
0100
0000
0001
0000
1000
0000
0001
0000
0010
0000
0100
0000
,
1000
0010
0100
0010
0100
0010
1000
0001
,
0100
0000
0001
0000
1000
0000
0100
0000
0010
0001
0010
0000
0001
1000
0001
0000
,
0100
0010
0100
0010
1000
0000
0100
0010
0100
0010
0001
0000
1000
0000
0010
0000
,
1000
0100
1000
0100
0010
0001
1000
2000
,
0001
0000
0001
0000
0001
0000
0001
0000
3001
0000
1000
0001
0010
0100
0010
0001
,
0020
0000
0000
0000
0000
0000
0000
0000
0032
0000
1000
0000
0000
1000
0000
0000
,
1003
0010
1000
0010
0100
0000
0001
0000
1000
0000
0001
0000
0010
0000
0100
0000
,
1000
0010
1000
0010
0100
0000
0001
0000
1000
0000
0001
0000
0010
0000
0100
0000
,
1000
0010
0100
0010
0100
0010
1000
0001
,
0100
0000
0001
0000
1000
0000
0100
0000
0010
0001
0010
0000
0001
1000
0001
0000
,
0100
0010
0100
0010
1000
0000
0100
0010
0100
0010
0001
0000
1000
0000
0010
0000
,
1000
0100
1000
0100
0010
0001
1000
2000
,
0010
0010
0010
0010
3010
1000
0001
0010
,
0200
0000
0310
0020
0000
0000
0031
0001
,
0200
0000
0301
1002
0000
0003
2010
0000
,
3001
0000
0000
0000
0000
0000
0001
0000
0000
0000
0000
0000
0001
0000
0000
1000
0100
1000
0100
0000
0000
0010
0000
0000
,
0021
0001
0031
1002
0000
0003
2010
0000
,
0000
0000
0000
0000
,
0000
0000
0000
0000
,
0000
0000
0000
0000
,
3000
0000
0000
0000
;
