#TITLE:Rose;
#SUBTITLE:NANA Opening 1;
#ARTIST:Tsuchiya Anna;
#TITLETRANSLIT:;
#SUBTITLETRANSLIT:;
#ARTISTTRANSLIT:;
#CREDIT:genrojo;
#BANNER:Nana Opening 1-bn.JPG;
#BACKGROUND:Nana Opening 1-bg1.jpg;
#LYRICSPATH:;
#CDTITLE:genrojo-cdtitle.png;
#MUSIC:Nana Opening 1.mp3;
#OFFSET:2.220;
#SAMPLESTART:44.862;
#SAMPLELENGTH:11.980;
#SELECTABLE:YES;
#BPMS:0.000=86.040,19.000=172.060,53.000=86.040,66.500=172.060;
#STOPS:19.500=0.360
,67.000=0.340
,68.000=0.180
,130.000=0.180
,130.500=0.160
;
#BGCHANGES:0.000=Nana Opening 1-bg1.jpg=1.000=0=0=1,
17.500=Nana Opening 1.avi=1.000=0=0=1,
245.000=Nana Opening 1-bg2.jpg=1.000=0=0=1,
99999=-nosongbg-=1.000=0=0=0 // don't automatically add -songbackground-
;
// cache tags:
#FIRSTBEAT:4.000;
#LASTBEAT:245.000;
#SONGFILENAME:Songs/toune 1 (2010)/Rose [Nana Opening1]/Nana Opening 1.sm;
#HASMUSIC:1;
#HASBANNER:1;
#MUSICLENGTH:96.574;
// end cache tags

//---------------dance-single - ----------------
#NOTES:
     dance-single:
     :
     Easy:
     3:
     0.231,0.285,0.000,0.031,0.000,153.000,0.000,3.000,0.000,0.000:
0000
0000
0000
0000
,
0000
0000
0000
0000
,
0000
0000
0000
0000
,
0000
0000
0000
0000
,
0000
0000
0000
0000
,
0000
0000
0000
0000
,
0000
0000
0000
0000
,
0000
0000
0000
0000
,
0000
0000
0000
0000
,
0000
0000
0000
0000
,
0000
0000
0000
0000
,
0000
0000
0000
0000
,
0000
0000
0000
0000
,
0000
1000
0100
0010
,
1000
0100
0010
0001
,
0100
0010
1000
0100
,
0001
0010
0100
0200
,
0300
0000
1000
0000
,
0100
0000
0010
0000
,
1000
0000
0001
0000
,
0010
0000
1000
0000
,
0001
0000
0100
0000
,
0010
0000
1000
0000
,
0100
0000
0010
0000
,
1000
0000
0001
0000
,
0100
0000
0010
0100
,
1000
0100
0010
1000
,
0000
0100
0000
0100
,
1000
0010
0100
0010
,
1000
0000
0010
0000
,
0100
0010
1000
0001
,
0100
0010
1000
0100
,
0010
1000
0200
0300
,
0010
0100
0001
0010
,
0100
0001
0010
1000
,
0100
0001
0100
0001
,
0100
0010
1000
0100
,
0001
0100
0010
1000
,
0100
0001
0100
0001
,
0010
1000
0100
0010
,
0001
1000
0100
0001
,
0100
0010
1000
0001
,
0100
0010
0001
0100
,
0001
0010
0001
1000
,
0100
0010
0100
0010
,
1000
0100
0001
0100
,
0010
1000
0100
0010
,
1000
0001
0100
0010
,
0100
0001
1000
0100
,
1000
0010
0100
0001
,
0010
0100
0001
1000
,
0010
0100
0001
0010
,
0001
0100
0010
1000
,
0100
0001
0010
0100
,
0001
0100
0010
1000
,
0100
0010
0100
0010
,
1000
0100
0001
1000
,
0200
0000
0000
0000
,
0000
0000
0000
0000
,
0000
0000
0000
0000
,
0000
0000
0000
0000
,
0000
0300
0000
0000
;

//---------------dance-single - Copied from----------------
#NOTES:
     dance-single:
     Copied from:
     Medium:
     6:
     0.371,0.761,0.010,0.704,0.098,182.000,1.000,68.000,0.000,0.000:
0000
0000
0000
0000
,
2000
0000
3020
0000
,
0230
0000
0320
0000
,
0032
0000
0203
0000
,
0320
0000
0000
0000
2030
0000
3100
0010
,
2000
0000
0000
0000
,
3020
0000
0000
0000
,
0032
0000
0000
0000
,
0203
0000
0000
0000
,
2300
0000
0000
0000
,
3020
0000
0000
0000
,
0230
0000
0000
0000
,
0302
0000
0000
0000
,
0003
0000
0000
0000
0100
1000
0000
0010
0000
0200
0000
0300
1000
0000
0100
0010
,
0000
2000
0000
0000
3000
0010
0100
1000
0010
0200
0000
0300
1000
0000
0100
0010
,
0000
0002
0000
0000
0003
0100
0010
1000
0100
0020
0000
0032
0000
0203
0000
0320
,
0000
2030
0000
3200
0000
0000
0300
0000
0000
0000
0100
0000
1000
0000
0010
0000
,
0100
0000
0000
0000
0000
1000
0100
0010
,
0000
0020
0000
0030
1000
0100
1000
0010
,
0000
0200
0000
0300
0000
0001
0010
0100
,
1000
0200
0000
0300
0020
0000
0031
2000
,
0000
3020
0000
0030
0000
0100
1000
0010
,
0001
0100
0000
1000
0100
0020
0000
0230
,
0000
2300
0000
3200
0000
0000
0300
0000
,
0000
0000
0000
0000
,
0000
0000
0000
0000
0000
0000
0001
0100
,
0010
2000
0000
3200
0000
0320
0000
0030
,
0000
0000
0000
0000
0000
0100
0010
0100
,
0001
0020
0000
2030
0000
3002
0000
0013
,
0100
0000
0000
0000
0000
0100
0010
1000
,
0100
0020
0000
0230
0000
0302
0000
0000
,
0023
0000
0030
0200
0000
0000
0000
0000
0000
0000
0000
0000
0000
0000
0000
0000
,
0300
0000
0000
0000
0010
0100
0010
2000
,
0000
0000
0000
0000
,
3000
0000
0001
0100
1000
0000
0010
0000
,
1000
0100
0020
0000
0000
0000
0000
0000
,
0000
0000
0000
0000
0030
0000
1000
0100
,
1000
0000
0010
0100
0001
0010
0100
0000
,
2000
0000
0000
3000
0000
0000
0100
0010
,
0001
0000
0010
0100
1000
0100
0001
0000
,
0100
0000
0011
0000
1000
0000
0010
0200
,
0000
0000
0000
0000
,
0300
0000
0001
0010
0100
0000
0010
0000
,
0100
0010
2000
0000
0000
0000
0000
0000
,
0000
0000
0000
0000
3000
0010
0100
0010
,
0002
0000
2003
0000
3020
0000
0031
0100
,
2000
0000
0000
3000
0000
0000
0100
0010
,
0002
0000
0000
0003
0200
0000
0000
0300
,
0002
0000
0023
0000
0032
0000
1003
0100
,
0000
0000
0000
0000
,
0000
0010
1000
0100
0010
0000
0100
0020
,
0000
0000
0030
0000
,
0000
0100
0010
1000
0002
0000
0203
0000
,
0310
0001
2000
0000
0000
0000
0000
3000
,
0000
0100
0010
0001
0100
0000
0010
2000
,
0000
0000
3000
0000
,
0000
0000
0000
0000
,
0020
0000
0000
0000
,
0000
0000
0000
0230
0000
0000
0000
0000
,
0000
0000
0000
0000
,
0000
0000
0000
0000
,
0000
0300
0000
0000
;

//---------------dance-single - Copied from Copied f----------------
#NOTES:
     dance-single:
     Copied from Copied f:
     Hard:
     8:
     0.725,0.761,0.549,0.942,0.212,346.000,53.000,91.000,0.000,1.000:
0000
0000
0000
0000
,
0200
0000
0000
2300
0000
0000
0000
0000
3002
0000
0000
0023
0000
0000
0000
0000
,
2030
0000
0000
3200
0000
0000
0000
0000
0302
0000
0000
0023
0000
0000
0000
0000
,
0230
0000
0000
0320
0000
0000
0000
0000
2030
0000
0000
3200
0000
0000
0000
0000
,
0302
0000
0000
0023
0000
0000
0000
0000
2030
0000
0000
3200
0301
0000
0110
0000
,
0200
0000
0000
2300
0000
0000
0000
0000
,
3002
0000
0000
0203
0000
0000
0000
0000
,
0320
0000
0000
0230
0000
0000
0000
0000
,
0320
0000
0000
0032
0000
0000
0000
0000
,
0023
0000
0000
0032
0000
0000
0000
0000
,
2003
0000
0000
3200
0000
0000
0000
0000
,
0320
0000
0000
2030
0000
0000
0000
0000
,
3020
0000
0000
0032
0000
0000
1000
0100
,
0003
0000
0000
0000
1000
0100
0000
0011
0000
2000
0000
3000
0110
0000
1000
0001
,
0000
0020
0000
0030
0000
0001
0010
0100
1000
0002
0000
0003
0010
0000
1000
0100
,
0000
0020
0000
0000
0030
0001
1000
0100
0010
2000
0000
3020
0000
0032
0000
0203
,
0000
0320
0000
0032
0000
0000
0000
0003
0000
0000
1000
0000
0110
0000
0001
0000
,
1100
0000
0010
0000
0100
0011
1000
0100
,
1000
0022
0000
0033
0100
0010
0001
1000
,
0100
0022
0000
0033
0000
1000
0100
0001
,
0010
2002
0000
3003
0210
0000
1300
0002
,
0000
0203
0000
0300
0010
1100
0001
0100
,
0010
0001
0100
0011
1000
0002
0000
0023
,
0000
0230
0000
0320
0000
0000
0030
0000
,
1100
0000
0110
0000
,
0011
0000
0000
0000
1010
0000
0110
0001
,
1000
0020
0000
0032
0000
0203
0000
0300
,
0000
0010
0100
0000
0000
0011
1000
0010
,
0100
0002
0000
0023
0000
0230
0000
0301
,
1010
0000
0100
0010
0000
0011
0100
0010
,
0001
2000
0000
3020
0000
0230
0000
0000
,
0302
0000
0003
0220
0000
0000
0000
0000
0000
0000
0000
0000
0000
0000
0000
0000
,
0330
0000
1100
0011
0100
1001
0100
0012
,
0100
0010
1000
0100
0010
0100
1000
0010
,
0103
0010
1000
0010
0001
0100
1000
0100
,
0001
0010
2100
0010
0001
0100
0010
0100
,
0001
0010
0001
0100
3010
0100
0001
0010
,
0100
0010
0001
1000
0100
0001
0010
1000
,
0012
0100
0010
1003
0100
0001
0010
1000
,
0100
0010
0001
1000
0100
0010
0100
0010
,
1000
0100
1010
0100
0011
0100
1001
0120
,
1000
0001
0100
0001
0100
1000
0100
0001
,
0130
1000
0010
0001
1000
0100
0001
0010
,
1000
0100
0012
0100
1000
0010
0100
0010
,
0100
1000
0010
1000
0103
1000
0001
0100
,
0021
0100
0032
0100
2003
0100
3010
0001
,
0120
1000
0100
0031
0100
0010
1000
0100
,
1020
0100
1000
0130
2001
0010
0100
3001
,
0020
1000
0230
0001
2300
0001
3010
0101
,
1010
0000
0000
0110
0000
1100
0000
0011
,
0000
1100
0010
0001
0100
1000
0010
1002
,
0100
0000
0000
0010
0003
1100
0000
0110
,
0000
0011
0100
0010
2000
0100
3020
0001
,
0130
0010
0102
1000
0000
0010
0000
0103
,
0000
0011
0100
0010
1000
0100
0001
0120
,
1000
0000
0000
0100
0030
1001
0000
0110
,
0000
0000
2200
0000
0000
0000
0000
0000
0000
0000
0000
0000
0000
0000
0000
3300
,
0220
0000
0000
0000
,
0000
0000
0000
0000
1330
0001
0100
0010
1000
0000
0010
0100
0001
0000
0100
0010
,
1000
0000
0010
0100
0001
0010
0100
0000
0010
1000
0100
0000
0001
0100
0010
1000
,
0100
0000
0001
0100
1000
0010
0100
0000
0010
0100
0010
0000
0100
0010
0100
1000
,
0020
0030
0000
0000
;

//---------------dance-single - Copied from Copied f----------------
#NOTES:
     dance-single:
     Copied from Copied f:
     Challenge:
     13:
     1.000,1.000,1.000,0.217,1.000,699.000,115.000,21.000,0.000,1.000:
0000
0000
0000
0000
,
1000
0100
0010
0000
0100
0000
0001
0010
0100
0000
1000
0000
0100
0010
0001
0000
0100
0010
0100
0000
1000
0000
0001
0010
0100
0000
1000
0000
0100
0010
0001
0000
,
0100
0010
1000
0000
0100
0000
0010
0001
0010
0000
0100
0000
1000
0100
0010
0000
0100
1000
0100
0000
0010
0000
0001
0010
0100
0000
1000
0100
0010
0000
0100
0000
,
0010
0100
1000
0000
0100
0000
0001
0010
0001
0000
0100
0000
0010
0001
0100
0000
0010
0100
1000
0000
0100
0000
0010
0001
0010
0000
0100
0000
1000
0100
0010
0000
,
1000
0100
0010
0000
0001
0000
0100
0010
0100
0000
1000
0000
0010
0001
0010
0000
0100
1000
0100
0000
0010
0000
1000
0100
0011
0000
0000
0000
1100
0000
0000
0000
,
0011
0100
1000
0000
0010
0000
0100
0010
0100
0000
0001
0000
0010
0100
1000
0000
,
0011
0100
0010
0000
1000
0000
0001
0010
0100
0000
0010
0000
1000
0100
0010
0000
,
1100
0010
0001
0000
0100
0000
0010
0100
1000
0000
0010
0000
0001
0100
0010
0000
,
1001
0100
0010
0000
0100
0000
0010
1000
0100
0000
0010
0000
0001
0100
1000
0000
,
0110
0001
0010
0000
0100
0000
0010
1000
0100
0000
0010
0000
0100
0010
0001
0000
,
1100
0010
0100
0000
0001
0000
0010
0100
1000
0000
0010
0000
0100
0010
0001
0000
,
1100
0010
0100
0000
0001
0000
0010
0001
0010
0000
0100
0000
1000
0100
0010
0000
,
0101
1000
0100
0000
0010
0000
0100
0010
1000
0000
0100
0000
0011
1000
0011
0000
,
2200
3300
0000
0000
0020
0030
0000
0000
0002
0003
0000
0000
0200
0300
0000
0000
1000
0000
0000
0000
0010
0000
0000
0000
0100
0000
0000
0000
1001
0000
0000
0000
0100
0000
0000
0000
0010
0000
0000
0000
0001
0000
0000
0000
1000
0000
0000
0000
0011
0000
0000
0000
0100
0000
0000
0000
0010
0000
0000
0000
1000
0000
0000
0000
,
0100
0011
0100
0010
1000
0100
0001
0010
0100
1010
0001
0100
1000
0010
0101
1000
,
0100
0001
0010
1100
0010
0100
0001
0010
0100
0011
0100
1000
0010
0100
0001
1000
,
0110
0001
0010
0100
0010
1000
0011
0100
1000
0010
0101
0000
1100
0000
0110
0000
,
1001
0000
0010
0000
0100
0000
1000
0000
0100
0000
0010
0000
0001
0000
0000
0000
0000
0000
1000
0000
0000
0000
0000
0000
0001
0000
0000
0000
0000
0000
0110
0000
0000
0000
0000
0000
0001
0000
0000
0000
0000
0000
1000
0000
0000
0100
0000
0000
,
0010
0001
0100
0000
0010
0000
1000
0000
0011
0000
0100
0000
0010
0000
0100
0010
,
0001
0010
0100
0000
1000
0000
0010
0000
0101
0000
0010
0000
0001
0000
1000
0000
,
0010
0001
0010
0100
1000
0000
0011
0000
1000
0000
0100
0000
0011
0000
0100
0000
,
0010
0100
1000
0100
0010
0000
0001
0000
0100
0000
1001
0000
0010
0000
1000
0000
,
0001
0010
0100
0010
0100
0000
1010
0000
0001
0000
0110
0000
1000
0000
0011
0000
,
0100
0010
0100
1000
0100
0000
0011
0000
0100
0000
0010
0000
1000
0100
0010
0001
,
0110
1000
0100
0010
0101
0010
0100
0010
,
1001
0000
0000
0100
0000
0000
0010
0000
0000
1000
0000
0000
0100
0000
0000
0010
0000
0000
0001
0000
0000
0000
0000
0000
0100
0000
1000
0000
0100
0000
0010
0000
0000
0000
0000
0000
0001
0000
0000
0000
0000
0000
0110
0000
0000
0000
0000
0000
,
0001
1100
0010
0100
0001
1000
0110
0001
,
1000
0000
0000
0001
0000
0000
1100
0000
0000
0010
0100
1000
0100
0000
0000
1001
0000
0000
0100
0000
0000
0001
0000
0000
,
0010
1100
0010
0001
0100
0010
1001
0100
,
0011
0000
0000
1000
0000
0000
0010
0100
1000
0100
0000
0000
0010
0000
0000
1100
0000
0000
0010
0000
0000
0001
0000
0000
,
0100
0011
0100
1000
0001
1010
0100
0001
,
1100
0000
0010
1100
0010
0001
0100
0010
1000
0000
0100
0000
0010
0000
1000
0000
,
0011
0000
1000
0000
0110
0001
1010
0000
0011
0000
1100
0000
0011
0000
1002
0100
,
0010
0100
1000
0000
0010
0000
1000
0000
0100
0000
0010
0000
0100
0000
1000
0000
,
0013
0000
0100
0010
0001
0010
0100
0000
1010
0000
0001
0000
0010
0000
1100
0000
,
0010
0000
0001
0000
0120
0001
0100
1000
0100
0000
0001
0000
0100
0000
1000
0000
,
0100
0000
0001
0000
1000
0000
0001
0000
0130
0000
1000
0100
0010
0001
0010
0000
,
1100
0001
0100
0010
0100
0001
1100
0010
,
1000
0000
0011
0000
0100
0010
0001
0010
0100
0000
1010
0000
0001
0000
0100
0000
,
0010
0000
0001
0000
0110
0000
0001
0000
1000
0000
0011
0000
1000
0100
0010
0001
,
0110
0000
0001
0000
0110
0000
1000
0000
0110
0000
1001
0110
1001
0110
1002
0100
,
1000
0100
0010
0000
1000
0000
0100
0000
0010
0000
1000
0000
0010
0100
1000
0100
,
0013
0000
1100
0000
0001
0000
0100
0000
0010
0100
1000
0100
0010
0000
0101
0000
,
0010
0000
1000
0000
0210
0001
0010
1000
0010
0000
0001
0000
1000
0000
0001
0000
,
0010
0000
0001
0010
1000
0010
0001
0000
0310
0000
1100
0000
0010
0000
1000
0000
,
0110
1000
0100
0010
1001
0000
0010
0000
0011
0100
1000
0100
0010
0000
1100
0000
,
0012
0100
1000
0100
0010
0000
0103
0000
1000
0000
0001
0000
0110
0001
0010
0100
,
1002
0000
0010
0000
0100
0000
0013
0000
1200
0010
0001
0010
1000
0000
0310
0000
,
1001
0000
0100
0000
0011
0000
0100
0000
0011
0100
1000
0100
0011
0000
1100
0000
,
0011
0100
1010
0000
0100
0000
0011
0100
1000
0000
0110
1000
0001
0000
0110
0001
,
0100
1100
0001
0100
0011
0100
1000
0021
,
1000
0100
1000
0000
0100
0000
0001
0100
1030
0000
0110
0001
0010
0000
1100
0010
,
0001
0110
0001
1000
0012
1000
0123
1000
,
0031
0100
1000
0000
0021
0000
0100
1000
0100
0000
1000
0100
0001
0000
1030
0100
,
0010
1100
0001
1000
0110
0001
1000
0201
,
0010
0001
0010
0000
1000
0000
0010
1000
0310
0000
0011
0100
1000
0000
1001
0100
,
0010
0000
0101
0010
1000
0100
0010
0000
0100
0010
1000
0000
0010
0001
0100
0000
,
0022
0000
0000
0000
0000
0000
0000
0000
0000
0000
0000
0000
0000
0000
0000
0030
0000
0000
0000
0000
0000
0100
1000
0100
,
0010
0000
0000
0010
0100
0010
1003
0000
0000
0001
0010
0100
1000
0000
0000
0010
0100
0010
0001
0000
0000
0100
0010
0001
,
0010
0000
0000
0100
1000
0100
0010
0001
0010
0100
0000
0000
0010
0100
0010
0100
0000
0000
0001
0010
0100
1000
0100
0010
,
0001
0000
0000
0100
0010
0100
1000
0000
0000
0100
0010
0001
0010
0000
0000
0100
1000
0100
0010
0001
0010
0100
0000
0000
,
0010
0100
1000
0220
0000
0000
0330
0000
0000
0000
0000
0000
0000
0000
0000
0000
0000
0000
0000
0000
0000
0000
0000
0000
;
