#TITLE:Superstar;
#SUBTITLE:[Ex-RaVe Originals];
#ARTIST:ToyBox;
#TITLETRANSLIT:;
#SUBTITLETRANSLIT:;
#ARTISTTRANSLIT:;
#CREDIT:;
#BANNER:;
#BACKGROUND:;
#LYRICSPATH:;
#CDTITLE:;
#MUSIC:01 - Superstar.ogg;
#OFFSET:-0.218;
#SAMPLESTART:43.643;
#SAMPLELENGTH:8.640;
#SELECTABLE:YES;
#BPMS:0.000=140.000;
#STOPS:;
#BGCHANGES:;
// cache tags:
#FIRSTBEAT:5.000;
#LASTBEAT:389.000;
#SONGFILENAME:Songs/lvsb tourney pack/Superstar-ITGREADY/Superstar.sm;
#HASMUSIC:1;
#HASBANNER:0;
#MUSICLENGTH:105.000;
// end cache tags

//---------------dance-single - Blank----------------
#NOTES:
     dance-single:
     Blank:
     Challenge:
     10:
     1.000,1.000,0.648,0.514,0.729,786.000,68.000,54.000,25.000,0.000:

0000
0000
0000
0000
,
0000
0000
0000
0000
2001
0000
3000
0000
2100
0000
3000
0100
0010
0000
0001
0000
,
0100
0000
0100
0010
1000
0000
1000
0000
0100
0000
0100
0010
0001
0000
0001
0000
,
0100
0000
0000
0000
0120
0000
0030
0000
1020
0000
0030
1000
0100
0000
0100
0000
,
0010
0000
0010
0001
0100
0000
0100
0000
0010
0000
1000
0000
2002
0000
3003
0000
,
0000
0000
0000
0000
2100
0000
3000
0000
0120
0000
0030
0001
0100
0000
0100
0000
,
0010
0000
0010
1000
0100
0000
0100
0000
0010
0000
0010
0001
0100
0000
0100
0000
,
0101
0000
0000
0000
1020
0000
0030
0000
2100
0000
3000
0100
0010
0000
0010
0000
,
0001
0000
0001
0100
0010
0000
0010
0000
1000
0000
0100
0000
2200
0000
3300
0000
,
0000
0000
0000
0000
0001
0000
0100
0000
0010
0000
1000
0100
0000
0100
1000
0000
,
0100
0000
1000
0000
0010
0000
0100
0000
0001
0000
0100
0001
0000
0001
0100
0000
,
0001
0000
0010
0000
0100
0000
1000
0000
0010
0000
1000
0010
0000
0010
1000
0000
,
0100
0000
1000
0000
0010
0000
0100
0000
0001
0000
0010
0100
2000
0000
0000
0000
,
3100
0000
M000
0000
0010
0000
0001
0000
0100
0000
0010
1000
0000
1000
0100
0000
,
1000
0000
0001
0000
0010
0000
0100
0000
1000
0000
0010
0100
0000
0100
0001
0000
,
0010
0000
0100
0000
1000
0000
0010
0000
0100
0000
0001
0010
0000
0010
0100
0000
,
1000
0000
1000
0000
0100
0000
0010
0000
0001
0000
0100
0002
2000
0000
0000
0000
,
3003
1001
4000
3400
,
0340
0000
MM30
MMM1
0000
0100
0010
1000
,
1100
0000
0110
0000
0040
0000
0031
0100
,
0040
0000
2030
0000
3100
0020
0000
0031
,
0200
0000
0000
0300
0010
0000
1000
0000
0100
0000
0010
0000
0001
0000
0100
0000
,
0010
1000
0100
0010
0001
1000
0010
0100
,
0001
0010
0100
1000
0001
0100
0010
1000
,
0001
0010
0100
1000
0001
0100
0100
0100
,
0010
1000
1100
0100
0010
0001
0011
0010
,
0001
0100
0101
0100
0010
1000
1010
0010
,
1000
0100
1100
0100
0010
0001
0101
0000
,
0001
1000
1010
1000
0100
0110
0100
0010
,
0101
0000
0000
0000
1001
0000
0001
0100
0001
0000
0100
0010
0100
0000
0010
0000
,
1000
0000
0010
1000
0100
1000
0100
1000
0001
0000
0010
0001
0100
0001
0100
0001
,
1000
0000
0100
0000
0010
0000
0001
0100
0001
0000
0100
0010
0100
0000
0010
0000
,
1000
0000
0000
0000
0000
0000
0100
0000
0000
1000
0000
0000
0100
0000
0000
0000
0000
0000
0010
0000
0000
0001
0000
0000
0010
0000
0000
0001
0000
0000
0010
0000
0000
0002
0000
0000
2000
0000
0000
0000
0000
0000
0000
0000
3003
0000
0000
0000
,
0000
0000
0000
0000
1000
0000
0100
0010
0001
0000
0001
0100
0010
0000
0010
0000
,
1000
0000
1000
0100
1000
0100
1000
0100
0010
0000
0001
0100
0001
0100
0001
0100
,
0010
0000
1000
0000
0100
0000
1000
0100
1000
0000
0100
0010
0100
0000
0010
0000
,
0001
0000
0100
0001
0100
0010
1000
0010
1000
0000
0100
0000
1100
0000
0000
0000
,
00MM
0000
0000
0000
1000
0000
0100
0000
0010
0000
0001
0100
0000
0100
0001
0000
,
0100
0000
0010
0000
1000
0000
0100
0000
0010
0000
0001
0010
0000
0010
0001
0000
,
0100
0000
0001
0000
0010
0000
0100
0000
1000
0000
0010
1000
0000
1000
0010
0000
,
0100
0000
0010
0000
1000
0000
0100
0000
0010
0000
0001
0100
0020
0000
0000
0000
,
1030
0000
00M0
0000
0010
0000
1000
0000
0100
0000
0010
0001
0000
0001
0100
0000
,
0010
0000
1000
0000
0001
0000
0010
0000
0100
0000
1000
0010
0000
0010
0100
0000
,
0001
0000
1000
0000
0100
0000
0010
0000
0001
0000
0100
0010
0000
0010
1000
0000
,
0001
0000
0010
0000
0100
0000
1000
0000
0010
0000
0100
0002
2000
0000
0000
3003
,
0000
0000
1001
0000
1000
0100
0040
0000
,
0034
0000
MMM3
M1MM
0000
0001
1000
0100
,
0010
0000
0101
0000
0010
1000
0004
0000
,
0043
0000
0230
0000
1300
0020
0000
0130
,
0002
0000
0013
0001
0100
0001
1000
0001
,
0010
0100
1000
0010
0100
0001
0100
0010
,
1000
0001
0010
0100
1000
0001
0100
0010
,
1000
0100
0010
0001
0100
0010
1000
0001
,
0010
0100
1100
0100
1000
0010
1010
0010
,
0100
0001
0101
0100
0001
0010
0011
0010
,
0100
1000
1100
0100
1000
0010
1010
0000
,
0010
0100
0101
0100
0001
0011
0010
0100
,
1100
0000
0000
0000
1001
0000
1000
0001
1000
0000
0100
0010
0100
0000
0010
0000
,
0001
0000
0100
0001
0100
0001
0100
0001
1000
0000
0100
1000
0100
1000
0100
1000
,
0001
0000
0001
0000
0100
0000
0010
1000
0010
0000
1000
0100
1000
0000
0100
0000
,
0010
0000
0001
0100
0001
0000
0100
0010
0100
0010
0100
0010
2000
0000
0000
0000
,
3MMM
0000
0000
0000
1100
0000
1000
0100
1000
0000
0100
0010
0100
0000
0010
0000
,
0001
0000
0100
0010
0100
0010
0100
0010
1000
0000
0100
0010
0100
0010
0100
0010
,
0001
0000
0100
0000
0010
0000
1000
0001
1000
0000
0001
0010
0001
0000
0010
0000
,
0100
0000
1000
0010
1000
0000
0100
1000
0100
1000
0100
2000
0002
0000
0000
0000
,
3003
0000
0000
0000
1000
0000
0100
0000
0010
0000
0001
0100
0000
0100
0001
0000
,
0100
0000
0010
0000
1000
0000
0100
0000
0010
0000
0001
0010
0000
0010
0001
0000
,
0100
0000
0010
0000
1000
0000
0001
0000
0010
0000
0100
1000
0000
1000
0100
0000
,
0010
0000
0001
0000
0100
0000
0010
0000
1000
0000
0100
0010
0002
0000
0000
0000
,
0103
0000
000M
0000
0010
0000
1000
0000
0001
0000
0010
0100
0000
0100
1000
0000
,
0100
0000
1000
0000
0001
0000
1000
0000
0010
0000
1000
0010
0000
0010
0100
0000
,
0001
0000
1000
0000
0001
0000
0010
0000
0100
0000
1000
0010
0000
0010
0100
0000
,
0001
0000
1000
0000
0100
0000
0010
0000
0001
0000
0100
0002
2000
0000
0000
0000
,
3003
0000
0010
2000
0100
3100
0020
0001
,
0031
0000
0001
0200
0010
0310
2000
0100
,
3100
0000
0010
0001
0101
0101
0010
1000
,
1100
0000
1100
0000
0000
1000
0000
0100
0010
0000
0001
0000
0200
0000
0000
0000
,
0301
0M00
0010
0002
0400
0003
0320
4000
,
0030
3000
0010
2000
0400
3000
0310
0001
,
0101
0000
0101
0100
0110
0010
1010
1000
,
1100
0000
0000
0000
1000
0100
0010
0001
1000
0001
0100
0010
1000
0001
0010
0100
,
1000
0000
0000
0000
2001
0000
3000
0000
2100
0000
3000
0100
0010
0000
0001
0000
,
0100
0000
0100
0010
1000
0000
1000
0000
0100
0000
0100
0010
0001
0000
0001
0000
,
0101
0000
0000
0000
0120
0000
0030
0000
2010
0000
3000
0010
1000
0000
1000
0000
,
0100
0000
0100
0010
0001
0000
0100
0000
0010
0000
1000
0000
2002
0000
0000
0000
,
3MM3
0000
0000
0000
1200
0000
0300
0000
0210
0000
0300
0010
0001
0000
0001
0000
,
0100
0000
0010
1000
0100
0000
0100
0000
0010
0000
0010
0001
0100
0000
0010
0000
,
1010
0000
0000
0000
0021
0000
0030
0000
0120
0000
0030
0100
1000
0000
1000
0000
,
0010
0000
0100
0001
0010
0000
0100
0000
1000
0000
0001
0000
2002
0000
0000
0000
,
3MM3
0000
0000
0000
1001
0000
0001
1000
0100
0000
0100
0010
0001
0000
0001
0000
,
0100
0000
0010
0100
0010
0100
0010
0100
0001
0000
0010
0100
0010
0100
0010
0100
,
1000
0000
0100
0000
1000
0000
0010
0100
0001
0000
0001
0010
0100
0000
0100
0000
,
1000
0000
0100
1000
0100
0000
1000
0010
1000
0010
1000
0010
0200
0000
0000
0000
,
0301
0000
0M00
0000
0011
0000
0010
0100
1000
0000
1000
0001
0100
0000
0100
0000
,
0010
0000
0010
1000
0010
1000
0010
1000
0100
0000
0010
0001
0010
0001
0010
0001
,
0100
0000
0010
0000
0110
0000
0100
0010
1000
0000
1000
0100
0010
0000
0010
0000
,
0001
0000
0100
0010
1000
0000
1000
0100
0010
0001
0010
0001
0200
0000
0000
0000
,
0000
0300
0101
0000
0000
0000
0000
0000
;
