#TITLE:Vengance Is Mine;
#SUBTITLE:;
#ARTIST:Jun + Takeshi;
#TITLETRANSLIT:;
#SUBTITLETRANSLIT:;
#ARTISTTRANSLIT:;
#CREDIT:;
#BANNER:vim.png;
#BACKGROUND:vim-bg.png;
#LYRICSPATH:;
#CDTITLE:;
#MUSIC:vim.mp3;
#OFFSET:0.000;
#SAMPLESTART:38.604;
#SAMPLELENGTH:11.850;
#SELECTABLE:YES;
#BPMS:0.000=168.000;
#STOPS:;
#BGCHANGES:;
// cache tags:
#FIRSTBEAT:23.500;
#LASTBEAT:208.750;
#SONGFILENAME:Songs/Chaomix Pack One/Vengance Is Mine/vim.sm;
#HASMUSIC:1;
#HASBANNER:1;
#MUSICLENGTH:76.229;
// end cache tags

//---------------dance-single - E. Holniker----------------
#NOTES:
     dance-single:
     E. Holniker:
     Challenge:
     12:
     1.000,1.000,0.433,0.945,0.669,435.000,33.000,72.000,5.000,1.000:




0000
0000
0000
0000
,
0000
0000
0000
0000
,
0000
0000
0000
0000
,
0000
0000
0000
0000
,
0000
0000
0000
0000
,
0000
0000
0000
0000
,
0000
0000
0000
0000
1000
0000
0010
0000
0100
0000
0001
1000
0000
0100
0010
0000
,
0011
0000
0100
0000
1000
0000
0010
0000
0100
0000
0010
0000
1000
0000
0100
1000
,
0100
0010
0001
0010
0100
0010
0100
0000
1000
0000
0010
0000
0100
0000
0010
0000
,
0001
0000
0010
0100
0010
1000
0100
0010
0100
0000
0010
0000
2100
0000
0100
0000
,
3100
0000
0010
0001
0010
0100
0010
0000
0100
0000
1000
0000
0010
0000
0100
0000
,
0010
0000
0001
0010
0100
0010
1000
0100
0010
0100
0010
0000
0100
0000
0101
0000
,
0000
0000
0001
1000
0010
0000
0100
0000
0010
0000
0001
0010
0100
0010
1000
0100
,
0010
0100
0010
0100
0000
0100
0010
0100
1000
0000
0010
0000
1000
0100
1000
0000
,
1100
0200
0320
0032
0023
0032
0023
0230
,
0320
0000
0230
0000
2300
0000
3020
0000
2030
0000
3020
0000
0230
0020
0300
0030
,
0220
0000
0000
0330
0001
0000
1000
0000
0100
0000
0010
0001
0010
0100
1000
0100
,
0010
0100
0010
0000
0100
0000
0101
0000
0000
0000
0001
1000
0010
0100
0010
0100
,
0010
0001
0020
0000
2030
0000
3020
0000
0230
0000
0320
0000
0032
0000
0023
0000
,
2030
0000
3200
0000
0320
0000
0230
0000
0320
0000
0032
0000
2003
0020
3030
0000
,
2002
0000
3003
0000
0100
0000
0010
0000
1000
0000
0100
0000
0010
0000
0001
0010
,
0100
1000
0010
0100
0010
0001
0010
0000
0100
0000
0010
0000
0110
0000
0010
0000
,
1010
0000
1000
0000
0100
0000
0010
0000
0001
0000
0010
0100
1000
0100
1000
0010
,
0100
0010
0100
0000
0010
0000
0011
0000
0010
0000
0100
0010
1000
0100
0010
0100
,
0010
0100
0001
0000
0100
0000
0110
0000
0100
0000
1000
0001
1000
0010
0100
0010
,
0100
0010
0001
0000
0010
0000
0110
0000
0010
0000
1000
0100
1000
0100
0010
0100
,
0010
0100
0001
0000
0100
0000
0101
0000
0100
0000
1000
0001
1000
0010
0100
0010
,
0100
0010
0001
0000
0010
0000
1010
0000
0010
0000
1000
0000
2010
0000
0010
0000
,
3010
00M0
0000
0000
0000
0000
0000
0000
,
0000
0000
0000
0000
,
1000
0000
0100
0000
0000
0010
0000
0000
0100
0000
0001
0000
1000
0000
0100
0010
,
0001
0010
0100
0000
1000
0000
1010
0000
0010
0000
0100
0000
0010
0000
0001
0000
,
0010
0100
0010
1000
0010
0000
1100
0000
0100
0000
0010
0000
0001
0000
0010
0000
,
0100
0010
0100
0010
0100
0000
1100
0000
0100
0000
0010
0000
0021
0000
0001
0000
,
0031
0000
0010
0000
0100
0000
1000
0000
0010
0000
0100
0010
0001
0010
0001
0010
,
0100
0010
1000
0000
0010
0000
1100
0000
0100
0000
0010
0000
0001
0000
0011
0000
,
0100
0000
0010
0000
0100
0000
1000
0000
0010
0000
0100
0010
0100
0010
0001
0010
,
0001
0010
0100
0000
0010
0000
1010
0000
0010
0000
1000
0000
2010
0000
0010
0000
,
3010
0200
0302
2003
3200
0320
0032
0023
,
0230
0000
2300
0000
3020
0000
0230
0000
0320
0000
0230
0000
2300
0020
3000
0030
,
0220
0000
0331
0000
1000
0000
0100
0000
0010
0000
0001
0010
0100
1000
0100
0010
,
0100
0010
0100
0001
0100
0010
0100
0000
1000
0000
0001
0000
1000
0000
1001
0000
,
0000
2000
3002
2003
3020
2030
3020
2030
,
3020
0000
0230
0000
0320
0000
0230
0000
0320
0000
0032
0000
0023
0002
0030
0003
,
2002
0000
0000
3003
0000
0000
0010
0000
1000
0000
0100
0000
0010
0000
0001
0000
,
0011
0000
0010
0100
1000
0010
0100
0010
,
0110
0000
1000
0000
0100
0000
0010
0000
0001
0000
0010
0000
0100
0000
1000
0100
,
0010
0001
0010
0100
1000
0000
1100
0000
0100
0000
0010
0000
0001
0000
0011
0000
,
0000
0000
1000
0000
0010
0000
0100
0000
0010
0000
0001
0010
0100
0010
1000
0010
,
1000
0010
0000
0010
0000
0000
0110
0000
0010
0000
1000
0000
0001
0000
1001
0000
,
0100
0000
1000
0000
0100
0000
0110
0000
0100
0000
0010
0100
1000
0100
0010
0100
,
0010
0100
0001
0100
0010
0100
0010
0100
1000
0100
1000
0010
1000
0010
1000
0010
,
1000
0010
MM1M
00M0
0000
0000
0000
0000
0000
0000
0000
0000
0000
0000
0000
0000
;

//---------------dance-single - E. Holniker----------------
#NOTES:
     dance-single:
     E. Holniker:
     Hard:
     8:
     0.521,0.580,0.249,0.354,0.020,232.000,19.000,27.000,16.000,0.000:



0000
0000
0000
0000
,
0000
0000
0000
0000
,
0000
0000
0000
0000
,
0000
0000
0000
0000
,
0000
0000
0000
0000
,
0000
0000
0000
0000
,
0000
1000
0000
0010
0100
0000
0010
0000
,
1000
0100
0000
0010
0202
0000
0000
0000
,
0303
0010
0000
0100
1000
0000
0010
0000
,
0100
0010
0000
0001
0010
0000
0010
0100
,
0010
0100
0000
1000
0010
0000
0100
0000
,
0001
0100
0000
0010
2020
0000
0000
0000
,
3030
0100
0000
0010
1000
0000
0100
0000
,
0010
0001
0000
0010
0001
0000
0011
0010
,
0010
0100
1000
0010
0100
0010
0100
0010
,
0001
0010
0001
0010
0100
0010
1000
0010
,
1000
0010
0000
1000
0001
0000
0100
0000
,
0100
0010
0000
0100
0220
0000
0000
0000
,
0330
0000
1000
0100
1000
0100
1000
0100
,
0010
0100
0001
0100
0010
0100
0010
0100
,
1000
0100
0000
1000
0010
0000
1000
0000
,
0010
0100
0000
0010
0022
0000
0000
0000
,
0033
0010
0000
1000
0100
0000
1000
0000
,
0100
0010
0000
0100
0110
0000
2001
0001
,
3001
0100
0000
0010
0100
0000
0010
0000
,
1000
0100
0000
1000
2020
0000
0000
0000
,
3030
0001
0000
0010
0100
0000
0010
0000
,
0100
1000
0000
0010
1000
0000
2010
0010
,
3010
0100
0000
0000
0002
0000
0000
0000
,
2000
0000
0000
0000
0000
0000
0000
3003
,
0000
1000
0000
0010
0100
0000
0010
0000
,
1000
0100
0000
0010
0220
0000
0000
0000
,
0330
1000
0000
0001
0100
0000
0010
0000
,
1000
0100
0000
0010
0001
0000
0021
0001
,
0031
0100
0000
1000
0010
0000
0100
0000
,
0010
1000
0000
0100
2020
0000
0000
0000
,
3030
0010
0000
0001
0010
0000
0100
0000
,
1000
0010
0000
0100
0110
0000
1020
1000
,
1030
0100
0010
0001
0010
0100
0010
0100
,
1000
0010
1000
0010
1000
0010
0100
0010
,
0001
0010
0000
0100
0010
0000
1000
0000
,
0100
0010
0000
0100
2200
0000
0000
0000
,
3300
0001
0100
0010
1000
0100
0010
0100
,
0001
0100
0010
0100
1000
0010
1000
0010
,
0100
0010
0000
0100
0010
0000
1000
0000
,
0100
1000
0000
0100
2200
0000
0000
0000
,
3300
0010
0000
0001
0010
0000
0100
0000
,
0010
0000
0100
0000
0000
0000
1000
0000
1010
0000
0000
0000
M01M
0M0M
MMMM
M0MM
,
MMMM
00M0
0100
0000
0000
0000
0001
0000
0100
0000
0000
0000
0010
0000
0000
0000
,
1000
0100
0000
0010
0202
0000
0000
0000
,
0303
1000
0000
0001
0100
0000
0010
0000
,
1000
0100
0000
1000
0001
0000
2001
0001
,
3001
0000
0000
0000
;

//---------------dance-single - E. Holniker----------------
#NOTES:
     dance-single:
     E. Holniker:
     Medium:
     4:
     0.313,0.375,0.039,0.079,0.000,158.000,3.000,6.000,0.000,0.000:






0000
0000
0000
0000
,
0000
0000
0000
0000
,
0000
0000
0000
0000
,
0000
0000
0000
0000
,
0000
0000
0000
0000
,
0000
0000
0000
0000
0000
0000
0000
1000
,
0000
0000
0000
0010
0000
0000
0000
0100
,
0000
0000
0000
0001
0000
0000
0000
1000
,
0000
0000
0000
0100
0000
0000
0000
0010
,
0000
0000
0000
0001
0000
0000
0000
0010
,
0000
0000
0000
0100
0000
1000
0000
0100
,
0000
1000
0000
0000
0000
0010
0000
0000
,
0000
0100
0000
0010
0000
0100
0000
0010
,
0000
0100
0000
0000
0000
0010
0000
0000
,
0000
1000
0000
0100
0000
1000
0000
0100
,
0000
1000
0000
0100
0000
1000
0000
0000
,
0000
0001
0000
0100
0000
0001
0000
0100
,
0000
0010
0000
0100
0000
0010
0000
0000
,
0000
1000
0000
0100
0000
0010
0000
0100
,
0000
0001
0000
0100
0000
0010
0000
0000
,
0000
0001
0000
1000
0000
0010
0000
0100
,
0000
0010
0000
0001
0000
0010
0000
0000
,
0000
1000
0000
0100
0000
0010
0000
0100
,
0000
0001
0000
0100
0000
0010
0000
0000
,
0000
0010
0000
1000
0000
0010
0000
0100
,
0000
0010
0000
0001
0000
0010
0000
0100
,
0000
0110
0000
0010
0000
1000
0000
0100
,
0000
0010
0000
0100
0000
0001
0000
1100
,
0000
2200
0000
0000
0000
0000
0000
0000
,
0000
0000
0000
3300
,
2000
3002
0003
1000
0000
0010
0000
0100
,
0000
0010
0000
1000
0000
0010
0000
0100
,
0000
0001
0000
1000
0000
0010
0000
0100
,
0000
0010
0000
1000
0000
0100
0000
1000
,
0000
0100
0000
1000
0000
0100
0000
0010
,
0000
0001
0000
0010
0000
0001
0000
0010
,
0000
0100
0000
0010
0000
0100
0000
1000
,
0000
0010
0000
0100
0000
0010
0000
0001
,
0000
0010
0000
0100
0000
0010
0000
0000
,
0000
1000
0000
0100
0000
1000
0000
0000
,
0000
0001
0000
0010
0000
0100
0000
0010
,
0000
0100
0000
1000
0000
0010
0000
0100
,
0000
0010
0000
0100
0000
0010
0000
0000
,
0000
0001
0000
0010
0000
0001
0000
0000
,
0000
0010
0000
1000
0000
0100
0000
0010
,
0000
0001
0000
0010
0000
0100
0000
0010
,
0000
0100
0000
1000
0000
0010
0000
0100
,
0000
0010
0000
0001
0000
0010
0000
1000
,
0000
0100
0000
1000
0000
0100
0000
0010
,
0000
0100
0000
0010
0000
0001
0000
0010
,
0000
0001
0000
0010
0000
0100
0000
0010
,
0000
1000
0000
0001
1000
0002
2000
0000
,
3003
0000
0000
0000
;

//---------------dance-single - E. Holniker----------------
#NOTES:
     dance-single:
     E. Holniker:
     Easy:
     2:
     0.251,0.307,0.039,0.052,0.000,127.000,3.000,4.000,0.000,0.000:

0000
0000
0000
0000
,
0000
0000
0000
0000
,
0000
0000
0000
0000
,
0000
0000
0000
0000
,
0000
0000
0000
0000
,
0000
0000
0000
0000
0000
0000
0000
1000
,
0000
0000
0000
0000
0000
0000
0000
0100
,
0000
0000
0000
0000
0000
0000
0000
1000
,
0000
0000
0000
0000
0000
0000
0000
0010
,
0000
0000
0000
0000
0000
0000
0000
0010
,
0000
0000
0000
0100
0000
1000
0000
0100
,
0000
0000
0000
0000
0000
0010
0000
0000
,
0000
0100
0000
0010
0000
0100
0000
0000
,
0000
0000
0000
0010
0000
0000
0000
0000
,
0000
1000
0000
0100
0000
1000
0000
0000
,
0000
1000
0000
0100
0000
1000
0000
0000
,
0000
0001
0000
0100
0000
0001
0000
0000
,
0000
0010
0000
0100
0000
0010
0000
0000
,
0000
1000
0000
0100
0000
0010
0000
0000
,
0000
1000
0000
0100
0000
1000
0000
0000
,
0000
0001
0000
0100
0000
0001
0000
0000
,
0000
0010
0000
1000
0000
0010
0000
0000
,
0000
0010
0000
0100
0000
0010
0000
0000
,
0000
0010
0000
0100
0000
0010
0000
0000
,
0000
0010
0000
1000
0000
0010
0000
1000
,
0000
0010
0000
1000
0000
0001
0000
0100
,
0000
0001
0000
0010
0000
1000
0000
0100
,
0000
0010
0000
0100
0000
0001
0000
1001
,
0000
0220
0000
0000
0000
0000
0000
0000
,
0000
0000
0000
0000
0000
0000
0000
0330
,
0000
0010
0000
1000
0000
0010
0000
0000
,
0000
0010
0000
0100
0000
0010
0000
0000
,
0000
0010
0000
0001
0000
0010
0000
0000
,
0000
0100
0000
1000
0000
0100
0000
0000
,
0000
0010
0000
0100
0000
0010
0000
0000
,
0000
0100
0000
0010
0000
0100
0000
0000
,
0000
1000
0000
0010
0000
0100
0000
0000
,
0000
0001
0000
0100
0000
0001
0000
0000
,
0000
0100
0000
0010
0000
0100
0000
0000
,
0000
0010
0000
0100
0000
1000
0000
0000
,
0000
0001
0000
0010
0000
0100
0000
0000
,
0000
0100
0000
1000
0000
0010
0000
0000
,
0000
0010
0000
0100
0000
0010
0000
0000
,
0000
0001
0000
0010
0000
0001
0000
0000
,
0000
0010
0000
1000
0000
0100
0000
0000
,
0000
0001
0000
0010
0000
0100
0000
0000
,
0000
0100
0000
1000
0000
0010
0000
0000
,
0000
0010
0000
0001
0000
0010
0000
1000
,
0000
0100
0000
1000
0000
0000
0000
0010
,
0000
0100
0000
0010
0000
0000
0000
0010
,
0000
0001
0000
0010
0000
0000
0000
0010
,
0000
1000
0000
0001
0000
2002
0000
0000
,
3003
0000
0000
0000
;

//---------------dance-single - E. Holniker----------------
#NOTES:
     dance-single:
     E. Holniker:
     Beginner:
     1:
     0.169,0.238,0.039,0.000,0.000,87.000,3.000,0.000,0.000,0.000:

0000
0000
0000
0000
,
0000
0000
0000
0000
,
0000
0000
0000
0000
,
0000
0000
0000
0000
,
0000
0000
0000
0000
,
0000
0000
0000
0000
0000
0000
0000
1000
,
0000
0000
0000
0000
0000
0000
0000
0100
,
0000
0000
0000
0000
0000
0000
0000
1000
,
0000
0000
0000
0000
0000
0000
0000
0010
,
0000
0000
0000
0000
0000
0000
0000
0010
,
0000
0000
0000
0100
0000
0000
0000
0100
,
0000
0000
0000
0000
0000
0010
0000
0000
,
0000
0100
0000
0000
0000
0100
0000
0000
,
0000
0000
0000
0010
0000
0000
0000
0000
,
0000
1000
0000
0000
0000
1000
0000
0000
,
0000
1000
0000
0000
0000
1000
0000
0000
,
0000
0001
0000
0000
0000
0001
0000
0000
,
0000
0010
0000
0000
0000
0010
0000
0000
,
0000
1000
0000
0000
0000
0010
0000
0000
,
0000
1000
0000
0000
0000
1000
0000
0000
,
0000
0001
0000
0000
0000
0001
0000
0000
,
0000
0010
0000
0000
0000
1000
0000
0000
,
0000
0001
0000
0000
0000
0100
0000
0000
,
0000
1000
0000
0000
0000
0010
0000
0000
,
0000
0100
0000
0000
0000
0010
0000
0000
,
0000
0010
0000
0000
0000
0001
0000
0100
,
0000
0001
0000
0000
0000
1000
0000
0000
,
0000
0010
0000
0000
0000
0000
0000
1000
,
0000
0110
0000
0000
0000
0000
0000
0000
,
0000
0000
0000
0000
,
0000
0010
0000
0000
0000
0010
0000
0000
,
0000
0100
0000
0000
0000
0100
0000
0000
,
0000
0001
0000
0000
0000
0001
0000
0000
,
0000
1000
0000
0000
0000
1000
0000
0000
,
0000
0010
0000
0000
0000
0010
0000
0000
,
0000
0100
0000
0000
0000
0100
0000
0000
,
0000
1000
0000
0000
0000
0100
0000
0000
,
0000
0001
0000
0000
0000
0001
0000
0000
,
0000
0100
0000
0000
0000
0100
0000
0000
,
0000
0010
0000
0000
0000
1000
0000
0000
,
0000
0001
0000
0000
0000
0100
0000
0000
,
0000
0100
0000
0000
0000
0010
0000
0000
,
0000
0010
0000
0000
0000
0010
0000
0000
,
0000
0001
0000
0000
0000
0001
0000
0000
,
0000
0010
0000
0000
0000
0100
0000
0000
,
0000
0001
0000
0000
0000
0100
0000
0000
,
0000
0100
0000
0000
0000
0010
0000
0000
,
0000
0010
0000
0000
0000
0010
0000
1000
,
0000
0100
0000
0000
0000
0000
0000
0010
,
0000
0100
0000
0000
0000
0000
0000
0010
,
0000
0001
0000
0000
0000
0000
0000
0010
,
0000
1000
0000
0000
0000
1001
0000
1001
;
