#TITLE:Carmen's Prelude;
#SUBTITLE:;
#ARTIST:Violent String Ensemble;
#TITLETRANSLIT:;
#SUBTITLETRANSLIT:;
#ARTISTTRANSLIT:;
#CREDIT:;
#BANNER:Carmen's Prelude-bn.png;
#BACKGROUND:Carmen's Prelude-bg.png;
#LYRICSPATH:;
#CDTITLE:!phenomegaTitle.png;
#MUSIC:Carmen's Prelude.mp3;
#OFFSET:-0.410;
#SAMPLESTART:62.098;
#SAMPLELENGTH:11.980;
#SELECTABLE:YES;
#BPMS:0.000=177.000;
#STOPS:;
#BGCHANGES:;
// cache tags:
#FIRSTBEAT:0.000;
#LASTBEAT:255.000;
#SONGFILENAME:Songs/Keys of Flames/Carmen's Prelude (phenomega)/Carmen's Prelude.sm;
#HASMUSIC:1;
#HASBANNER:1;
#MUSICLENGTH:86.935;
// end cache tags

//---------------dance-single - ----------------
#NOTES:
     dance-single:
     :
     Hard:
     11:
     1.000,1.000,0.598,0.575,1.000,643.000,52.000,50.000,0.000,8.000:
1000
0000
1000
0100
0010
0001
0010
0100
1000
0000
1000
0100
0010
0001
0010
0100
,
1000
0000
1000
0100
0010
0001
0010
0100
2000
0000
0000
0000
3000
0000
0000
0000
,
0001
0000
0001
0010
0100
1000
0100
0010
0001
0000
0001
0010
0100
1000
0100
0010
,
0001
0000
0001
0010
0100
0000
0100
0010
0002
0000
0000
0000
0003
0000
0000
0000
,
1000
0000
1000
0100
0010
0001
0010
0100
1000
0000
1000
0100
0010
0001
0010
0100
,
1000
0000
1000
0100
0010
0001
0010
0100
2000
0000
0000
0000
3000
0000
0000
0000
,
0001
0000
0001
0010
0100
1000
0100
0010
0001
0000
0001
0010
0100
1000
0100
0010
,
0001
0000
0001
0010
0100
0000
0100
0010
0002
0000
0000
0000
0203
0000
0000
0000
,
0301
0000
1000
0010
0100
0001
1000
0010
1000
0000
0001
0100
0001
0010
0100
1000
,
0001
0000
1000
0010
0100
0001
1000
0001
0200
0000
0000
0000
0300
0000
0000
0000
,
0010
0000
1000
0001
0100
0010
1000
0100
1000
0000
0001
0100
0001
1000
0010
1000
,
0001
0000
0100
0010
0100
0000
0010
0100
0020
0000
0000
0000
0030
0000
0000
0000
,
1000
0000
0001
0100
0010
0100
0001
1000
0010
0000
0100
0001
0100
0010
1000
0001
,
1000
0000
0010
0100
0001
1000
0010
0100
0002
0000
0000
0000
0003
0000
0000
0000
,
1000
0000
0100
0010
0001
0010
0100
1000
0010
0000
1000
0001
1000
0010
0100
0001
,
1000
0000
0010
0100
0001
0000
0001
0100
0020
0000
0000
0000
2030
0000
0000
0000
,
3001
0000
0001
0010
0100
1000
0001
0010
0100
0000
0100
1000
0001
0010
0100
1000
,
0001
0000
0001
0010
0100
1000
0001
0010
0200
0000
0000
0000
0300
0000
0000
0000
,
1000
0000
1000
0100
0010
0001
1000
0100
0010
0000
0010
0001
1000
0100
0010
0001
,
1000
0000
1000
0100
0010
0000
0010
0001
2000
0000
0000
0000
3000
0000
0000
0000
,
0001
0000
0001
0010
0100
1000
0001
0010
0100
0000
0100
1000
0001
0010
0100
1000
,
0001
0000
0001
0010
0100
1000
0001
0010
0200
0000
0000
0000
0300
0000
0000
0000
,
1001
0000
1000
0001
1000
0001
1000
0001
0110
0000
1000
0001
1000
0001
1000
0001
,
0110
0000
1000
0001
0110
0000
1000
0001
0210
0000
0000
0000
0320
0000
0000
0000
,
0130
0000
1001
0000
1010
0000
0101
0000
0110
0000
1000
0001
1000
0000
1010
0000
,
0101
0000
0110
0000
1100
0000
0101
0000
0011
0000
1000
0001
1000
0000
0000
0000
,
0101
0000
0011
0000
1001
0000
1010
0000
0110
0000
0100
0001
0100
0000
0110
0000
,
1001
0000
1100
0000
1001
0000
0101
0000
1010
0000
0100
0001
0100
0000
0000
0000
,
0022
0033
0220
0330
2200
3300
0220
0330
,
0022
0000
0000
0000
0000
0000
0000
0030
0223
0000
0000
0000
0000
0000
0000
0300
2230
0000
0000
0000
0000
0000
0000
0300
3220
0000
0000
0000
0000
0000
0000
0030
0322
0000
0000
0000
0000
0000
0000
0030
0223
0000
0000
0000
0000
0000
0000
0300
2230
0000
0000
0000
0000
0000
0000
0000
3300
0000
0000
0000
0000
0000
0000
0000
,
0220
0330
0022
0033
0220
0330
2200
3300
,
0101
0000
1010
0000
0000
0000
0101
0000
1010
0000
0000
0001
1000
0000
1010
0000
,
0002
0000
2003
0000
,
3001
0000
1000
0000
0010
0100
0000
0001
1000
0000
0010
0100
0000
0001
1000
0000
,
0010
0000
0100
0000
0001
1000
0000
0010
0100
0000
0001
1000
0000
0010
0100
0000
,
0001
0000
1000
0000
0010
0100
0000
0001
1000
0000
0010
0100
0000
0001
1000
0000
,
0010
0000
0100
0000
0001
1000
0000
0010
0100
0000
0001
1000
0000
0010
0100
0000
,
0001
0000
1000
0000
0010
0100
0000
0001
1000
0000
0010
0100
0000
0001
1000
0000
,
0010
0000
0100
0000
0001
1000
0000
0010
0100
0000
0001
1000
0000
0010
0100
0000
,
0001
0000
1000
0000
0010
0100
0000
0001
1000
0000
0010
0100
0000
0001
1000
0000
,
0001
0011
0111
1111
,
1000
0000
1000
0001
1000
0010
1000
0001
1000
0000
0001
1000
0001
0100
0001
1000
,
0001
0000
1000
0001
1000
0010
1000
0001
1000
0000
0001
1000
0001
0100
0001
1000
,
0001
0000
1000
0001
1000
0010
1000
0001
1000
0000
0001
1000
0001
0100
0001
1000
,
0001
0000
0001
0000
0001
0000
0001
0000
0001
1000
0001
0000
1000
0001
1000
0000
,
0001
0001
0100
0100
0010
0010
0010
0000
,
1000
0000
1000
0100
0010
0001
0010
0100
1000
0000
1000
0100
0010
0001
0010
0100
,
1000
0000
1000
0100
0010
0001
0010
0100
2000
0000
0000
0000
3000
0000
0000
0000
,
0001
0000
0001
0010
0100
1000
0100
0010
0001
0000
0001
0010
0100
1000
0100
0010
,
0001
0000
0001
0010
0100
0000
0100
0010
0002
0000
0000
0000
0003
0000
0000
0000
,
1000
0000
1000
0100
0010
0001
0010
0100
1000
0000
1000
0100
0010
0001
0010
0100
,
1000
0000
1000
0100
0010
0001
0010
0100
2000
0000
0000
0000
3000
0000
0000
0000
,
0001
0000
0001
0010
0100
1000
0100
0010
0001
0000
0001
0010
0100
1000
0100
0010
,
0001
0001
0001
0001
1000
1000
0001
0001
,
0001
0000
1000
0010
0100
0001
1000
0010
1000
0000
0001
0100
0001
0010
0100
1000
,
0001
0000
1000
0010
0100
0001
1000
0001
0100
0000
0100
0000
0010
0000
0010
0000
,
0010
0000
1000
0001
0100
0010
1000
0100
1000
0000
0001
0100
0001
1000
0010
1000
,
0001
0000
0100
0010
0100
0000
0010
0100
0010
0000
0010
0000
1000
0000
1000
0000
,
1000
0000
0001
0100
0010
0100
0001
1000
0010
0000
0100
0001
0100
0010
1000
0001
,
1000
0000
0010
0100
0001
1000
0010
0100
0001
0000
0001
0000
1000
0000
1000
0000
,
1000
0000
0100
0010
0001
0010
0100
1000
0010
0000
1000
0001
1000
0010
0100
0001
,
1000
1000
1000
1000
0001
0001
1000
1000
,
1001
0000
0000
0000
0000
0101
0000
0000
,
1010
0000
0000
0000
0000
0000
0000
0000
0001
1000
0001
0100
0010
0000
0000
0000
;
