#TITLE:Aci-L;
#SUBTITLE:;
#ARTIST:-45;
#TITLETRANSLIT:;
#SUBTITLETRANSLIT:;
#ARTISTTRANSLIT:;
#CREDIT:;
#BANNER:acil-bn.png;
#BACKGROUND:acil-bg.png;
#LYRICSPATH:;
#CDTITLE:!KillerS.png;
#MUSIC:aci-l.mp3;
#OFFSET:0.000;
#SAMPLESTART:37.037;
#SAMPLELENGTH:12.000;
#SELECTABLE:YES;
#BPMS:0.000=162.000;
#STOPS:;
#BGCHANGES:;
// cache tags:
#FIRSTBEAT:0.000;
#LASTBEAT:385.000;
#SONGFILENAME:Songs/Definitive Keyboard Megapack/Aci-L (Killers)/acil.sm;
#HASMUSIC:1;
#HASBANNER:1;
#MUSICLENGTH:145.222;
// end cache tags

//---------------dance-single - Copied from----------------
#NOTES:
     dance-single:
     Copied from:
     Hard:
     13:
     1.000,1.000,1.000,0.131,1.000,1175.000,370.000,19.000,0.000,61.000:
1000
0100
0010
1000
0001
0010
0100
1000
0010
0100
0010
0001
0100
0010
0100
0001
,
0110
1000
0100
0001
1000
0100
1000
0001
0100
0010
1000
0001
0100
0010
0100
0010
,
1001
0010
0100
0010
1000
0001
1000
0100
0010
0001
0100
1000
0001
1000
0100
0010
,
1001
0100
0010
1000
0001
1000
0100
0010
1000
0001
1000
0100
0010
0100
0010
0100
,
1001
0010
0100
0001
1000
0100
0010
1000
0001
0100
0010
0001
0010
0100
1000
0001
,
0110
1000
0001
1000
0010
0100
0001
0100
0010
1000
0001
1000
0100
0010
1000
0010
,
1001
0010
0100
0001
1000
0100
1000
0001
0010
0001
0010
0100
1000
0100
0010
0001
,
1010
0100
0010
1000
0001
1000
0100
0010
1000
0001
1000
0010
0100
0001
0100
1000
,
0111
0000
0010
0100
0010
0000
0100
1000
0100
1000
0001
1000
0100
0000
0010
0100
,
0011
0000
0010
0100
1000
0000
0010
0100
1000
0001
1000
0100
0001
0000
0010
0100
,
0010
0000
0010
0100
1001
0000
0010
0100
0001
1000
0100
1000
0001
0000
0010
0100
,
0001
0000
0010
1000
0101
0000
0010
1000
0001
1000
0100
1000
0001
0000
0010
1000
,
0001
1000
0100
1000
0001
1000
0100
1000
0001
1000
0100
0010
1000
0001
0100
0010
,
0101
0010
0100
0001
1000
0100
1000
0001
1000
0100
1000
0001
1000
0100
0011
1000
,
0101
0010
0100
0001
1000
0100
0001
0100
1010
0100
0010
1000
0001
1000
0100
1000
,
0011
0100
1001
0010
1001
0100
1010
0001
1010
0100
0011
0100
1001
0100
0011
1000
,
0202
0000
0000
0000
,
2323
0000
0000
0000
,
3232
0000
0000
0000
,
2323
0000
0000
0000
,
3232
0000
0000
0000
,
2323
0000
0000
0000
0000
0000
0000
0000
0000
0000
0000
0000
0000
0000
0000
3030
,
0022
0000
0000
0000
,
2233
0000
0000
0000
3300
0000
0000
0000
1010
0100
0001
1000
0100
1000
0001
0100
,
0011
0100
0000
1100
0010
0000
0001
0010
0100
0010
1000
0010
0100
0100
0010
0010
,
1001
0010
0000
1100
0010
0000
0001
0010
0100
1000
0010
0100
0010
0010
0100
0100
,
1001
0010
0000
1100
0010
0000
0001
0010
1000
0001
1000
0100
1000
1000
0010
0010
,
1001
0010
0000
1100
0010
0000
0001
0010
1000
0001
1000
0100
0010
0010
0100
0100
,
1001
0010
0000
0101
0010
0000
1010
0100
0010
1000
0001
1000
0100
0100
0010
0010
,
1001
0010
0000
0110
0001
0000
0010
0100
1000
0010
1000
0010
0100
0100
0010
0010
,
1001
0010
0000
1010
0100
0000
0010
1000
0001
0100
0010
1000
0001
0001
0100
0100
,
1010
0100
0000
0011
0100
0000
0010
1000
0001
0010
1100
1100
0011
0011
0110
0110
,
1001
0010
0000
0011
0100
0000
0010
1000
0001
1000
0100
1000
0010
0010
0100
0100
,
1001
0010
0000
1010
0001
0000
0010
1000
0001
1000
0100
1000
0001
0001
0010
0010
,
1100
0010
0000
0110
1000
0000
0101
1000
0010
1000
0010
0100
0001
0001
0100
0100
,
1001
0010
0000
0110
0001
0000
0101
0010
1000
0001
1000
0100
1000
1000
0010
0010
,
0101
0010
0000
1100
0010
0000
0001
0100
0010
1000
0001
1000
0100
0100
0010
0010
,
1001
0010
0000
0110
0001
0000
1100
0010
1000
0001
1000
0100
0001
0001
0010
0010
,
1001
0010
0000
0110
1000
0000
0010
1000
0001
1000
0100
0001
1000
1000
0010
0010
,
1001
0010
0000
1001
0010
0000
0100
0010
1000
0001
1000
0100
0001
0001
1000
1000
,
0110
0001
0000
1100
0010
0000
0010
1000
0001
1000
0100
1000
0001
0001
0010
0010
,
1100
0010
0000
0011
0100
0000
0110
1000
0001
1000
0100
1000
0001
0001
1000
1000
,
0101
0010
0000
0110
1000
0000
0011
0100
1000
0010
0100
0010
1000
1000
0001
0001
,
0110
0001
0100
1000
0001
0010
0100
0001
1000
0100
1000
0001
1000
0100
1000
0001
,
1010
0100
0001
1000
0100
1000
0001
1000
0001
1000
0010
0100
0001
1000
0100
1000
,
0101
0010
1000
0001
1000
0100
1000
0001
1000
0010
0100
0001
1000
0100
0001
0100
,
1010
0001
0100
0001
0010
0100
1000
0010
0101
0010
0100
0001
0100
1000
0100
0010
,
1001
0010
0100
1000
0001
0010
1000
0100
1010
0001
0100
0001
1010
0100
1000
0001
,
0110
0100
0000
0010
0010
0000
0001
0001
0100
0100
0010
0100
0010
0001
1000
0011
,
0000
0110
0000
0001
0001
0000
1000
1000
0010
0010
1000
0100
0100
0010
0100
1010
,
0000
0101
0000
1000
1000
0000
0010
0010
0100
0100
1000
0010
0100
0001
0001
1010
,
0000
0101
0000
0010
0010
0000
0010
0010
0100
0100
0010
0001
0010
0001
1000
0111
,
0000
0110
0000
0100
0100
0000
0010
0010
1000
1000
0010
0100
0010
0100
0001
1010
,
0000
0101
0000
1000
1000
0000
0010
0010
1000
0001
1000
0100
0010
1000
0100
0011
,
0000
1100
0000
0010
0010
0000
0001
0001
0100
0100
0010
1000
0001
1000
0100
0011
,
0000
0110
0000
0100
0100
0000
0010
0010
1000
1000
0001
0010
1000
0110
0110
1110
,
0110
0111
0000
1110
1110
0000
1100
0011
1100
0011
1100
0011
1100
0011
1100
0011
,
0000
0110
0000
0110
0110
0000
1001
0110
1001
0110
1001
0110
1001
0110
1001
0110
,
0000
0110
0000
1001
1001
0000
0101
1010
0101
1010
0101
1010
0101
1010
0101
1010
,
0000
0011
0000
1110
1110
0000
0110
1001
0110
1001
0110
1001
0110
1001
0110
1001
,
0000
0110
0000
1100
1100
0000
1100
0011
1100
0011
1100
0011
1100
0011
1100
0011
,
0000
1110
0000
0111
0110
0000
0011
1100
0011
1100
0011
1100
0011
1100
0011
1100
,
0000
0111
0000
1110
1110
0000
0111
1000
0111
1000
0111
1000
0111
1000
0111
1000
,
0000
0110
0000
1111
1111
0000
1100
0011
1100
0011
1100
0011
1100
0011
1100
0011
,
1100
0010
1000
0001
1000
0100
1000
0001
,
0100
1000
0010
0100
0001
1000
0100
1000
,
0001
1000
0100
0001
0100
1000
0010
0100
,
0001
1000
0010
0100
1000
0001
1000
0100
,
0001
0100
0010
1000
0001
1000
0100
1000
,
0001
0010
0100
0001
1000
0100
1000
0001
,
1010
0000
0000
0101
0000
0000
1010
0000
,
0000
0101
0000
0000
1100
0000
0110
0000
,
0011
0110
0011
0110
0011
1100
0110
0110
,
0011
1100
0101
1010
0110
1100
0011
0110
,
0011
0110
1001
0011
0110
0011
1100
0011
,
1100
0110
0011
1100
0111
1110
0111
0101
,
1110
0111
0111
1111
0111
1110
0111
1111
,
0111
1100
0110
0111
1110
0111
1010
0111
,
0111
1110
0111
1110
0111
0110
1110
1110
,
0110
0111
1110
1110
0111
1100
0111
1110
,
0111
0111
0000
1110
1110
0000
0001
0010
1000
0001
0100
1000
0100
0100
0010
0010
,
1001
0010
0000
0101
0010
0000
1001
0100
0010
1000
0001
1000
0100
0100
0010
0010
,
1001
0010
0000
0101
0010
0000
1000
0100
1000
0001
1000
0100
0010
0010
0100
0100
,
0011
0100
0000
1010
0100
0000
0001
0010
1000
0001
1000
0100
1000
1000
0001
0001
,
0110
1000
0000
0110
0001
0000
0010
1000
0001
1000
0010
0100
0001
0001
1000
1000
,
0101
0010
0000
0101
0010
0000
1000
0001
1000
0100
1000
0001
1000
1000
0010
0010
,
1001
0010
0000
0110
0001
0000
0110
1000
0001
1000
0100
1000
0011
0011
1100
1100
,
1101
0010
0000
0011
0110
0000
1100
0010
0010
1000
0001
1000
0100
0100
0010
0010
,
1001
0100
0011
1000
0101
0010
0101
1000
0110
0001
1100
0010
1001
0100
1010
0001
,
1010
0100
1010
0001
1100
0010
1100
0001
1100
0010
1001
0100
1010
0001
1010
0001
,
1100
0001
0110
1000
0011
0100
0011
1000
0101
0010
0101
1000
0011
0100
1010
0100
,
0011
1000
0110
1000
0101
1000
0101
0010
1100
0001
1010
0100
0011
0100
1010
0100
,
0011
0100
0011
0100
1010
0001
1010
0100
1010
0001
0110
0001
1010
0100
0011
1000
,
0101
1000
0110
1000
0101
1000
0110
0001
0110
1000
0101
0010
1001
0010
1100
0010
,
0101
0010
1001
0100
0011
0100
1001
0010
1100
0001
0110
1000
0101
0010
1100
0001
,
0110
0001
0110
1000
0101
0010
1100
0010
0101
1000
0011
0100
0011
0100
0011
1000
,
0222
0333
0000
0000
;
