#TITLE:Twisted Love;
#SUBTITLE:;
#ARTIST:4 Speed EG;
#TITLETRANSLIT:;
#SUBTITLETRANSLIT:;
#ARTISTTRANSLIT:;
#CREDIT:Rynker;
#BANNER:twisted love bn.png;
#BACKGROUND:twisted love bg.png;
#LYRICSPATH:;
#CDTITLE:;
#MUSIC:04 - Twisted Love - 4 Speed EG.ogg;
#OFFSET:-0.069;
#SAMPLESTART:57.211;
#SAMPLELENGTH:12.000;
#SELECTABLE:YES;
#BPMS:0.000=193.250;
#STOPS:;
#BGCHANGES:;
// cache tags:
#FIRSTBEAT:15.000;
#LASTBEAT:760.000;
#SONGFILENAME:Songs/SPEEEDCOOOORE 2/Twisted Love - [Rynker]/twisted love.sm;
#HASMUSIC:1;
#HASBANNER:1;
#MUSICLENGTH:238.876;
// end cache tags

//---------------dance-single - Rynker----------------
#NOTES:
     dance-single:
     Rynker:
     Challenge:
     16:
     1.000,1.000,0.197,0.481,1.000,2368.000,47.000,115.000,23.000,0.000:

0000
0000
0000
0000
,
0000
0000
0000
0000
,
0000
0000
0000
0000
,
0000
0000
0000
0000
0000
0000
0000
0000
0000
0000
0000
0000
0001
0100
0001
1000
,
0010
0100
0010
1000
0001
1000
0100
0010
0001
0010
0100
1000
0001
1000
0001
0100
,
0010
0100
0001
1000
0100
1000
0001
0010
0001
1000
0001
0100
0010
0100
0001
1000
,
0010
0100
0010
1000
0001
0010
0100
1000
0001
0100
0010
1000
0001
0010
0100
0010
,
0100
1000
0001
1000
0001
0100
0010
0100
0001
1000
0100
1000
0001
0010
0100
1000
,
0001
0100
0010
0100
0001
1000
0010
0100
0010
1000
0001
0010
0100
1000
0100
0010
,
0001
1000
0001
0100
0010
0100
0001
1000
0100
0010
0001
1000
0001
0100
0010
0100
,
0001
1000
0010
0100
0001
1000
0100
0010
0100
1000
0001
1000
0010
0000
0000
0000
,
1000
0000
0010
0000
0000
0000
1000
0000
1001
0000
0000
0000
0001
0100
0010
0100
,
0001
1000
0010
0100
0010
1000
0001
0100
0010
0100
0001
1000
0010
0100
0010
1000
,
0001
0100
0010
0100
0001
1000
0001
1000
0010
0100
0010
1000
0001
1000
0001
0010
,
0001
1000
0100
1000
0001
0010
0100
0010
0001
1000
0100
0010
0100
1000
0001
1000
,
0001
0010
0100
1000
0100
0010
0001
1000
0001
0010
0100
1000
0001
0100
0010
0100
,
0001
1000
0010
0100
0001
1000
0010
0100
0001
0100
0010
0100
0001
1000
0010
1000
,
0010
0100
0001
1000
0010
0100
0010
0100
0001
1000
0001
1000
0100
0010
0100
1000
,
0001
0010
0001
1000
0100
0010
0001
1000
0100
0010
0001
1000
0001
0010
0100
1000
,
0001
0010
0100
0010
0001
1000
0001
1000
0100
0010
0100
0010
0001
1000
0010
0100
,
0001
1000
0010
0100
0010
1000
0001
0100
0010
0100
0001
1000
0010
0100
0010
1000
,
0001
0100
0010
0100
0001
1000
0001
1000
0010
0100
0010
1000
0001
1000
0001
0010
,
0001
1000
0100
1000
0001
0010
0100
0010
0001
1000
0100
0010
0100
1000
0001
1000
,
0001
0010
0100
1000
0100
0010
0001
1000
0001
0010
0100
1000
0001
0100
0010
0100
,
0001
1000
0010
0100
0001
1000
0010
0100
0001
0100
0010
0100
0001
1000
0010
1000
,
0010
0100
0001
1000
0010
0100
0010
0100
0001
1000
0001
1000
0100
0010
0100
1000
,
0001
0010
0001
1000
0100
0010
0001
1000
0100
0010
0001
1000
0001
0010
0100
1000
,
0001
0010
0100
0010
0001
1000
0001
1000
0100
0010
0100
0010
0001
1000
0010
0100
,
0001
1000
0010
0100
0010
1000
0001
0100
0010
0100
0001
1000
0010
0100
0010
1000
,
0001
0100
0010
0100
0001
1000
0001
1000
0010
0100
0010
1000
0001
1000
0001
0010
,
0001
1000
0100
1000
0001
0010
0100
0010
0001
1000
0100
0010
0100
1000
0001
1000
,
0001
0010
0100
1000
0100
0010
0001
1000
0001
0010
0100
1000
0001
0100
0010
0100
,
0001
1000
0010
0100
0001
1000
0010
0100
0001
0100
0010
0100
0001
1000
0010
1000
,
0010
0100
0001
1000
0010
0100
0010
0100
0001
1000
0001
1000
0100
0010
0100
1000
,
0001
0010
0001
1000
0100
0010
0001
1000
0100
0010
0001
1000
0001
0010
0100
1000
,
0001
0010
0100
0010
0001
1000
0010
0100
0001
0010
0100
1000
0002
0003
0000
0000
,
0202
0303
2200
3300
0220
0330
0022
0033
,
2002
0000
3003
0000
0001
0100
0000
0001
0100
0000
0100
0000
0220
0330
0000
0000
,
2020
3030
0000
0000
2200
3300
0000
0000
2002
3003
0000
0000
0202
0303
0000
0000
,
0001
0000
0000
0000
0010
0000
0000
0000
0100
0000
0000
0000
1000
0000
0000
0000
0000
0000
0000
0000
0001
0000
0000
0000
0010
0000
0000
0000
0000
0000
0100
0000
0000
1000
0000
0000
0001
0000
0000
0000
0000
0000
0000
0000
0000
0000
0000
0000
,
2200
0000
0000
3300
0000
0000
0000
0000
0000
0000
0000
0000
2002
0000
0000
3003
0000
0000
0000
0000
0000
0000
0000
0000
0022
0000
0000
0033
0000
0000
0000
0000
0000
0000
0000
0000
0202
0000
0000
0303
0000
0000
0000
0000
0100
0000
0000
0000
,
0010
0000
0000
0000
0000
0000
0000
0000
1000
0000
0000
0000
0100
0000
0000
0000
0010
0000
0000
0000
0001
0000
0000
0000
0100
0000
0000
0000
0000
0000
0000
0000
0000
0000
0000
0000
2020
0000
0000
3030
0000
0000
0000
0000
0000
0000
0000
0000
,
0202
0303
0000
0000
2002
3003
0000
0000
2200
3300
0000
0000
0011
0000
0000
0000
,
1010
0000
0000
0000
0001
0010
0100
1000
0002
0003
0000
0000
1000
0001
0100
0010
,
0100
0001
1000
0100
0010
0100
1000
0001
0010
0100
1000
0001
0100
0010
0100
0001
,
0010
0100
1000
0100
0010
0001
1000
0001
0100
0010
0100
0010
1000
0100
0010
0100
,
1000
0001
0010
0100
1000
0001
0100
0010
0100
0001
1000
0010
0100
0001
1000
0100
,
0010
0100
1000
0001
0010
0100
1000
0010
0100
0001
1000
0010
0100
0001
1000
0100
,
0010
0100
1000
0001
0100
0010
0100
0001
0010
0100
1000
0100
0010
0001
1000
0001
,
0100
0010
0100
0001
1000
0100
0010
0001
0010
0100
1000
0001
0100
0010
0100
0001
,
1000
0100
0010
0100
1000
0010
0100
0001
0010
0100
1000
0010
0100
0000
0001
0000
,
1000
0000
0100
0000
0010
0000
0001
1000
0010
0100
0001
0100
0001
1000
0010
0100
,
0010
1000
0001
0010
0100
0010
0001
1000
0100
0010
0001
1000
0010
0100
0010
1000
,
0100
0010
0001
0010
0100
1000
0001
1000
0010
0100
0010
0100
0001
0010
0100
0010
,
0001
1000
0100
0010
0001
1000
0010
0100
0010
1000
0001
0100
0001
0000
0100
0000
,
0001
0000
0000
0000
0000
0000
0010
0000
0000
0100
0000
0000
1000
0000
0000
0000
0000
0000
0001
0000
0000
0100
0000
0000
0020
0000
0000
0000
0000
0000
0000
0000
0030
0000
0000
0000
0100
0000
0000
0001
0000
0000
1000
0000
0000
0100
0000
0000
,
0010
0100
1000
0001
0100
0010
0100
0001
0010
0100
1000
0100
0010
0001
1000
0001
,
0100
0010
0100
0001
1000
0100
0010
0001
0010
0100
1000
0001
0100
0010
0100
0001
,
1000
0100
0010
0100
1000
0010
0100
0001
0010
0100
1000
0010
1000
0001
0100
0010
,
0100
0001
1000
0100
0010
0100
1000
0001
0010
0100
1000
0001
0100
0010
0100
0001
,
0010
0100
1000
0100
0010
0001
1000
0001
0100
0010
0100
0010
1000
0100
0010
0100
,
1000
0001
0010
0100
1000
0001
0100
0010
0100
0001
1000
0010
0100
0001
1000
0100
,
0010
0100
1000
0001
0010
0100
1000
0010
0100
0001
1000
0010
0100
0000
0001
0000
,
0010
0000
0100
0000
1000
0000
0010
0100
0010
1000
0001
0010
0001
0010
0100
1000
,
0100
0010
0100
1000
0001
0010
0100
1000
0100
0010
0001
1000
0010
0100
0010
1000
,
0001
0010
0100
0010
0001
0100
0010
1000
0100
0010
0001
0100
0001
1000
0010
0100
,
0010
1000
0001
0010
0100
0010
0001
1000
0100
0010
0001
1000
0010
0000
1000
0000
,
0010
0000
0100
0001
0100
0000
0001
0010
0200
0000
0000
0000
1300
0100
0010
0100
,
1000
0001
0010
0100
1000
0001
0100
0010
0100
0001
1000
0010
0100
0001
1000
0100
,
0010
0100
1000
0001
0010
0100
1000
0010
0100
0001
1000
0010
0100
0001
1000
0100
,
0010
0100
1000
0001
0100
0010
0100
0001
0010
0100
1000
0100
0010
0000
0100
0000
,
0010
0000
0100
0000
1000
0000
0001
0100
0010
1000
0010
1000
0002
0000
0003
2000
,
0000
3000
0200
0000
0320
0000
0030
0002
0000
0003
2000
0000
3020
0000
0030
0200
,
0000
0300
0002
0000
0023
0000
0230
0000
2300
0000
3000
0000
0002
0000
0003
0200
,
0000
0300
0020
0000
2030
0000
3000
0200
0000
0300
0020
0000
0230
0000
0300
2000
,
0000
0000
0000
3000
0000
0000
0020
0000
0000
0000
0000
0000
0230
0000
0300
0000
0002
0000
0003
0000
0020
0000
0030
0000
0200
0000
0000
0000
0000
0000
0000
0000
0000
0000
0000
0000
2300
0000
0000
0000
0000
0000
0000
0000
0000
0000
0000
0000
,
0000
0000
0000
0000
,
0000
0000
0000
3000
,
0000
0000
0000
0000
,
0000
0000
0000
2002
,
0000
0000
0000
3003
,
0000
0000
0220
0330
0000
1001
2002
3003
,
2200
3300
0011
0022
0033
2200
3300
0101
,
0202
0303
1010
2020
3030
1001
2002
0000
,
0000
0000
0000
0000
0000
3003
0000
0000
,
0000
0000
0004
0003
0000
1000
0040
0030
,
0200
0000
0000
0001
0000
0000
0000
0000
0300
0000
0000
0000
0002
0000
0000
0000
0000
0000
0043
0000
0000
0000
0000
0000
0030
0000
0000
0000
0000
0000
0200
0000
0000
0000
0000
0000
0300
0000
0000
0000
0000
0000
2000
0000
0000
0000
0000
0000
,
3001
0100
0000
0000
0040
0000
0030
0000
1000
0000
0100
0000
0010
0000
0000
0001
,
0000
1000
0010
0000
0100
0000
0100
0000
0001
0100
0000
0000
0010
0000
1000
0001
,
0000
1000
0100
0010
0001
0000
0000
1000
0000
0000
0010
0000
0100
0000
0000
0110
,
0000
0000
0110
0000
0101
0000
0000
0000
1000
0001
0000
0000
0101
0000
0101
0000
,
0000
0000
0000
0000
1000
0001
1000
0001
1000
0000
0001
0000
0010
0000
0100
0010
,
0000
0001
1000
0000
0010
0000
0010
0000
0100
0001
0000
0000
1000
0001
1000
0100
,
0000
0010
0100
1000
0001
0000
0000
0100
0000
0000
0010
0000
1000
0000
0000
0101
,
0000
0000
1001
0000
1001
0000
0000
0000
1000
0010
0000
0000
1001
0000
1001
0000
,
0000
0000
0000
0000
0001
0010
0001
0010
0001
0000
1000
0000
0001
0010
0100
1000
,
0001
0000
1000
0100
0010
0001
1000
0010
0100
0000
0010
1000
0001
0000
0010
0000
,
0001
0000
0010
0000
0001
0000
0000
0000
0000
0000
1000
0010
0100
0001
1000
0001
,
0010
0000
0001
1000
0010
0100
0001
0100
0010
0000
0100
0001
0010
0100
1000
0100
,
0010
0001
1000
0001
0100
0000
0010
1000
0010
0000
0100
0001
1000
0001
0010
0100
,
1000
0000
0100
0010
0001
1000
0010
0100
0001
0000
0100
0010
1000
0000
0001
0000
,
1000
0000
0001
0000
1000
0000
0000
0000
0000
0000
0001
0010
0100
0010
0001
1000
,
0100
0000
1000
0001
0100
0001
1000
0100
0010
0000
0100
1000
0010
1000
0001
0010
,
0100
1000
0001
1000
0000
0000
000M
0000
0000
0000
0000
0000
0001
0100
0010
0100
,
0001
1000
0001
0010
0100
0010
0001
1000
0001
0100
0010
0100
0001
1000
0100
0010
,
0100
1000
0010
0100
0010
1000
0001
0100
0010
1000
0001
0010
0100
1000
0100
0010
,
0001
1000
0001
0100
0010
0100
0010
1000
0001
0010
0100
1000
0100
0010
0001
1000
,
0001
1000
0010
0100
0010
1000
0001
0010
0100
0010
0001
1000
0001
0100
0010
0100
,
0001
1000
0010
0100
0001
1000
0100
1000
0001
0010
0100
1000
0010
0100
0001
1000
,
0010
0100
0001
1000
0100
0010
0001
0010
0100
1000
0010
0100
0001
1000
0010
0100
,
0001
0010
0100
1000
0010
0100
0001
1000
0010
0100
0001
1000
0100
0010
0001
0010
,
0100
1000
0001
0100
0010
0100
0001
0010
0100
0010
0001
1000
0001
1000
0010
1000
,
0100
1000
0010
0100
0001
0100
0010
1000
0001
0010
0100
0010
0001
1000
0001
0010
,
0100
1000
0001
0100
0010
1000
0100
0010
0001
0010
0100
1000
0001
0100
0010
0100
,
0001
1000
0100
0010
0001
1000
0001
0100
0010
0100
0001
0010
0100
1000
0100
0010
,
0001
1000
0001
0100
0010
0100
0001
0010
0100
0000
0000
0000
1000
0100
0010
0001
,
1000
0001
0010
0001
1000
0100
1000
0001
0100
0001
1000
0010
1000
0001
0010
0100
,
0010
0001
0100
0010
0100
0001
1000
0100
0010
0100
1000
0010
0100
0001
0100
0010
,
1000
0100
0010
0100
1000
0010
1000
0001
1000
0001
1000
0001
0010
0100
0010
0100
,
1000
0001
0100
0010
1000
0001
1000
0100
0010
0100
1000
0001
2000
0000
3000
0002
,
0000
0003
0020
0000
0230
0000
0300
2000
0000
3000
0002
0000
0203
0000
0300
0020
,
0000
0030
2000
0000
3100
0010
0001
1000
0002
0000
0003
0000
2000
0000
3000
0020
,
0000
0030
0200
0000
0302
0000
0003
0020
0000
0030
0200
0000
0320
0000
0030
0002
,
0000
0000
0000
0003
0000
0000
0200
0000
0000
0000
0000
0000
0320
0000
0030
0000
2000
0000
3000
0000
0200
0000
0300
0000
0020
0000
0000
0000
0000
0000
0000
0000
0000
0000
0000
0000
0032
0000
0000
1003
0000
0000
0010
0000
0000
0100
0000
0000
,
0001
0000
0100
0010
1000
0001
1000
0100
0010
0000
0100
1000
0001
0000
0010
0000
,
0001
0000
0010
0000
0001
0000
0000
0000
0000
0000
0010
0001
1000
0010
0100
0001
,
1000
0001
0100
0010
1000
0001
1000
0100
0040
0000
0000
0030
0100
1000
0010
0100
,
0001
1000
0001
0100
0010
0000
0000
0000
0000
0000
0000
0000
1000
0100
0010
0001
,
0010
0100
1000
0001
0100
0010
1000
0100
0010
0100
1000
0001
0100
0010
0100
0001
,
1000
0100
0010
0100
1000
0001
0100
0010
1000
0100
1000
0010
0100
0001
0010
0001
,
0100
0010
1000
0001
0010
0100
1000
0001
0100
0010
0100
0001
1000
0010
1000
0001
,
0010
0100
1000
0001
0100
0010
0100
0001
0010
0100
1000
0001
0100
0010
0100
0001
,
1000
0010
0100
0001
0100
0010
1000
0100
0010
0100
1000
0001
0010
0100
1000
0001
,
0100
0010
0100
0001
0010
0100
1000
0001
0100
0010
0100
0001
0010
0100
1000
0010
,
0100
0010
1000
0100
1000
0001
0100
0001
0010
0100
1000
0010
1000
0100
0010
0001
,
0100
0001
1000
0100
1000
0001
0010
0100
1000
0100
1000
0100
1000
0010
0100
0001
,
0010
0100
1000
0100
0010
0001
1000
0001
0100
0010
0100
0001
1000
0100
0010
0100
,
1000
0001
0100
0010
0100
0001
0010
0100
1000
0001
0100
0010
0100
0001
1000
0100
,
0010
0100
1000
0001
0100
0010
0100
0001
0010
0100
1000
0001
1000
0001
1000
0001
,
0100
0010
1000
0001
0100
0010
1000
0001
1000
0000
0000
0000
0001
0100
0010
0100
,
0001
0010
0100
1000
0010
0100
0001
1000
0010
0100
0001
0010
0100
1000
0100
0010
,
0001
0100
0010
0100
0001
1000
0100
0010
0100
1000
0010
0100
0002
0000
0000
0000
,
1003
0000
0001
1000
0010
0100
0001
1000
0100
0000
1000
0010
0100
0001
0010
0100
,
1000
0100
0010
0001
1000
0001
1000
0001
4000
0000
0000
3000
0001
0100
0010
0100
,
0001
1000
0010
0100
0010
1000
0001
0100
0010
0100
0001
1000
0010
0100
0010
1000
,
0001
0100
0010
0100
0001
1000
0001
1000
0010
0100
0010
1000
0001
1000
0001
0010
,
0001
1000
0100
1000
0001
0010
0100
0010
0001
1000
0100
0010
0100
1000
0001
1000
,
0001
0010
0100
1000
0100
0010
0001
1000
0001
0010
0100
1000
0001
0100
0010
0100
,
0001
1000
0010
0100
0001
1000
0010
0100
0001
0100
0010
0100
0001
1000
0010
1000
,
0010
0100
0001
1000
0010
0100
0010
0100
0001
1000
0001
1000
0100
0010
0100
1000
,
0001
0010
0001
1000
0100
0010
0001
1000
0100
0010
0001
1000
0001
0010
0100
1000
,
0001
0010
0100
0010
0001
1000
0001
1000
0100
0010
0100
0010
0001
1000
0010
0100
,
0001
1000
0010
0100
0010
1000
0001
0100
0010
0100
0001
1000
0010
0100
0010
1000
,
0001
0100
0010
0100
0001
1000
0001
1000
0010
0100
0010
1000
0001
1000
0001
0010
,
0001
1000
0100
1000
0001
0010
0100
0010
0001
1000
0100
0010
0100
1000
0001
1000
,
0001
0010
0100
1000
0100
0010
0001
1000
0001
0010
0100
1000
0001
0100
0010
0100
,
0001
1000
0010
0100
0001
1000
0010
0100
0001
0100
0010
0100
0001
1000
0010
1000
,
0010
0100
0001
1000
0010
0100
0010
0100
0001
1000
0001
1000
0100
0010
0100
1000
,
0001
0010
0001
1000
0100
0010
0001
1000
0100
0010
0001
1000
0001
0010
0100
1000
,
0001
0010
0100
0010
0001
1000
0001
1000
0100
0010
0100
0010
0001
0100
0010
0100
,
0001
1000
0010
0100
0010
1000
0001
0100
0010
0100
0001
1000
0010
0100
0010
1000
,
0001
0100
0010
0100
0001
1000
0001
1000
0010
0100
0010
1000
0001
1000
0001
0010
,
0001
1000
0100
1000
0001
0010
0100
0010
0001
1000
0100
0010
0100
1000
0001
1000
,
0001
0010
0100
1000
0100
0010
0001
1000
0001
0010
0100
1000
0001
0100
0010
0100
,
0001
1000
0010
0100
0001
1000
0010
0100
0001
0100
0010
0100
0001
1000
0010
1000
,
0010
0100
0001
1000
0010
0100
0010
0100
0001
1000
0001
1000
0100
0010
0100
1000
,
0001
0010
0001
1000
0100
0010
0001
1000
0100
0010
0001
1000
0001
0010
0100
1000
,
0001
0010
0100
0010
0001
1000
0010
0100
0001
0010
0100
1000
0001
1000
0010
0100
,
0001
1000
0010
0100
0010
1000
0001
0100
0010
0100
0001
1000
0010
0100
0010
1000
,
0001
0100
0010
0100
0001
1000
0001
1000
0010
0100
0010
1000
0001
1000
0001
0010
,
0001
1000
0100
1000
0001
0010
0100
0010
0001
1000
0100
0010
0100
1000
0001
1000
,
0001
0010
0100
1000
0100
0010
0001
1000
0001
0010
0100
1000
0001
0100
0010
0100
,
0001
1000
0010
0100
0001
1000
0010
0100
0001
0100
0010
0100
0001
1000
0010
1000
,
0010
0100
0001
1000
0010
0100
0010
0100
0001
1000
0001
1000
0100
0010
0100
1000
,
0001
0010
0001
1000
0100
0010
0001
1000
0100
0010
0001
1000
0001
0010
0100
1000
,
0001
0010
0100
0010
0001
0000
1000
0100
0010
0100
0010
0001
1000
0010
0100
0010
,
1000
0001
0100
0010
0100
0001
1000
0010
0100
0010
1000
0001
0100
0010
0100
0001
,
1000
0010
0100
0010
1000
0001
1000
0001
0100
0010
0100
0001
1000
0001
1000
0100
,
1000
0001
0010
0001
1000
0100
0010
0100
1000
0001
0010
0100
0010
0001
1000
0001
,
1000
0100
0010
0001
0010
0100
1000
0001
1000
0100
0010
0001
1000
0010
0100
0010
,
1000
0001
0100
0010
1000
0001
0100
0010
1000
0010
0100
0010
1000
0001
0100
0001
,
0100
0010
1000
0001
0100
0010
0100
0010
1000
0001
1000
0001
0010
0100
0010
0001
,
1000
0100
1000
0001
0010
0100
1000
0001
0010
0100
1000
0001
1000
0000
0000
0000
,
0001
1000
0000
0001
1001
0000
2002
0000
,
0000
0000
0000
0000
,
0000
0000
0000
3M03
,
M000
000M
M000
0M00
,
000M
00M0
M000
00M0
,
000M
0M00
M000
0M00
,
000M
0000
0000
00M0
M000
00M0
M000
00M0
M000
00M0
0000
0000
,
000M
0000
0000
0000
;
