#TITLE:Don't say "Lazy";
#SUBTITLE:K-ON! ED theme;
#ARTIST:K-ON! Girls;
#TITLETRANSLIT:;
#SUBTITLETRANSLIT:;
#ARTISTTRANSLIT:;
#CREDIT:ALICE_;
#BANNER:Don't say Lazy.png;
#BACKGROUND:Don't say Lazy.jpg;
#LYRICSPATH:;
#CDTITLE:cdtitle.png;
#MUSIC:Don't say Lazy.mp3;
#OFFSET:1.075;
#SAMPLESTART:1.549;
#SAMPLELENGTH:20.800;
#SELECTABLE:YES;
#BPMS:0.000=181.000;
#STOPS:184.000=0.005
;
#BGCHANGES:3.250=Don't say Lazy.avi=1.000=1=0=1,
99999=-nosongbg-=1.000=0=0=0 // don't automatically add -songbackground-
;
// cache tags:
#FIRSTBEAT:4.000;
#LASTBEAT:267.000;
#SONGFILENAME:Songs/alice 4th complete step/Don't say Lazy/Don't say Lazy.sm;
#HASMUSIC:1;
#HASBANNER:1;
#MUSICLENGTH:89.739;
// end cache tags

//---------------dance-single - ----------------
#NOTES:
     dance-single:
     :
     Hard:
     9:
     0.748,0.668,0.357,0.256,0.000,415.000,32.000,23.000,0.000,0.000:
0000
0000
0000
0000
,
0000
0000
0000
0000
,
1100
0000
0101
0000
0010
1000
0100
0000
,
1000
0010
0100
0001
0010
0100
1000
0000
,
0101
0000
1100
0000
0010
0001
0100
0000
,
0100
0010
1000
0100
0010
0001
1000
0000
,
1001
0000
0010
0100
0001
0100
1000
0100
,
0010
0100
0001
0010
0002
0000
0000
0000
,
1003
0100
1000
0100
0010
0100
1000
0100
,
0010
0001
0100
0001
1001
0000
0110
0000
,
1000
0000
0100
1000
0001
0100
0010
0000
,
1000
1100
0001
0101
,
0010
0000
0100
1000
0001
0100
0010
0000
,
0001
0101
1000
1100
,
0010
0000
1000
0001
0100
0001
1000
0100
,
0010
0001
0100
0010
2000
0000
0000
3000
,
0001
0100
0001
0100
0010
0100
0001
0100
,
0010
1000
0100
1000
1001
0000
0110
0000
,
0100
0100
1000
0100
0100
0100
0010
0100
,
0100
0100
0001
0100
1000
0010
0200
0300
,
0001
0001
0010
0001
0001
0001
0100
0001
,
0001
0001
1000
0010
0100
0001
2000
0000
,
3001
0000
0001
0000
0001
0100
0001
0100
,
0010
0000
1000
0000
0001
0000
1001
0100
,
1000
0000
1000
0000
1000
0100
1000
0100
,
0010
0000
0001
0000
1000
0001
0200
0300
,
1010
0010
0100
0010
0010
0010
1000
0010
,
0010
0010
0100
0001
0100
0010
2000
3000
,
0001
0001
0100
0001
0001
0001
0010
0001
,
0001
0001
0100
0001
1000
0100
0020
0030
,
1001
0000
0100
0010
0001
1000
0001
0100
,
0010
0000
1000
0000
0001
0001
0010
0000
,
0101
0000
0010
1000
0001
1000
0100
0010
,
0100
0000
1000
0000
0001
0001
0100
0000
,
0010
1000
0100
0001
0100
1000
0010
0100
,
0001
0000
0110
0000
1000
0010
0100
0000
,
1000
0001
0010
0001
0100
0010
1000
0010
,
0100
1001
0010
1001
,
0201
0000
0310
0000
1000
0100
0010
0001
,
2000
0000
3010
0000
0201
0000
1000
0300
,
0020
0000
1030
0000
0100
0010
0001
0010
,
0200
0000
1300
0000
0012
0000
0100
0003
,
1000
0000
0001
0000
0010
0001
1000
0000
,
0100
1000
0010
0000
0100
0001
0010
0000
,
1001
1100
1001
0101
,
0010
1000
0010
0100
0001
0010
0100
0010
,
0220
0000
0330
0000
1000
0001
0100
0001
,
0010
0100
1000
0010
0100
0001
1000
0001
,
0010
0001
0100
0010
1000
0100
1000
0010
,
0100
0001
1000
0010
0100
1000
0100
0001
,
0010
0100
0010
1000
0001
0100
0010
0001
,
1000
0010
0100
0001
0010
0100
1000
0010
,
0200
0000
0300
0000
0001
0010
0001
0010
,
0100
0010
0001
0100
0010
1000
0001
0100
,
0001
0000
0202
0303
1000
0100
0010
0100
,
0001
0100
1000
0010
0100
0001
1000
0010
,
0100
0010
1000
0001
0100
0010
0100
1000
,
0100
0010
1000
0001
0010
0100
1000
0010
,
0100
0001
1000
0010
0100
1000
0100
0001
,
1000
0010
0001
0010
1000
0001
0010
0100
,
2000
0000
3000
0000
1000
0010
1000
0010
,
0100
0010
1000
0100
1000
0001
0010
0100
,
1000
0000
0202
0303
1100
1000
0000
0010
,
0100
0001
0000
0001
0100
0010
0000
0010
,
1000
0100
0020
0030
0101
0001
0000
0010
,
0100
1000
0000
1000
0100
0010
0000
0010
,
0100
1000
0020
0000
0100
0130
0000
0000
;

//---------------dance-single - Copied from----------------
#NOTES:
     dance-single:
     Copied from:
     Easy:
     4:
     0.392,0.371,0.223,0.000,0.000,226.000,20.000,0.000,0.000,0.000:
0000
0000
0000
0000
,
0000
0000
0000
0000
,
1000
0001
1000
0100
,
0001
1000
0100
0010
,
0000
0001
0100
1000
,
0001
0100
0010
1000
,
0000
1000
0001
0100
,
0010
0100
0010
0000
,
1000
1000
0001
0001
,
0100
0010
0100
0010
,
0000
0001
0010
0100
,
1000
0100
0010
1001
,
0000
1000
0010
0100
,
0001
0100
0010
1001
,
0000
0100
0010
0100
,
1000
0100
0001
0000
,
1000
1000
0001
0001
,
0010
0100
0010
0001
,
1000
1100
0000
1100
,
0000
1100
0000
1100
,
0001
0101
0000
0101
,
0000
0101
0000
0101
,
0010
0100
0000
1000
,
0001
0100
1000
0100
,
0001
1000
0000
0010
,
1000
0001
0100
0010
,
1000
1100
0000
1100
,
0000
1100
0000
1100
,
0001
0101
0000
0101
,
0000
0101
0000
0101
,
1000
1000
0100
0001
,
0100
1000
0010
0100
,
0001
0001
0100
1000
,
0100
0001
0010
0100
,
1000
0001
0100
0010
,
1000
0001
0010
0100
,
0010
0010
0100
0100
,
1000
0001
0100
1001
,
1000
1000
0001
0001
,
0100
0010
0100
0000
,
0001
0001
1000
1000
,
0010
0100
0001
0000
,
1000
0100
0001
1000
,
0010
0001
0100
0010
,
0001
1000
0010
0100
,
0010
0000
1000
0000
,
0001
0000
0000
1000
,
0100
0001
0100
1000
,
0100
0010
0000
0001
,
0100
1000
0100
0001
,
0100
0010
0000
1000
,
0100
0001
0100
1000
,
0001
0000
0100
0100
,
0010
0010
1000
0001
,
1000
0001
0100
0001
,
0100
1000
0001
1000
,
0100
0010
0000
0001
,
0100
1000
0001
1000
,
0100
0010
0000
1000
,
0001
1000
0010
0100
,
0010
0000
1000
1000
,
0001
0001
0010
0100
,
0010
0001
1000
1000
,
1000
1000
1000
0100
,
1000
0010
0001
0001
,
0001
0001
0001
0100
,
0001
0010
1001
0000
;

//---------------dance-single - ----------------
#NOTES:
     dance-single:
     :
     Challenge:
     14:
     1.000,1.000,1.000,1.000,0.189,514.000,275.000,128.000,0.000,116.000:
0000
0000
0000
0000
,
0001
0000
0000
0000
0001
0000
0000
0000
0100
1000
0010
0000
0100
1000
0010
0000
,
0210
0000
1001
0001
1010
0011
1001
0300
,
1020
0100
0101
1000
1100
0101
1031
0000
,
0120
0000
1001
0100
1100
0101
1001
0130
,
0201
1000
1310
0100
2101
0011
3110
0100
,
1002
1000
0110
0010
1100
0110
1010
0103
,
1001
0010
1010
0100
2002
0100
0010
3003
,
2002
0000
3203
0000
0311
0000
0011
0000
1000
0000
0022
0033
1100
0000
0010
0000
,
1001
0000
1010
0000
0100
0000
2002
3003
0010
0000
0100
1000
0100
0010
0100
0000
,
1001
0000
1010
0000
0001
0001
1010
0000
,
0001
0001
1100
0010
0001
0001
1010
0000
,
1001
0000
0101
0000
1000
1000
0011
0000
,
1000
1000
0101
0010
1000
1000
0011
0000
,
0110
0000
1001
0000
0010
0010
1001
0000
,
0010
0010
0101
1000
0010
0100
2002
3003
,
0220
0000
2330
0000
3011
0000
0011
0000
0100
0000
0022
0033
1100
0000
0010
0000
,
1002
0000
0010
0000
0100
0000
1003
0000
0110
0000
1000
0100
1000
0010
1000
0000
,
0101
0202
1303
0011
0101
0202
1303
0011
,
0101
0202
1303
0011
1010
0100
1001
0010
,
1100
2200
3301
1010
1100
2200
3301
1010
,
1100
0000
2200
0000
3301
0000
1010
0000
2100
0000
3010
0001
0010
0100
0010
0000
,
2202
0000
3303
0000
0011
0000
0010
0000
1000
0000
1010
0000
0212
0303
0010
0000
,
1100
0000
0010
0000
0101
0000
1000
0000
0212
0303
0010
0000
1000
0000
0110
0000
,
2202
0000
3303
0000
1010
0000
0010
0000
0001
0000
0101
0000
2120
3030
0100
0000
,
1001
0000
0000
0000
0000
0000
0010
0000
0000
0000
0000
0000
1010
0000
0000
0000
0000
0000
0100
0000
0000
0000
0000
0000
2201
0000
0000
3300
0000
0000
0010
0000
0001
0000
0010
0000
1000
0000
0000
0100
0000
0000
0010
0000
0000
0000
0000
0000
,
0101
0202
1303
0011
0101
0202
1303
0011
,
0101
0202
1303
0011
1010
0100
1001
0010
,
1100
2200
3301
1010
1100
2200
3301
1010
,
1100
0000
2200
0000
3301
0000
1010
0000
2100
0000
3010
0001
0100
0010
0100
0000
,
1010
0010
1001
0100
1001
0010
1010
0100
,
1010
0000
0101
0000
1100
1010
0101
0010
,
1100
0100
1001
0100
1001
0010
1010
0100
,
1001
0000
0101
0000
1010
1100
1001
0010
,
1100
0100
0011
1000
0110
0100
1001
0010
,
0101
0000
1001
0000
0110
0110
1001
0000
,
1100
0010
1010
0100
1001
0010
1001
0100
,
0010
0000
0110
0000
2002
3003
0000
0000
1100
0000
0100
0000
2020
3030
0000
0000
,
1002
0100
1010
0100
0010
1000
0100
1000
,
0110
0000
0000
0000
1010
0000
0000
0003
1120
0000
0100
0030
1002
0000
0010
0003
,
1200
0010
1001
0010
0001
1010
0011
1000
,
0010
0000
0010
0000
1001
0000
0010
0300
2100
0000
0110
3000
0021
0000
0000
0030
,
1201
0000
0010
0000
0011
0000
1000
0000
1001
0000
0010
0000
0001
0000
1000
0300
,
0020
0000
0100
0000
1031
0000
0000
0000
0110
0000
0010
0000
2002
3003
0000
0000
,
0202
0303
1010
0100
1011
0100
1011
0100
,
1101
0000
0000
0010
0000
0000
1101
0000
0000
0010
0000
0000
1001
0000
0000
0010
0001
0010
1100
0000
0000
0010
0000
0000
,
0002
0000
0020
0000
0200
0003
2030
0300
3210
0000
0000
0000
1001
0000
0000
0000
,
1010
0011
1001
0300
1020
0100
0101
1000
,
1100
1031
0110
0000
1021
0000
1100
1000
,
0101
1100
1001
0130
0201
1000
1310
0100
,
2101
0011
3110
0100
1002
1000
0110
0010
,
1100
0110
1010
0103
1001
0010
1010
0100
,
2002
0100
0020
3033
2002
3203
0311
1001
,
0100
0021
1031
0100
1001
1010
0100
1002
,
1013
0000
0100
1000
0100
0010
0100
0000
1002
0000
0100
0000
1010
0000
0100
0000
,
0110
0000
1100
0000
1010
0000
0100
0003
2010
0000
0100
0000
0011
0000
0100
3000
,
0021
0000
1100
0000
0101
0000
1000
0030
2100
0000
0010
0000
0101
0000
0010
0000
,
0011
0000
0110
0000
0001
0000
0100
3000
1002
0000
0100
0000
1100
0000
0010
0003
,
1210
0000
1001
0000
0011
0000
1000
0300
0011
0000
0000
0000
1001
0000
0000
0000
,
0101
0101
1001
0000
0110
0010
1001
0100
,
2012
0100
3023
0030
2002
3203
1310
1001
,
0100
0000
0000
0000
0000
0000
0000
0000
0022
0003
0000
0000
0000
0000
0000
0000
1031
0000
0000
0000
0000
0000
0000
0000
0100
0000
0000
0000
0000
0000
0000
0000
2010
0000
0000
0000
0000
0000
0000
0000
0100
0000
0000
0000
0001
0000
0000
0000
0100
0000
0000
0000
0010
0000
0000
0000
0100
0000
0000
0000
3010
0000
0000
0000
,
0001
0100
1000
0100
0011
1000
0100
0010
1001
0110
1000
0000
0022
0000
0133
0000
,
1001
0110
1000
0000
0202
0000
0313
0000
1001
0110
1000
0000
0022
0000
0133
0000
,
1001
0110
1000
1000
0012
0000
0103
0000
1001
0110
0001
0000
2020
0000
3130
0000
,
1001
0110
0001
0000
2200
0000
3310
0000
1001
0110
0001
0000
2020
0000
3130
0000
,
1001
0110
0001
0001
2100
0000
3010
0000
0101
0000
2002
0000
3003
0000
0000
0000
;

//---------------dance-single - ----------------
#NOTES:
     dance-single:
     :
     Medium:
     7:
     0.554,0.557,0.301,0.067,0.000,315.000,27.000,6.000,0.000,0.000:
0000
0000
0000
0000
,
0000
0000
0000
0000
,
1001
0100
1000
0010
,
0100
0000
0001
0000
0010
0001
0100
0000
,
0000
0001
1000
0100
,
1000
0000
0001
0000
1000
0010
0100
0000
,
1001
0100
1000
0010
,
0001
0010
1000
0000
,
1001
0000
0100
0010
1000
0010
0100
0000
,
0001
1000
0100
1000
0010
0000
0001
0000
,
0101
1000
0100
1000
,
0010
0000
1000
0000
0100
0010
0001
0000
,
1100
0001
0100
0001
,
0010
0000
0001
0000
1000
0010
0100
0000
,
0001
1000
0100
0001
,
0100
1000
0020
0030
,
1001
0000
0100
0010
0001
0010
0100
0000
,
1000
0001
0010
0001
0100
0000
0100
0000
,
0001
1000
0000
0100
1000
0100
0000
0100
,
1000
0100
0000
0100
1000
0010
0100
0000
,
1000
0001
0000
0100
0001
0100
0000
0100
,
0001
0010
0000
0010
0001
1000
0001
0000
,
1000
0100
0100
1000
,
0010
0100
0001
0010
,
0001
0100
0100
0001
,
1000
0000
0010
0000
0100
0001
1000
0000
,
0001
0100
0000
0100
0010
1000
0000
1000
,
0010
0100
0000
0100
0001
0010
0001
0000
,
0100
1000
0000
1000
0010
0100
0000
0100
,
0010
1000
0000
1000
0100
0010
0001
0000
,
1000
1100
0001
0101
,
1000
0000
0010
0000
0100
0001
0010
0000
,
0001
0101
1000
1100
,
0001
0000
1000
0000
0100
1000
0010
0000
,
0100
0101
0001
1000
,
0100
0000
1100
0000
1000
0010
1000
0000
,
0001
0100
0001
0010
0100
1000
0010
0000
,
0100
0001
0001
0000
0100
1000
1000
0000
,
0012
1000
0100
1000
,
0010
0003
1000
0000
0010
0100
0010
0000
,
2100
0001
0010
0001
,
0100
3000
0001
0000
0100
0010
0100
0000
,
1001
1100
1000
1010
,
0100
0101
0001
0011
,
0100
1000
0001
0100
,
0010
0000
0100
0001
2000
0000
0000
0000
,
3000
0000
0011
1000
,
0001
0100
0010
1000
,
0001
0100
0001
0000
1000
0000
0010
0000
,
0100
0001
1000
0001
,
1000
0100
1000
0000
0101
0000
1000
0000
,
0010
0100
0001
0010
,
0002
0000
0003
0000
1001
0000
0100
0010
,
0001
0100
0001
0000
0100
0010
1000
0100
,
1000
1000
0101
1000
,
0010
0100
0001
1000
,
0001
0100
0010
0000
1100
0000
0001
0000
,
1000
0001
0100
0010
,
1000
0100
0010
0000
1001
0000
0100
0000
,
0010
0100
0001
1000
,
0002
0000
0003
0000
1001
0000
0100
0001
,
0010
0001
0100
0001
1000
0010
1000
0100
,
0001
0000
0001
0000
0100
1000
0010
0100
,
0010
0100
0010
0000
1000
0001
0100
0000
,
0001
1000
0100
0000
0010
0001
0100
0010
,
0100
0010
0100
0000
0001
1000
0100
0000
,
0100
1000
0001
0000
0010
1001
0000
0000
;
